osu file format v14

[General]
AudioFilename: audio.mp3
AudioLeadIn: 0
PreviewTime: 56999
Countdown: 0
SampleSet: Normal
StackLeniency: 0.7
Mode: 1
LetterboxInBreaks: 0
WidescreenStoryboard: 0

[Editor]
DistanceSpacing: 1.7
BeatDivisor: 4
GridSize: 4
TimelineZoom: 2

[Metadata]
Title:Dear Brave (TV Size)
TitleUnicode:ディアブレイブ (TV Size)
Artist:Kano
ArtistUnicode:鹿乃
Creator:[-E S I A-]
Version:Oni
Source:ヘヴィーオブジェクト
Tags:heavy object ed ending nowhere japanese j-pop jpop pop female vocal singer anime j.c.staff jc staff Sanzigen Milinda Brantini ミリンダ=ブランティーニ E_S_I_A [-E_S_I_A-] ESIA [-ESIA-]
BeatmapID:3085469
BeatmapSetID:1475077

[Difficulty]
HPDrainRate:5
CircleSize:5
OverallDifficulty:6
ApproachRate:5
SliderMultiplier:1.4
SliderTickRate:1

[Events]
//Background and Video events
0,0,"bg.jpg",0,25
//Break Periods
//Storyboard Layer 0 (Background)
//Storyboard Layer 1 (Fail)
//Storyboard Layer 2 (Pass)
//Storyboard Layer 3 (Foreground)
//Storyboard Layer 4 (Overlay)
//Storyboard Sound Samples

[TimingPoints]
1867,319.148936170213,4,1,0,50,1,0
1867,-105.263157894737,4,1,0,50,0,0
6315,-100,4,1,0,60,0,0
6793,-100,4,1,0,70,0,0
17166,-117.647058823529,4,1,0,50,0,0
27059,-116.279069767442,4,1,0,55,0,0
27219,-113.636363636364,4,1,0,55,0,0
27378,-111.111111111111,4,1,0,60,0,0
37591,-105.263157894737,4,1,0,70,0,0
42378,-111.111111111111,4,1,0,70,0,0
42698,-117.647058823529,4,1,0,50,0,0
46847,-116.279069767442,4,1,0,50,0,0
47006,-114.942528735632,4,1,0,50,0,0
47086,-113.636363636364,4,1,0,50,0,0
47166,-112.359550561798,4,1,0,50,0,0
47325,-111.111111111111,4,1,0,50,0,0
47405,-109.89010989011,4,1,0,50,0,0
47485,-108.695652173913,4,1,0,50,0,0
47644,-106.382978723404,4,1,0,50,0,0
47804,-105.263157894737,4,1,0,70,0,0
52910,-100,4,1,0,70,0,0
55783,-99.009900990099,4,1,0,70,0,0
55942,-98.0392156862745,4,1,0,70,0,0
56102,-97.0873786407767,4,1,0,70,0,0
56261,-95.2380952380952,4,1,0,70,0,0
56421,-94.3396226415094,4,1,0,70,0,0
56581,-92.5925925925926,4,1,0,70,0,0
56740,-90.9090909090909,4,1,0,70,0,0
57997,-100,4,1,0,75,0,0
58037,-100,4,1,0,75,0,1
72378,-100.62893081761,4,1,0,75,0,1
72538,-101.26582278481,4,1,0,75,0,1
72618,-101.910828025478,4,1,0,75,0,1
72698,-102.564102564103,4,1,0,75,0,1
72857,-103.225806451613,4,1,0,75,0,1
73017,-103.896103896104,4,1,0,75,0,1
73156,-104.575163398693,4,1,0,75,0,1
73316,-105.263157883657,4,1,0,70,0,1
73356,-105.263157883657,4,1,0,70,0,0
78442,-100,4,1,0,75,0,0
80357,-101.010101010101,4,1,0,75,0,0
80676,-103.092783505155,4,1,0,75,0,0
80995,-105.263157894737,4,1,0,60,0,0
81015,340.909090909091,4,1,0,60,1,0
81015,-98.0392156862745,4,1,0,60,0,0
82358,-98.0392156862745,4,1,0,50,0,0
82378,359.281437125748,4,1,0,50,1,0
82378,-93.4579439252336,4,1,0,50,0,0
83725,-100,4,1,0,40,0,0
86330,387.096774193548,4,1,0,40,1,8
86330,-92.5925925925926,4,1,0,40,0,8
86717,387.096774193548,4,1,0,40,1,0
86717,-92.5925925925926,4,1,0,40,0,8

[HitObjects]
166,102,1867,5,0,0:0:0:0:
166,102,2186,1,0,0:0:0:0:
166,102,2505,1,8,0:0:0:0:
166,102,2824,1,0,0:0:0:0:
166,102,2984,1,8,0:0:0:0:
166,102,3143,1,0,0:0:0:0:
166,102,3462,1,0,0:0:0:0:
166,102,3622,1,8,0:0:0:0:
166,102,3781,1,8,0:0:0:0:
166,102,3941,1,8,0:0:0:0:
170,97,4101,1,0,0:0:0:0:
166,102,4260,1,8,0:0:0:0:
166,102,4420,1,0,0:0:0:0:
166,102,4739,1,0,0:0:0:0:
166,102,5058,1,8,0:0:0:0:
162,105,5377,1,0,0:0:0:0:
162,105,5537,1,8,0:0:0:0:
162,105,6335,1,0,0:0:0:0:
162,105,6414,1,0,0:0:0:0:
162,105,6494,1,0,0:0:0:0:
214,134,6574,1,0,0:0:0:0:
162,105,6654,1,8,0:0:0:0:
162,105,6813,1,4,0:0:0:0:
162,105,7132,1,0,0:0:0:0:
162,105,7292,1,8,0:0:0:0:
162,105,7452,1,0,0:0:0:0:
162,105,7611,1,0,0:0:0:0:
162,105,7691,1,0,0:0:0:0:
162,105,7771,1,0,0:0:0:0:
162,105,7930,1,8,0:0:0:0:
156,109,8090,1,0,0:0:0:0:
162,105,8409,1,0,0:0:0:0:
162,105,8569,1,8,0:0:0:0:
162,105,8728,1,8,0:0:0:0:
156,109,8808,1,8,0:0:0:0:
162,105,8888,1,0,0:0:0:0:
162,105,9047,1,0,0:0:0:0:
162,105,9207,1,8,0:0:0:0:
162,105,9367,1,4,0:0:0:0:
162,105,9686,1,12,0:0:0:0:
162,105,10005,1,4,0:0:0:0:
162,105,10324,1,12,0:0:0:0:
162,105,10643,1,4,0:0:0:0:
399,102,10962,1,0,0:0:0:0:
162,105,11122,1,8,0:0:0:0:
162,105,11281,1,8,0:0:0:0:
162,105,11441,1,0,0:0:0:0:
216,129,11521,1,0,0:0:0:0:
162,105,11601,1,0,0:0:0:0:
162,105,11760,1,0,0:0:0:0:
162,105,11920,1,12,0:0:0:0:
162,105,12239,1,0,0:0:0:0:
162,105,12398,1,12,0:0:0:0:
162,105,12558,1,0,0:0:0:0:
180,161,12638,1,0,0:0:0:0:
162,105,12718,1,0,0:0:0:0:
162,105,12877,1,12,0:0:0:0:
162,105,13196,1,0,0:0:0:0:
162,105,13356,1,12,0:0:0:0:
162,105,13515,1,0,0:0:0:0:
162,105,13675,1,8,0:0:0:0:
162,105,13835,1,8,0:0:0:0:
162,105,13994,1,0,0:0:0:0:
162,105,14154,1,8,0:0:0:0:
162,105,14313,1,0,0:0:0:0:
162,105,14473,1,0,0:0:0:0:
162,105,14632,1,12,0:0:0:0:
162,105,14952,1,0,0:0:0:0:
162,105,15111,1,12,0:0:0:0:
162,105,15271,1,0,0:0:0:0:
162,105,15351,1,0,0:0:0:0:
162,105,15430,1,0,0:0:0:0:
162,105,15590,1,12,0:0:0:0:
162,105,15909,1,0,0:0:0:0:
162,105,16069,1,12,0:0:0:0:
162,105,16228,1,0,0:0:0:0:
162,105,16308,1,0,0:0:0:0:
162,105,16388,1,0,0:0:0:0:
162,105,16547,1,8,0:0:0:0:
162,105,16707,1,8,0:0:0:0:
162,105,17186,1,0,0:0:0:0:
162,105,17505,1,8,0:0:0:0:
162,105,17664,1,0,0:0:0:0:
162,105,17984,1,8,0:0:0:0:
162,105,18303,1,8,0:0:0:0:
162,105,18462,1,0,0:0:0:0:
157,108,18781,1,0,0:0:0:0:
157,108,18941,1,8,0:0:0:0:
157,108,19260,1,8,0:0:0:0:
157,108,19739,1,0,0:0:0:0:
157,108,20058,1,0,0:0:0:0:
157,108,20218,1,8,0:0:0:0:
157,102,20537,1,8,0:0:0:0:
157,108,20856,1,0,0:0:0:0:
157,108,21494,1,0,0:0:0:0:
157,108,21813,1,0,0:0:0:0:
157,108,21973,1,8,0:0:0:0:
157,108,22132,1,0,0:0:0:0:
157,108,22292,1,8,0:0:0:0:
143,309,22611,1,8,0:0:0:0:
157,108,22771,1,0,0:0:0:0:
157,108,23249,1,0,0:0:0:0:
157,108,23409,1,0,0:0:0:0:
160,112,23569,1,8,0:0:0:0:
157,113,23888,1,0,0:0:0:0:
157,112,24047,1,8,0:0:0:0:
157,113,24367,1,8,0:0:0:0:
157,113,24686,1,0,0:0:0:0:
157,112,24845,1,8,0:0:0:0:
158,117,25164,1,8,0:0:0:0:
158,117,25324,1,0,0:0:0:0:
158,117,25643,1,8,0:0:0:0:
158,117,25962,1,0,0:0:0:0:
158,117,27079,1,8,0:0:0:0:
158,117,27239,1,8,0:0:0:0:
158,117,27398,1,4,0:0:0:0:
158,117,27718,1,8,0:0:0:0:
158,117,27877,1,0,0:0:0:0:
158,117,27957,1,8,0:0:0:0:
152,107,28037,1,0,0:0:0:0:
158,117,28196,1,8,0:0:0:0:
158,117,28356,1,8,0:0:0:0:
158,117,28515,1,0,0:0:0:0:
158,117,28835,1,0,0:0:0:0:
139,134,28994,1,0,0:0:0:0:
152,117,29154,1,8,0:0:0:0:
158,117,29632,1,8,0:0:0:0:
158,117,29792,1,0,0:0:0:0:
158,117,29952,1,8,0:0:0:0:
158,117,30271,1,8,0:0:0:0:
158,117,30430,1,0,0:0:0:0:
158,117,30510,1,8,0:0:0:0:
158,117,30590,1,0,0:0:0:0:
158,117,30749,1,8,0:0:0:0:
162,107,30909,1,0,0:0:0:0:
158,117,31069,1,8,0:0:0:0:
162,107,31388,1,8,0:0:0:0:
157,118,31547,1,0,0:0:0:0:
156,122,31707,1,8,0:0:0:0:
156,122,32186,1,8,0:0:0:0:
156,122,32505,1,4,0:0:0:0:
156,122,32824,1,0,0:0:0:0:
156,122,32984,1,8,0:0:0:0:
156,122,33303,1,0,0:0:0:0:
156,122,33622,1,0,0:0:0:0:
156,122,33781,1,8,0:0:0:0:
353,207,34101,1,0,0:0:0:0:
156,122,34420,1,8,0:0:0:0:
353,204,34739,1,0,0:0:0:0:
455,237,34898,1,0,0:0:0:0:
156,122,35058,1,8,0:0:0:0:
310,270,35377,1,0,0:0:0:0:
375,66,35696,1,0,0:0:0:0:
284,169,35856,1,8,0:0:0:0:
152,97,36015,1,0,0:0:0:0:
359,117,36175,1,0,0:0:0:0:
174,94,36335,1,8,0:0:0:0:
366,187,36654,1,0,0:0:0:0:
154,127,36973,1,8,0:0:0:0:
260,133,37132,1,0,0:0:0:0:
366,149,37292,1,8,0:0:0:0:
154,127,37611,1,0,0:0:0:0:
154,127,37771,1,0,0:0:0:0:
189,234,37930,1,8,0:0:0:0:
154,127,38090,1,0,0:0:0:0:
154,127,38249,1,8,0:0:0:0:
154,127,38569,1,8,0:0:0:0:
147,126,38728,1,8,0:0:0:0:
149,131,38888,1,0,0:0:0:0:
154,127,39047,1,0,0:0:0:0:
154,127,39207,1,8,0:0:0:0:
151,131,39367,1,0,0:0:0:0:
154,132,39526,1,8,0:0:0:0:
154,143,39845,1,8,0:0:0:0:
154,127,40005,1,8,0:0:0:0:
154,127,40164,1,0,0:0:0:0:
154,143,40324,1,0,0:0:0:0:
149,133,40484,1,8,0:0:0:0:
154,127,40643,1,0,0:0:0:0:
154,127,40962,1,0,0:0:0:0:
329,244,41122,1,8,0:0:0:0:
154,127,41281,1,8,0:0:0:0:
154,127,41441,1,0,0:0:0:0:
159,128,41601,1,0,0:0:0:0:
157,126,41760,1,8,0:0:0:0:
154,127,41920,1,0,0:0:0:0:
154,127,42398,1,0,0:0:0:0:
154,127,42718,1,12,0:0:0:0:
154,127,43356,1,0,0:0:0:0:
154,127,43994,1,8,0:0:0:0:
154,127,44632,1,0,0:0:0:0:
154,127,44952,1,8,0:0:0:0:
149,131,45271,1,8,0:0:0:0:
154,127,45909,1,0,0:0:0:0:
148,132,46547,1,0,0:0:0:0:
149,131,46867,1,0,0:0:0:0:
148,132,47026,1,0,0:0:0:0:
188,102,47106,1,0,0:0:0:0:
148,132,47186,1,8,0:0:0:0:
149,131,47345,1,0,0:0:0:0:
148,132,47425,1,0,0:0:0:0:
148,132,47505,1,8,0:0:0:0:
149,131,47664,1,8,0:0:0:0:
149,131,47824,1,4,0:0:0:0:
149,131,48143,1,8,0:0:0:0:
148,132,48303,1,0,0:0:0:0:
168,135,48382,1,0,0:0:0:0:
156,127,48462,1,8,0:0:0:0:
149,131,48622,1,0,0:0:0:0:
154,133,48781,1,8,0:0:0:0:
147,141,48941,1,8,0:0:0:0:
255,109,49101,1,0,0:0:0:0:
148,138,49420,1,0,0:0:0:0:
137,141,49579,1,0,0:0:0:0:
146,137,49659,1,0,0:0:0:0:
146,137,49739,1,8,0:0:0:0:
159,133,49898,1,0,0:0:0:0:
154,139,50058,1,8,0:0:0:0:
195,133,50218,1,8,0:0:0:0:
145,142,50377,1,0,0:0:0:0:
148,138,50696,1,8,0:0:0:0:
141,146,50856,1,0,0:0:0:0:
144,148,50936,1,0,0:0:0:0:
144,148,51015,1,0,0:0:0:0:
146,137,51175,1,0,0:0:0:0:
146,137,51335,1,8,0:0:0:0:
145,135,51494,1,8,0:0:0:0:
147,144,51654,1,0,0:0:0:0:
141,133,51973,1,8,0:0:0:0:
143,135,52132,1,0,0:0:0:0:
141,146,52212,1,0,0:0:0:0:
146,137,52292,1,0,0:0:0:0:
141,133,52452,1,0,0:0:0:0:
146,137,52611,1,8,0:0:0:0:
145,138,52930,1,12,0:0:0:0:
150,141,53090,1,0,0:0:0:0:
146,137,53170,1,0,0:0:0:0:
146,137,53249,1,8,0:0:0:0:
146,137,53409,1,0,0:0:0:0:
151,138,53569,1,8,0:0:0:0:
149,140,53728,1,0,0:0:0:0:
156,139,53808,1,0,0:0:0:0:
150,140,53888,1,8,0:0:0:0:
156,137,54047,1,8,0:0:0:0:
366,137,54207,1,8,0:0:0:0:
146,137,54526,1,8,0:0:0:0:
146,137,54686,1,8,0:0:0:0:
144,139,54845,1,0,0:0:0:0:
141,137,55005,1,8,0:0:0:0:
146,137,55085,1,8,0:0:0:0:
150,140,55164,1,0,0:0:0:0:
204,146,55244,1,0,0:0:0:0:
146,137,55324,1,8,0:0:0:0:
144,130,55484,1,4,0:0:0:0:
146,137,55803,1,0,0:0:0:0:
146,137,55962,1,0,0:0:0:0:
144,133,56122,1,8,0:0:0:0:
146,137,56281,1,8,0:0:0:0:
144,131,56441,1,8,0:0:0:0:
143,128,56601,1,0,0:0:0:0:
146,132,56760,1,12,0:0:0:0:
146,137,58037,1,4,0:0:0:0:
379,93,58356,1,8,0:0:0:0:
290,115,58515,1,0,0:0:0:0:
151,138,58675,1,0,0:0:0:0:
150,139,58835,1,0,0:0:0:0:
146,137,58914,1,0,0:0:0:0:
138,140,58994,1,8,0:0:0:0:
146,137,59154,1,8,0:0:0:0:
141,144,59313,1,0,0:0:0:0:
136,142,59632,1,8,0:0:0:0:
151,138,59792,1,0,0:0:0:0:
146,142,59872,1,8,0:0:0:0:
150,139,59952,1,0,0:0:0:0:
150,139,60111,1,0,0:0:0:0:
147,145,60271,1,8,0:0:0:0:
53,196,60590,1,8,0:0:0:0:
142,140,60749,1,0,0:0:0:0:
137,149,60909,1,8,0:0:0:0:
139,148,61069,1,8,0:0:0:0:
133,206,61148,1,8,0:0:0:0:
146,142,61228,1,0,0:0:0:0:
144,148,61388,1,8,0:0:0:0:
142,151,61547,1,0,0:0:0:0:
141,145,61627,1,0,0:0:0:0:
147,148,61707,1,8,0:0:0:0:
144,148,61867,1,0,0:0:0:0:
146,142,62186,1,0,0:0:0:0:
146,144,62345,1,8,0:0:0:0:
184,98,62425,1,0,0:0:0:0:
146,142,62505,1,8,0:0:0:0:
144,148,62664,1,0,0:0:0:0:
153,147,62824,1,8,0:0:0:0:
146,142,62984,1,8,0:0:0:0:
146,142,63143,1,4,0:0:0:0:
150,148,63462,1,8,0:0:0:0:
146,142,63622,1,0,0:0:0:0:
153,147,63702,1,8,0:0:0:0:
146,142,63781,1,0,0:0:0:0:
146,142,63941,1,8,0:0:0:0:
133,149,64101,1,0,0:0:0:0:
142,148,64260,1,0,0:0:0:0:
133,149,64340,1,0,0:0:0:0:
136,147,64420,1,8,0:0:0:0:
146,142,64579,1,0,0:0:0:0:
141,148,64739,1,8,0:0:0:0:
146,142,64898,1,0,0:0:0:0:
142,148,65218,1,0,0:0:0:0:
150,143,65377,1,8,0:0:0:0:
150,143,65537,1,0,0:0:0:0:
142,148,65617,1,0,0:0:0:0:
146,142,65696,1,8,0:0:0:0:
149,148,65856,1,0,0:0:0:0:
151,151,66015,1,8,0:0:0:0:
142,148,66175,1,0,0:0:0:0:
210,174,66255,1,0,0:0:0:0:
155,154,66335,1,8,0:0:0:0:
156,146,66494,1,0,0:0:0:0:
146,142,66654,1,8,0:0:0:0:
156,146,66734,1,8,0:0:0:0:
146,142,66813,1,0,0:0:0:0:
156,146,66893,1,0,0:0:0:0:
146,142,66973,1,8,0:0:0:0:
146,142,67292,1,8,0:0:0:0:
146,142,67452,1,0,0:0:0:0:
146,142,67611,1,8,0:0:0:0:
146,142,67691,1,8,0:0:0:0:
149,134,67771,1,0,0:0:0:0:
146,142,67930,1,8,0:0:0:0:
151,143,68249,1,4,0:0:0:0:
160,144,68569,1,8,0:0:0:0:
146,155,68728,1,0,0:0:0:0:
146,142,68888,1,0,0:0:0:0:
151,142,69047,1,0,0:0:0:0:
158,149,69127,1,0,0:0:0:0:
146,142,69207,1,8,0:0:0:0:
155,143,69367,1,8,0:0:0:0:
160,145,69526,1,0,0:0:0:0:
146,142,69845,1,8,0:0:0:0:
146,142,70005,1,0,0:0:0:0:
155,143,70085,1,8,0:0:0:0:
146,142,70164,1,0,0:0:0:0:
146,142,70324,1,0,0:0:0:0:
156,148,70484,1,8,0:0:0:0:
146,142,70803,1,4,0:0:0:0:
146,142,70962,1,0,0:0:0:0:
86,138,71042,1,0,0:0:0:0:
156,148,71122,1,8,0:0:0:0:
146,142,71281,1,4,0:0:0:0:
146,142,71441,1,0,0:0:0:0:
146,142,71601,1,8,0:0:0:0:
155,139,71680,1,8,0:0:0:0:
146,142,71760,1,0,0:0:0:0:
146,142,71840,1,0,0:0:0:0:
146,142,71920,1,8,0:0:0:0:
146,142,72079,1,4,0:0:0:0:
148,149,72398,1,0,0:0:0:0:
146,142,72558,1,0,0:0:0:0:
152,148,72638,1,0,0:0:0:0:
151,140,72718,1,8,0:0:0:0:
146,142,72877,1,0,0:0:0:0:
146,142,73037,1,8,0:0:0:0:
145,147,73196,1,8,0:0:0:0:
151,145,73356,1,4,0:0:0:0:
166,141,73675,1,8,0:0:0:0:
145,147,73835,1,0,0:0:0:0:
150,144,73994,1,8,0:0:0:0:
145,147,74313,1,8,0:0:0:0:
146,142,74473,1,8,0:0:0:0:
166,141,74632,1,0,0:0:0:0:
145,147,74952,1,0,0:0:0:0:
156,153,75271,1,8,0:0:0:0:
145,147,75590,1,0,0:0:0:0:
141,146,75749,1,8,0:0:0:0:
145,147,75909,1,4,0:0:0:0:
145,147,76228,1,0,0:0:0:0:
257,160,76388,1,0,0:0:0:0:
145,147,76547,1,8,0:0:0:0:
145,147,76867,1,0,0:0:0:0:
145,147,77026,1,8,0:0:0:0:
145,147,77186,1,0,0:0:0:0:
248,193,77505,1,0,0:0:0:0:
145,147,77664,1,0,0:0:0:0:
145,147,77824,1,8,0:0:0:0:
145,147,78143,1,8,0:0:0:0:
145,147,78462,1,4,0:0:0:0:
145,147,78781,1,0,0:0:0:0:
145,147,79101,1,8,0:0:0:0:
145,147,79420,1,0,0:0:0:0:
145,147,79739,1,8,0:0:0:0:
145,147,80058,1,0,0:0:0:0:
149,138,80377,1,8,0:0:0:0:
138,149,80696,1,8,0:0:0:0:
145,147,81015,1,0,0:0:0:0:
157,142,81355,1,8,0:0:0:0:
267,166,81526,1,8,0:0:0:0:
157,142,82016,1,0,0:0:0:0:
145,147,82378,1,8,0:0:0:0:
145,145,82737,1,0,0:0:0:0:
145,147,83096,1,8,0:0:0:0:
145,147,83815,1,0,0:0:0:0:
145,147,84174,1,0,0:0:0:0:
145,147,84533,1,8,0:0:0:0:
145,147,84892,1,0,0:0:0:0:
145,147,85252,1,0,0:0:0:0:
145,147,85611,1,0,0:0:0:0:
145,147,85970,1,8,0:0:0:0:
145,147,86330,1,8,0:0:0:0:
145,147,86717,1,0,0:0:0:0:
