osu file format v14

[General]
AudioFilename: audio.mp3
AudioLeadIn: 0
PreviewTime: 56999
Countdown: 0
SampleSet: Normal
StackLeniency: 0.7
Mode: 1
LetterboxInBreaks: 0
WidescreenStoryboard: 0

[Editor]
DistanceSpacing: 1.7
BeatDivisor: 2
GridSize: 32
TimelineZoom: 0.9999988

[Metadata]
Title:Dear Brave (TV Size)
TitleUnicode:ディアブレイブ (TV Size)
Artist:Kano
ArtistUnicode:鹿乃
Creator:[-E S I A-]
Version:Kantan
Source:ヘヴィーオブジェクト
Tags:heavy object ed ending nowhere japanese j-pop jpop pop female vocal singer anime j.c.staff jc staff Sanzigen Milinda Brantini ミリンダ=ブランティーニ E_S_I_A [-E_S_I_A-] ESIA [-ESIA-]
BeatmapID:3027096
BeatmapSetID:1475077

[Difficulty]
HPDrainRate:8
CircleSize:5
OverallDifficulty:3
ApproachRate:5
SliderMultiplier:1.4
SliderTickRate:1

[Events]
//Background and Video events
0,0,"bg3.jpg",0,0
//Break Periods
//Storyboard Layer 0 (Background)
//Storyboard Layer 1 (Fail)
//Storyboard Layer 2 (Pass)
//Storyboard Layer 3 (Foreground)
//Storyboard Layer 4 (Overlay)
//Storyboard Sound Samples

[TimingPoints]
1867,319.148936170213,4,1,0,50,1,0
1867,-105.263157894737,4,1,0,50,0,0
6793,-100,4,1,0,70,0,0
17166,-100,4,1,0,50,0,0
27378,-100,4,1,0,60,0,0
37591,-100,4,1,0,70,0,0
42698,-100,4,1,0,50,0,0
47804,-100,4,1,0,70,0,0
57997,-100,4,1,0,75,0,0
58037,-100,4,1,0,75,0,1
73316,-100,4,1,0,70,0,1
73356,-100,4,1,0,70,0,0
78442,-100,4,1,0,75,0,0
80993,-100,4,1,0,60,0,0
81015,340.909090909091,4,1,0,60,1,0
81015,-93.4579439252336,4,1,0,60,0,0
82378,359.281437125748,4,1,0,50,1,0
82378,-89.2857142857143,4,1,0,50,0,0
83725,-89.2857142857143,4,1,0,40,0,0
86330,387.096774193548,4,1,0,40,1,8
86330,-82.6446280991736,4,1,0,40,0,8
86717,387.096774193548,4,1,0,40,1,0
86717,-82.6446280991736,4,1,0,40,0,8

[HitObjects]
142,190,1867,5,0,0:0:0:0:
142,190,2505,1,8,0:0:0:0:
142,190,3143,1,0,0:0:0:0:
142,190,4420,1,0,0:0:0:0:
142,190,5058,1,8,0:0:0:0:
142,190,5537,1,8,0:0:0:0:
142,190,6813,1,4,0:0:0:0:
142,190,7292,1,8,0:0:0:0:
142,190,7611,1,0,0:0:0:0:
142,190,8090,1,0,0:0:0:0:
142,190,8569,1,8,0:0:0:0:
142,190,8888,1,0,0:0:0:0:
142,190,9367,1,4,0:0:0:0:
142,190,10005,1,4,0:0:0:0:
142,190,10643,1,4,0:0:0:0:
142,190,11920,1,12,0:0:0:0:
101,154,12398,1,12,0:0:0:0:
137,193,12877,1,12,0:0:0:0:
137,193,13356,1,12,0:0:0:0:
210,139,14632,1,12,0:0:0:0:
185,139,15111,1,12,0:0:0:0:
142,190,15590,1,12,0:0:0:0:
479,73,16069,1,12,0:0:0:0:
168,172,16547,1,8,0:0:0:0:
168,172,17186,1,0,0:0:0:0:
168,172,17664,1,8,0:0:0:0:
168,172,18462,1,0,0:0:0:0:
168,172,18941,1,0,0:0:0:0:
168,172,19739,1,0,0:0:0:0:
168,172,20218,1,8,0:0:0:0:
168,172,20856,1,0,0:0:0:0:
168,172,21973,1,8,0:0:0:0:
168,172,22292,1,8,0:0:0:0:
168,172,22771,1,0,0:0:0:0:
168,172,23569,1,0,0:0:0:0:
168,172,24047,1,8,0:0:0:0:
168,172,24845,1,8,0:0:0:0:
168,172,25324,1,0,0:0:0:0:
168,172,25962,1,0,0:0:0:0:
142,190,27079,1,8,0:0:0:0:
142,190,27398,5,4,0:0:0:0:
142,190,28196,1,8,0:0:0:0:
142,190,28515,1,0,0:0:0:0:
142,190,29154,1,8,0:0:0:0:
142,190,29952,1,8,0:0:0:0:
142,190,30430,1,8,0:0:0:0:
142,190,31069,1,0,0:0:0:0:
142,190,31707,1,8,0:0:0:0:
139,192,32505,1,4,0:0:0:0:
353,88,32984,1,8,0:0:0:0:
139,192,33781,1,8,0:0:0:0:
139,192,34420,1,0,0:0:0:0:
139,192,35058,1,8,0:0:0:0:
147,165,36335,1,8,0:0:0:0:
139,192,36973,1,8,0:0:0:0:
139,192,37611,1,0,0:0:0:0:
139,192,37930,1,0,0:0:0:0:
139,192,38249,1,8,0:0:0:0:
139,192,38888,1,0,0:0:0:0:
139,192,39207,1,0,0:0:0:0:
139,192,39526,1,8,0:0:0:0:
139,192,40164,1,0,0:0:0:0:
139,192,40803,1,8,0:0:0:0:
139,192,41441,1,0,0:0:0:0:
139,192,42718,1,12,0:0:0:0:
139,192,43994,1,8,0:0:0:0:
139,192,45271,1,0,0:0:0:0:
150,197,46547,1,0,0:0:0:0:
150,197,47186,1,8,0:0:0:0:
139,192,47824,1,4,0:0:0:0:
139,192,48143,1,8,0:0:0:0:
150,193,48462,1,8,0:0:0:0:
124,165,49101,1,0,0:0:0:0:
150,193,49420,1,8,0:0:0:0:
150,193,49739,1,8,0:0:0:0:
150,193,50377,1,0,0:0:0:0:
150,193,51015,1,8,0:0:0:0:
139,192,51654,1,0,0:0:0:0:
139,192,52930,1,12,0:0:0:0:
139,192,53409,1,8,0:0:0:0:
139,192,53888,1,8,0:0:0:0:
444,7,54367,1,0,0:0:0:0:
139,192,54845,1,8,0:0:0:0:
139,192,55484,1,4,0:0:0:0:
139,192,56122,1,8,0:0:0:0:
375,167,56441,1,8,0:0:0:0:
139,192,56760,1,12,0:0:0:0:
139,192,58037,1,4,0:0:0:0:
139,192,58675,1,0,0:0:0:0:
373,154,58994,1,8,0:0:0:0:
139,192,59313,1,0,0:0:0:0:
139,192,59952,1,0,0:0:0:0:
139,192,60271,1,8,0:0:0:0:
139,192,60590,1,8,0:0:0:0:
139,192,61228,1,8,0:0:0:0:
139,192,61867,1,0,0:0:0:0:
139,192,62824,1,8,0:0:0:0:
139,192,63143,1,4,0:0:0:0:
139,192,63781,1,0,0:0:0:0:
139,192,64420,1,8,0:0:0:0:
139,192,64739,1,8,0:0:0:0:
139,192,65058,1,0,0:0:0:0:
139,192,65696,1,8,0:0:0:0:
139,192,66335,1,8,0:0:0:0:
139,192,66973,1,0,0:0:0:0:
139,192,67930,1,8,0:0:0:0:
139,192,68249,1,4,0:0:0:0:
247,153,68888,1,0,0:0:0:0:
327,182,69207,1,8,0:0:0:0:
139,192,69526,1,0,0:0:0:0:
139,192,70164,1,0,0:0:0:0:
157,185,70484,1,8,0:0:0:0:
139,192,70803,1,4,0:0:0:0:
153,208,71760,1,8,0:0:0:0:
139,192,72079,1,4,0:0:0:0:
139,192,72718,1,8,0:0:0:0:
139,192,73037,1,8,0:0:0:0:
139,192,73356,1,4,0:0:0:0:
139,192,73994,1,8,0:0:0:0:
139,193,74632,1,0,0:0:0:0:
139,193,75271,1,8,0:0:0:0:
139,192,75590,1,0,0:0:0:0:
139,192,75909,1,4,0:0:0:0:
139,193,77186,1,0,0:0:0:0:
139,193,77824,1,8,0:0:0:0:
139,193,78462,1,4,0:0:0:0:
139,193,79101,1,8,0:0:0:0:
139,193,79739,1,8,0:0:0:0:
139,193,80058,1,0,0:0:0:0:
139,193,80377,1,8,0:0:0:0:
139,193,81015,1,0,0:0:0:0:
139,193,82378,1,8,0:0:0:0:
139,193,83815,1,0,0:0:0:0:
139,193,84533,1,8,0:0:0:0:
139,193,85252,1,0,0:0:0:0:
139,193,85970,1,8,0:0:0:0:
139,193,86717,1,0,0:0:0:0:
