osu file format v14

[General]
AudioFilename: audio.mp3
AudioLeadIn: 0
PreviewTime: 57441
Countdown: 0
SampleSet: Soft
StackLeniency: 0.4
Mode: 0
LetterboxInBreaks: 0
WidescreenStoryboard: 1

[Editor]
DistanceSpacing: 1.3
BeatDivisor: 4
GridSize: 4
TimelineZoom: 1.3

[Metadata]
Title:Dear Brave
TitleUnicode:ディアブレイブ
Artist:Kano
ArtistUnicode:鹿乃
Creator:Rieri
Version:Extra
Source:ヘヴィーオブジェクト
Tags:heavy object ed cut ProEzreal Affirmation Left Half island
BeatmapID:1586061
BeatmapSetID:753356

[Difficulty]
HPDrainRate:6
CircleSize:4
OverallDifficulty:8.5
ApproachRate:9.2
SliderMultiplier:1.7
SliderTickRate:1

[Events]
//Background and Video events
0,0,"bg18.png",0,0
//Break Periods
//Storyboard Layer 0 (Background)
//Storyboard Layer 1 (Fail)
//Storyboard Layer 2 (Pass)
//Storyboard Layer 3 (Foreground)
//Storyboard Sound Samples

[TimingPoints]
2229,319.148936170213,4,2,1,25,1,0
2229,-125,4,2,1,25,0,0
7175,-100,4,2,2,60,0,0
17548,-142.857142857143,4,2,1,40,0,0
27760,-111.111111111111,4,2,1,50,0,0
43080,-166.666666666666,4,2,1,40,0,0
48186,-99.9999999999999,4,2,1,50,0,0
53292,-99.9999999999999,4,2,2,60,0,0
58399,-83.3333333333333,4,2,2,70,0,1
68452,-83.3333333333333,4,2,2,70,0,0
68611,-83.3333333333333,4,2,2,70,0,1
73718,-100,4,2,2,70,0,0
83931,-100,4,2,2,70,0,1
84090,-100,4,2,2,70,0,0
93984,-100,4,2,2,70,0,1
94064,-100,4,2,2,70,0,0
101803,-100,4,2,2,5,0,0

[Colours]
Combo1 : 255,133,60
Combo2 : 71,135,252
Combo3 : 107,249,104
Combo4 : 255,91,91

[HitObjects]
37,47,2229,6,0,L|190:52,1,136,6|0,0:0|0:0,0:0:0:0:
256,192,2867,2,0,L|106:187,1,136,2|0,0:0|0:0,0:0:0:0:
40,188,3346,1,0,0:0:0:0:
40,188,3505,2,0,L|48:280,1,68,2|0,0:0|0:0,0:0:0:0:
60,336,3824,1,2,0:0:0:0:
60,336,3984,1,0,0:0:0:0:
133,300,4143,2,0,L|207:303,1,68,2|0,0:0|0:0,0:0:0:0:
260,358,4463,1,2,0:0:0:0:
343,308,4622,1,0,0:0:0:0:
343,308,4702,1,0,0:0:0:0:
343,308,4782,6,0,L|497:301,1,136,2|0,0:0|0:0,0:0:0:0:
446,142,5420,2,0,L|299:150,1,136,2|2,0:0|0:0,0:0:0:0:
256,75,5899,1,6,0:0:0:0:
256,75,6697,5,0,0:0:0:0:
228,98,6776,1,0,0:0:0:0:
195,110,6856,1,0,0:0:0:0:
159,108,6936,1,0,0:0:0:0:
126,94,7016,2,0,L|112:40,1,34,0|0,0:0|0:0,0:0:0:0:
24,226,7175,6,0,P|82:182|186:212,1,170,4|0,0:0|0:0,0:0:0:0:
119,364,7654,2,0,L|109:271,1,85,8|0,0:0|0:0,0:0:0:0:
274,204,7973,2,0,L|264:297,1,85,8|8,0:3|0:3,0:0:0:0:
172,199,8292,1,8,0:0:0:0:
226,108,8452,6,0,P|299:100|375:167,1,170,2|0,0:0|0:0,0:0:0:0:
375,333,8931,2,0,L|384:220,1,85,8|0,0:0|0:0,0:0:0:0:
465,159,9250,1,8,0:3:0:0:
476,250,9409,1,8,0:3:0:0:
487,341,9569,1,8,0:0:0:0:
465,159,9729,5,2,0:0:0:0:
376,343,10048,1,0,0:0:0:0:
306,152,10367,1,2,0:0:0:0:
220,338,10686,1,0,0:0:0:0:
23,200,11005,6,0,L|209:209,1,170,4|0,0:0|0:0,0:0:0:0:
306,152,11484,1,8,0:0:0:0:
306,152,11643,1,8,0:0:0:0:
375,218,11803,2,0,L|370:320,1,85,0|0,0:0|0:0,0:0:0:0:
456,158,12122,1,8,0:0:0:0:
383,9,12282,6,0,L|274:15,1,85,4|0,0:0|0:0,0:0:0:0:
219,18,12601,1,0,0:0:0:0:
57,140,12760,2,0,L|166:146,1,85,8|0,0:0|0:0,0:0:0:0:
221,149,13080,1,0,0:0:0:0:
389,274,13239,2,0,L|280:280,1,85,8|0,0:0|0:0,0:0:0:0:
225,283,13558,1,0,0:0:0:0:
69,376,13718,2,0,L|175:383,1,85,12|0,0:0|0:0,0:0:0:0:
277,347,14037,5,2,0:0:0:0:
225,283,14197,1,8,0:0:0:0:
175,218,14356,1,10,0:0:0:0:
221,149,14516,1,8,0:0:0:0:
270,82,14675,1,10,0:3:0:0:
219,18,14835,1,8,0:3:0:0:
42,31,14994,6,0,L|53:139,1,85,4|0,0:0|0:0,0:0:0:0:
128,190,15314,1,0,0:0:0:0:
175,350,15473,2,0,L|186:242,1,85,8|0,0:0|0:0,0:0:0:0:
261,191,15793,1,0,0:0:0:0:
300,30,15952,2,0,L|311:138,1,85,8|0,0:0|0:0,0:0:0:0:
386,189,16272,1,0,0:0:0:0:
424,351,16431,2,0,L|440:258,1,85,8|0,0:0|0:0,0:0:0:0:
511,190,16750,1,0,0:0:0:0:
300,30,16909,5,8,0:0:0:0:
318,276,17069,1,8,0:0:0:0:
318,276,17548,6,0,L|309:153,1,118.999996368408,6|0,0:0|0:0,0:0:0:0:
356,86,18026,2,0,P|312:110|225:92,1,118.999996368408,2|0,0:0|0:0,0:0:0:0:
245,104,18665,1,0,0:0:0:0:
179,52,18824,2,0,P|129:44|53:91,1,118.999996368408,2|0,0:0|0:0,0:0:0:0:
22,141,19303,2,0,L|32:263,1,118.999996368408,2|0,0:0|0:0,0:0:0:0:
31,259,19941,1,0,0:0:0:0:
84,380,20101,6,0,L|218:382,1,118.999996368408,2|0,0:0|0:0,0:0:0:0:
282,351,20580,2,0,L|416:353,1,118.999996368408,2|0,0:0|0:0,0:0:0:0:
401,353,21218,2,0,P|434:296|398:188,1,178.499994552612,2|0,0:0|0:0,0:0:0:0:
332,154,21856,2,0,L|205:158,1,118.999996368408,2|0,0:0|0:0,0:0:0:0:
133,135,22335,2,0,L|136:207,1,59.4999981842042,0|0,0:0|0:0,0:0:0:0:
61,231,22654,6,0,L|54:91,1,118.999996368408,2|0,0:0|0:0,0:0:0:0:
53,29,23133,1,2,0:0:0:0:
53,29,23611,2,0,L|56:100,1,59.4999981842042,0|0,0:0|0:0,0:0:0:0:
61,172,23931,2,0,P|118:149|183:172,1,118.999996368408,2|0,0:0|0:0,0:0:0:0:
242,209,24409,2,0,P|299:232|364:209,1,118.999996368408,2|0,0:0|0:0,0:0:0:0:
352,217,25048,1,0,0:0:0:0:
427,183,25207,6,0,L|439:306,1,118.999996368408,2|0,0:0|0:0,0:0:0:0:
367,350,25686,2,0,P|315:362|243:324,2,118.999996368408,2|0|0,0:0|0:0|0:0,0:0:0:0:
438,301,26484,6,0,P|468:293|496:296,1,59.4999981842042,2|0,0:0|0:0,0:0:0:0:
363,274,26803,2,0,P|378:247|400:229,1,59.4999981842042,0|0,0:0|0:0,0:0:0:0:
367,350,27122,1,2,0:0:0:0:
291,309,27282,1,0,0:0:0:0:
291,309,27361,1,0,0:0:0:0:
291,309,27441,2,0,P|283:279|286:250,1,59.4999981842042,2|0,0:0|0:0,0:0:0:0:
342,56,27760,6,0,P|368:112|330:193,1,152.999995330811,6|0,0:0|0:0,0:0:0:0:
251,176,28239,2,0,L|163:184,1,76.4999976654053,0|2,0:0|0:0,0:0:0:0:
84,94,28558,2,0,L|172:102,1,76.4999976654053,0|0,0:0|0:0,0:0:0:0:
254,35,28877,6,0,L|344:31,1,76.4999976654053,0|2,0:0|0:0,0:0:0:0:
425,66,29197,1,0,0:0:0:0:
425,66,29356,1,0,0:0:0:0:
346,122,29516,2,0,L|336:282,1,152.999995330811,2|0,0:0|0:0,0:0:0:0:
485,266,29994,2,0,P|449:253|398:268,1,76.4999976654053,0|0,0:0|0:0,0:0:0:0:
328,350,30314,6,0,P|260:369|176:335,1,152.999995330811,2|0,0:0|0:0,0:0:0:0:
53,309,30792,2,0,P|95:285|151:298,1,76.4999976654053,0|2,0:0|0:0,0:0:0:0:
124,203,31111,2,0,P|170:215|201:264,1,76.4999976654053,0|0,0:0|0:0,0:0:0:0:
37,218,31431,6,0,L|22:140,1,76.4999976654053,0|2,0:0|0:0,0:0:0:0:
105,119,31750,2,0,L|131:43,1,76.4999976654053,0|0,0:0|0:0,0:0:0:0:
214,75,32069,2,0,L|369:38,1,152.999995330811,2|0,0:0|0:0,0:0:0:0:
495,112,32548,2,0,L|415:101,1,76.4999976654053,0|0,0:0|0:0,0:0:0:0:
279,207,32867,6,0,P|345:170|430:197,1,152.999995330811,6|0,0:0|0:0,0:0:0:0:
466,268,33346,2,0,L|461:363,1,76.4999976654053,2|0,0:0|0:0,0:0:0:0:
369,369,33665,1,0,0:0:0:0:
320,291,33824,2,0,P|351:277|416:293,1,76.4999976654053,0|0,0:0|0:0,0:0:0:0:
282,370,34143,6,0,L|128:354,1,152.999995330811,2|0,0:0|0:0,0:0:0:0:
20,241,34622,1,0,0:0:0:0:
20,241,34782,2,0,L|174:257,1,152.999995330811,2|0,0:0|0:0,0:0:0:0:
236,132,35260,1,0,0:0:0:0:
236,132,35420,6,0,L|241:216,1,76.4999976654053,2|0,0:0|0:0,0:0:0:0:
327,238,35739,2,0,L|322:154,1,76.4999976654053,0|0,0:0|0:0,0:0:0:0:
402,116,36058,2,0,L|407:200,1,76.4999976654053,2|0,0:0|0:0,0:0:0:0:
493,222,36377,2,0,L|488:138,1,76.4999976654053,0|0,0:0|0:0,0:0:0:0:
473,54,36697,5,2,0:0:0:0:
473,54,36856,1,0,0:0:0:0:
388,17,37016,2,0,P|355:35|296:27,1,76.4999976654053,0|0,0:0|0:0,0:0:0:0:
227,12,37335,1,2,0:0:0:0:
81,52,37494,1,0,0:0:0:0:
81,52,37574,1,0,0:0:0:0:
81,52,37654,2,0,L|169:61,1,76.4999976654053,2|0,0:0|0:0,0:0:0:0:
245,118,37973,5,8,0:0:0:0:
35,165,38133,1,8,0:0:0:0:
124,185,38292,2,0,L|44:176,1,76.4999976654053,2|0,0:0|0:0,0:0:0:0:
32,254,38611,2,0,L|186:273,1,152.999995330811,2|0,0:0|0:0,0:0:0:0:
183,272,39090,1,0,0:0:0:0:
252,125,39250,5,8,0:0:0:0:
297,316,39409,1,8,0:0:0:0:
319,231,39569,2,0,L|307:319,1,76.4999976654053,2|0,0:0|0:0,0:0:0:0:
395,296,39888,2,0,L|418:140,1,152.999995330811,2|0,0:0|0:0,0:0:0:0:
417,144,40367,1,0,0:0:0:0:
291,16,40526,5,8,0:0:0:0:
321,211,40686,1,8,0:0:0:0:
249,158,40846,1,2,0:0:0:0:
249,158,41005,2,0,L|88:150,1,152.999995330811,0|0,0:0|0:0,0:0:0:0:
17,107,41484,2,0,L|20:191,1,76.4999976654053,2|0,0:0|0:0,0:0:0:0:
217,255,41803,5,8,0:0:0:0:
21,306,41963,1,8,0:0:0:0:
93,363,42122,1,2,0:0:0:0:
93,363,42282,2,0,L|256:370,1,152.999995330811,0|0,0:0|0:0,0:0:0:0:
325,336,42760,2,0,P|372:324|406:334,1,76.4999976654053,2|8,0:0|0:0,0:0:0:0:
504,380,43080,6,0,L|494:262,1,101.999996887207,6|0,0:0|0:0,0:0:0:0:
434,226,43558,2,0,L|444:108,1,101.999996887207,2|0,0:0|0:0,0:0:0:0:
442,124,44197,2,0,P|378:147|292:109,1,152.999995330811,2|0,0:0|0:0,0:0:0:0:
301,118,44994,1,2,0:0:0:0:
186,72,45314,1,0,0:0:0:0:
73,124,45633,6,0,L|77:244,1,101.999996887207,2|0,0:0|0:0,0:0:0:0:
81,302,46111,1,0,0:0:0:0:
81,302,46271,2,0,P|135:288|189:312,1,101.999996887207,2|0,0:0|0:0,0:0:0:0:
234,351,46750,1,0,0:0:0:0:
357,321,46909,5,2,0:0:0:0:
357,321,47229,1,2,0:0:0:0:
425,266,47388,2,0,L|461:269,2,25.4999992218018,0|0|2,0:0|0:0|0:0,0:0:0:0:
360,210,47707,2,0,L|324:213,2,25.4999992218018,0|0|10,0:0|0:0|0:0,0:0:0:0:
429,166,48026,1,8,0:0:0:0:
272,36,48186,5,4,0:0:0:0:
502,81,48346,1,8,0:1:0:0:
411,85,48505,2,0,L|506:71,1,85,10|0,0:3|0:0,0:0:0:0:
429,166,48824,2,0,L|249:144,1,170,2|8,0:0|0:3,0:0:0:0:
260,145,49303,1,0,0:0:0:0:
139,45,49463,5,8,0:1:0:0:
184,238,49622,1,8,0:1:0:0:
175,148,49782,2,0,L|171:237,1,85,10|0,0:3|0:0,0:0:0:0:
64,324,50101,2,0,L|255:306,1,170,2|8,0:0|0:3,0:0:0:0:
233,308,50580,1,0,0:0:0:0:
297,170,50739,5,8,0:1:0:0:
346,372,50899,1,8,0:1:0:0:
368,283,51058,2,0,L|358:383,1,85,10|2,0:3|0:0,0:0:0:0:
453,306,51377,2,0,L|440:193,1,85,0|0,0:0|0:0,0:0:0:0:
381,163,51697,1,10,0:3:0:0:
381,163,51856,1,0,0:0:0:0:
493,66,52016,5,8,0:1:0:0:
262,106,52175,1,8,0:1:0:0:
283,16,52335,2,0,L|275:111,1,85,10|2,0:3|0:0,0:0:0:0:
196,233,52654,2,0,L|180:52,1,170,0|8,0:0|0:3,0:0:0:0:
36,178,53292,5,4,0:0:0:0:
58,345,53452,1,8,0:3:0:0:
58,345,53611,1,8,0:3:0:0:
126,145,53771,5,4,0:0:0:0:
156,351,53931,1,8,0:3:0:0:
156,351,54090,1,8,0:3:0:0:
252,148,54250,5,4,0:0:0:0:
88,252,54409,1,8,0:3:0:0:
260,352,54569,1,8,0:3:0:0:
126,145,54729,5,4,0:0:0:0:
333,260,54888,1,8,0:3:0:0:
336,43,55048,1,8,0:3:0:0:
216,196,55207,5,4,0:0:0:0:
438,252,55367,1,8,0:0:0:0:
317,146,55526,1,8,0:0:0:0:
375,349,55686,1,8,0:0:0:0:
479,164,55846,5,12,0:0:0:0:
479,164,56165,1,8,0:0:0:0:
375,349,56324,1,8,0:0:0:0:
374,96,56484,5,8,0:0:0:0:
468,303,56643,1,8,0:0:0:0:
476,49,56803,5,8,0:0:0:0:
384,255,56963,1,8,0:0:0:0:
298,11,57122,1,4,0:0:0:0:
298,11,57760,5,2,0:0:0:0:
283,50,57839,1,0,0:0:0:0:
249,75,57919,1,0,0:0:0:0:
207,78,57999,1,0,0:0:0:0:
170,59,58080,1,2,0:0:0:0:
138,31,58159,1,0,0:0:0:0:
97,23,58239,1,0,0:0:0:0:
57,35,58319,1,0,0:0:0:0:
29,66,58399,6,0,L|34:238,1,152.999995330811,6|0,0:0|0:0,0:0:0:0:
36,253,58718,1,8,0:0:0:0:
173,314,58877,1,0,0:0:0:0:
233,241,59037,2,0,P|178:221|117:239,1,101.999996887207,8|8,0:3|0:3,0:0:0:0:
264,333,59356,2,0,P|321:322|365:276,1,101.999996887207,10|2,0:0|0:0,0:0:0:0:
409,135,59675,6,0,P|458:221|422:335,1,203.999993774414,8|8,0:3|0:0,0:0:0:0:
326,242,60154,1,2,0:0:0:0:
409,135,60314,2,0,L|522:141,1,101.999996887207,10|8,0:3|0:3,0:0:0:0:
353,36,60633,2,0,L|240:42,1,101.999996887207,10|0,0:0|0:0,0:0:0:0:
47,94,60952,6,0,P|118:61|215:136,1,203.999993774414,10|10,0:3|0:0,0:0:0:0:
124,262,61431,2,0,L|119:130,1,101.999996887207,2|8,0:0|0:3,0:0:0:0:
326,242,61750,2,0,L|321:374,1,101.999996887207,10|8,0:3|0:0,0:0:0:0:
225,249,62069,1,2,0:0:0:0:
317,138,62229,6,0,P|403:136|478:256,1,203.999993774414,8|8,0:3|0:0,0:0:0:0:
433,335,62707,1,2,0:0:0:0:
433,335,62867,2,0,L|303:330,1,101.999996887207,10|8,0:3|0:3,0:0:0:0:
226,225,63186,1,10,0:0:0:0:
75,352,63346,1,2,0:0:0:0:
75,352,63425,1,0,0:0:0:0:
75,352,63505,6,0,P|120:280|76:169,1,203.999993774414,4|10,0:0|0:0,0:0:0:0:
11,35,63984,2,0,L|145:43,1,101.999996887207,2|8,0:0|0:3,0:0:0:0:
184,180,64303,2,0,L|50:172,1,101.999996887207,10|8,0:3|0:0,0:0:0:0:
223,46,64622,1,2,0:0:0:0:
313,232,64782,6,0,L|322:27,1,203.999993774414,10|10,0:3|0:0,0:0:0:0:
184,180,65260,2,0,L|188:293,1,101.999996887207,2|8,0:0|0:3,0:0:0:0:
290,315,65580,1,8,0:3:0:0:
130,361,65739,2,0,P|187:380|232:368,1,101.999996887207,10|0,0:0|0:0,0:0:0:0:
321,177,66058,5,6,0:0:0:0:
386,372,66218,1,8,0:3:0:0:
462,126,66377,5,10,0:0:0:0:
481,357,66537,1,8,0:3:0:0:
355,79,66697,5,10,0:0:0:0:
309,298,66856,1,8,0:3:0:0:
195,44,67016,5,10,0:0:0:0:
214,252,67175,1,8,0:3:0:0:
47,123,67335,5,10,0:0:0:0:
297,157,67494,1,8,0:3:0:0:
58,238,67654,5,10,0:0:0:0:
292,167,67814,1,8,0:3:0:0:
134,335,67973,5,10,0:0:0:0:
287,176,68133,1,8,0:3:0:0:
255,367,68292,5,10,0:0:0:0:
159,150,68452,2,0,L|166:218,1,50.9999984436036,8|0,0:3|0:0,0:0:0:0:
255,367,68611,6,0,P|297:313|432:340,1,203.999993774414,6|8,0:0|0:0,0:0:0:0:
494,190,69090,1,0,0:0:0:0:
299,182,69250,2,0,P|340:211|420:205,1,101.999996887207,8|8,0:3|0:3,0:0:0:0:
435,61,69569,2,0,P|391:35|312:48,1,101.999996887207,10|2,0:0|0:0,0:0:0:0:
182,83,69888,6,0,L|196:301,1,203.999993774414,8|8,0:3|0:0,0:0:0:0:
346,351,70367,1,2,0:0:0:0:
380,185,70526,2,0,L|259:204,1,101.999996887207,10|8,0:3|0:3,0:0:0:0:
161,384,70846,2,0,L|282:365,1,101.999996887207,10|0,0:0|0:0,0:0:0:0:
512,280,71165,6,0,L|399:274,1,101.999996887207,6|0,0:0|0:0,0:0:0:0:
260,290,71484,1,2,0:0:0:0:
372,83,71643,2,0,L|381:211,1,101.999996887207,10|0,0:0|0:0,0:0:0:0:
346,351,71963,1,2,0:0:0:0:
271,199,72122,1,10,0:0:0:0:
410,274,72282,1,10,0:0:0:0:
260,290,72441,5,4,0:0:0:0:
271,199,72601,1,8,0:3:0:0:
164,283,72760,2,0,L|173:391,1,101.999996887207,10|0,0:0|0:0,0:0:0:0:
271,199,73080,1,10,0:3:0:0:
259,110,73239,1,8,0:3:0:0:
170,120,73399,1,8,0:0:0:0:
182,208,73558,1,2,0:0:0:0:
345,140,73718,6,0,P|412:127|496:202,1,170,6|2,0:0|0:0,0:0:0:0:
486,275,74197,1,2,0:0:0:0:
420,338,74356,2,0,L|298:344,1,85,8|0,0:0|0:0,0:0:0:0:
295,258,74675,2,0,L|417:252,1,85,2|10,0:0|0:0,0:0:0:0:
248,337,74994,6,0,P|202:272|246:180,1,170,0|2,0:0|0:0,0:0:0:0:
301,146,75473,1,2,0:0:0:0:
375,188,75633,2,0,P|429:199|473:182,1,85,10|0,0:0|0:0,0:0:0:0:
503,121,75952,2,0,P|449:110|405:127,1,85,2|10,0:0|0:0,0:0:0:0:
331,32,76271,6,0,P|246:65|156:45,1,170,6|2,0:0|0:0,0:0:0:0:
95,12,76750,1,0,0:0:0:0:
35,74,76909,2,0,L|46:247,1,170,10|2,0:0|0:0,0:0:0:0:
117,289,77388,1,8,0:0:0:0:
188,242,77548,6,0,P|234:227|284:236,1,85,2|0,0:0|0:0,0:0:0:0:
324,295,77867,2,0,P|278:310|228:301,1,85,2|0,0:0|0:0,0:0:0:0:
363,222,78186,2,0,P|399:261|358:372,1,170,10|2,0:0|0:0,0:0:0:0:
291,384,78665,1,8,0:0:0:0:
166,300,78824,5,6,0:0:0:0:
302,156,79143,1,8,0:3:0:0:
124,140,79463,1,10,0:3:0:0:
352,320,79783,1,8,0:3:0:0:
248,28,80102,5,10,0:0:0:0:
40,288,80421,1,8,0:0:0:0:
380,232,80739,1,10,0:0:0:0:
64,60,81058,1,8,0:0:0:0:
256,384,81377,5,4,0:0:0:0:
256,368,82654,1,4,0:0:0:0:
256,356,83611,1,2,0:0:0:0:
223,328,83690,1,0,0:0:0:0:
183,315,83770,1,0,0:0:0:0:
141,318,83850,1,0,0:0:0:0:
103,337,83931,6,0,P|76:292|120:160,1,170,4|8,0:0|0:0,0:0:0:0:
272,128,84409,2,0,P|224:140|172:128,1,85,8|0,0:3|0:0,0:0:0:0:
100,32,84729,1,8,0:3:0:0:
100,32,84888,2,0,P|148:20|200:32,1,85,8|0,0:0|0:0,0:0:0:0:
272,128,85207,6,0,L|268:244,1,85,8|8,0:3|0:3,0:0:0:0:
352,312,85526,1,8,0:0:0:0:
404,192,85686,1,2,0:0:0:0:
404,192,85766,1,2,0:0:0:0:
404,192,85846,1,8,0:3:0:0:
269,212,86005,1,10,0:3:0:0:
352,312,86165,2,0,P|400:324|456:312,1,85,8|2,0:0|0:0,0:0:0:0:
324,124,86484,6,0,P|260:108|168:180,1,170,10|8,0:3|0:0,0:0:0:0:
140,256,86963,1,8,0:3:0:0:
240,324,87122,2,0,P|248:268|232:228,1,85,2|8,0:0|0:3,0:0:0:0:
44,276,87441,2,0,P|36:332|52:372,1,85,8|0,0:0|0:0,0:0:0:0:
140,256,87760,6,0,L|148:140,1,85,10|0,0:3|0:0,0:0:0:0:
304,80,88080,1,8,0:0:0:0:
252,184,88239,1,8,0:3:0:0:
192,84,88399,2,0,L|96:76,1,85,0|8,0:0|0:3,0:0:0:0:
252,184,88718,1,10,0:0:0:0:
288,194,88797,1,0,0:0:0:0:
326,193,88877,1,2,0:0:0:0:
362,180,88957,1,0,0:0:0:0:
392,157,89037,6,0,L|400:60,1,85,10|8,0:3|0:3,0:0:0:0:
488,240,89356,1,10,0:0:0:0:
376,284,89516,2,0,L|264:280,1,85,10|0,0:3|0:0,0:0:0:0:
488,240,89835,1,10,0:3:0:0:
440,376,89994,2,0,L|328:372,1,85,10|0,0:0|0:0,0:0:0:0:
204,240,90314,5,10,0:3:0:0:
280,368,90473,2,0,L|284:272,1,85,10|8,0:3|0:0,0:0:0:0:
196,156,90792,1,10,0:3:0:0:
136,296,90952,1,0,0:0:0:0:
296,184,91111,1,10,0:3:0:0:
120,208,91271,2,0,L|12:196,1,85,8|2,0:0|0:0,0:0:0:0:
244,72,91590,5,6,0:0:0:0:
236,80,91909,5,8,0:0:0:0:
184,296,92069,1,8,0:3:0:0:
376,188,92229,5,10,0:0:0:0:
132,128,92389,1,8,0:3:0:0:
256,352,92548,5,8,0:0:0:0:
328,56,92708,1,8,0:3:0:0:
100,304,92867,5,10,0:0:0:0:
392,180,93026,1,10,0:3:0:0:
112,116,93186,1,10,0:0:0:0:
392,344,93346,1,10,0:3:0:0:
256,124,93505,5,0,0:0:0:0:
180,232,93665,1,0,0:0:0:0:
312,244,93824,1,8,0:0:0:0:
29,70,93984,5,4,0:0:0:0:
256,192,94143,12,0,101803,0:0:0:0:
