osu file format v14

[General]
AudioFilename: MV____OFFICIAL.mp3
AudioLeadIn: 0
PreviewTime: 134325
Countdown: 0
SampleSet: None
StackLeniency: 0.7
Mode: 0
LetterboxInBreaks: 0
WidescreenStoryboard: 1

[Editor]
Bookmarks: 38177,49506,53974,64506,147326,163123,192166,227264,238976,239136
DistanceSpacing: 0.5
BeatDivisor: 4
GridSize: 16
TimelineZoom: 1.756801

[Metadata]
Title:Dear Brave
TitleUnicode:Dear Brave
Artist:Kano
ArtistUnicode:鹿乃
Creator:RebellioNlol
Version:Aefimo
Source:Heavy Object
Tags:Heavy object Makyu
BeatmapID:1168620
BeatmapSetID:387579

[Difficulty]
HPDrainRate:7
CircleSize:4
OverallDifficulty:8
ApproachRate:9
SliderMultiplier:1.8
SliderTickRate:1

[Events]
//Background and Video events
0,0,"BG.jpg",0,0
//Break Periods
2,43648,45401
2,178328,187741
//Storyboard Layer 0 (Background)
//Storyboard Layer 1 (Fail)
//Storyboard Layer 2 (Pass)
//Storyboard Layer 3 (Foreground)
//Storyboard Sound Samples

[TimingPoints]
2598,319.148936170213,4,2,0,40,1,0
7544,319.148936170213,4,2,0,40,1,0
17916,319.148936170213,4,2,0,40,1,0
17916,-142.857142857143,4,2,1,40,0,0
27490,-100,4,2,1,40,0,0
43447,-200,4,2,1,40,0,0
48235,-100,4,2,1,40,0,0
58767,-100,4,2,1,40,0,1
74086,-166.666666666667,4,2,1,40,0,1
81745,-100,4,2,1,40,0,0
94511,-100,4,2,1,40,0,0
135362,-100,4,2,1,40,0,1
145416,-100,4,2,1,40,0,0
145575,-100,4,2,1,40,0,1
150522,-166.666666666667,4,2,1,40,0,1
153235,-100,4,2,1,40,0,1
175416,-99.9999999999999,4,2,1,40,0,1
178128,-200,4,2,1,40,0,0
188341,319.148936170213,4,2,1,40,1,0
188341,-142.857142857143,4,2,1,40,0,0
188660,-100,4,2,1,40,0,0
198553,-50,4,2,1,40,0,0
198872,-100,4,2,1,40,0,0
199192,-80,4,2,1,40,0,0
199511,-66.6666666666667,4,2,1,40,0,0
199830,-200,4,2,1,40,0,1
201107,-142.857142857143,4,2,1,40,0,1
201745,-100,4,2,1,40,0,0
204937,-100,4,2,1,40,0,1
208767,-100,4,2,1,40,0,0
209405,-80,4,2,1,40,0,0
209724,-66.6666666666667,4,2,1,40,0,0
210043,-100,4,2,1,40,0,1
221533,-200,4,2,1,40,0,0
224086,-166.666666666667,4,2,1,40,0,0
231742,326.086956521739,4,2,0,40,1,0
236633,319.148936170213,4,2,0,40,1,0
236952,319.148936170213,4,2,0,40,1,0
256420,-100,4,2,0,5,0,0

[Colours]
Combo1 : 71,106,158
Combo2 : 128,0,255
Combo3 : 10,120,255
Combo4 : 40,255,255

[HitObjects]
312,136,2598,5,0,0:0:0:0:
332,232,2757,1,0,0:0:0:0:
428,212,2917,1,0,0:0:0:0:
236,252,3076,1,0,0:0:0:0:
236,252,3156,1,0,0:0:0:0:
236,252,3236,2,0,P|230:315|242:351,1,90
448,308,3555,2,0,P|454:245|442:209,1,90
312,136,3874,5,0,0:0:0:0:
332,232,4034,1,0,0:0:0:0:
408,116,4193,1,0,0:0:0:0:
216,156,4353,1,0,0:0:0:0:
216,156,4433,1,0,0:0:0:0:
216,156,4512,6,0,P|288:164|321:147,1,90
494,118,4832,2,0,P|422:110|389:127,1,90
332,232,5151,1,0,0:0:0:0:
292,40,5310,1,0,0:0:0:0:
238,201,5470,1,0,0:0:0:0:
385,70,5629,1,0,0:0:0:0:
385,70,5709,1,0,0:0:0:0:
385,70,5789,5,0,0:0:0:0:
426,262,5949,1,0,0:0:0:0:
292,40,6108,1,0,0:0:0:0:
302,325,6268,1,0,0:0:0:0:
238,201,7066,5,0,0:0:0:0:
251,249,7146,1,0,0:0:0:0:
286,284,7225,1,0,0:0:0:0:
334,296,7305,1,0,0:0:0:0:
381,284,7385,1,0,0:0:0:0:
417,249,7465,1,0,0:0:0:0:
428,201,7544,6,0,P|439:122|390:25,1,180
237,201,8022,6,0,P|231:240|256:289,1,90
428,201,8341,1,0,0:0:0:0:
284,118,8501,1,0,0:0:0:0:
451,201,8661,1,0,0:0:0:0:
284,283,8820,1,0,0:0:0:0:
375,207,9139,5,0,0:0:0:0:
375,207,9299,2,0,L|379:118,1,90
233,275,9618,2,0,L|237:365,1,90
379,283,9937,1,0,0:0:0:0:
379,283,10097,5,0,0:0:0:0:
283,118,10416,1,0,0:0:0:0:
284,283,10735,1,0,0:0:0:0:
379,119,11054,1,0,0:0:0:0:
236,200,11373,6,0,B|190:178|190:178|136:192|136:192|84:172|38:195,1,180,4|0,0:0|0:0,0:0:0:0:
188,282,11852,1,0,0:0:0:0:
93,281,12012,1,0,0:0:0:0:
272,237,12171,2,0,P|285:286|274:330,1,90
141,364,12490,1,0,0:0:0:0:
140,199,12650,6,0,P|155:278|108:251,1,180
225,342,13129,6,0,B|272:322|272:322|339:369|420:322,1,180
306,196,13607,6,0,P|381:222|335:249,1,180
140,294,14086,6,0,B|94:294|64:253|64:253|51:297|56:353|92:371|98:351,1,180
141,196,14565,1,0,0:0:0:0:
225,342,14724,1,0,0:0:0:0:
306,196,14884,1,0,0:0:0:0:
390,342,15044,1,0,0:0:0:0:
471,196,15203,5,0,0:0:0:0:
306,196,15363,2,0,P|290:247|311:302,1,90,12|0,0:0|0:3,0:3:0:0:
390,243,15682,1,8,0:0:0:0:
389,148,15841,2,0,P|352:108|294:99,1,90,12|0,0:0|0:3,0:3:0:0:
306,196,16161,5,0,0:0:0:0:
390,243,16320,2,0,P|442:231|479:185,1,90,12|0,0:0|0:3,0:3:0:0:
389,148,16639,1,8,0:0:0:0:
307,291,16799,2,0,L|313:381,1,90,8|0,0:0|0:0,0:0:0:0:
471,290,17118,5,0,0:0:0:0:
223,244,17277,1,0,0:0:0:0:
223,244,17437,1,0,0:0:0:0:
471,198,17916,5,0,0:0:0:0:
440,205,18075,1,0,0:0:0:0:
410,212,18235,1,2,0:0:0:0:
380,219,18394,1,0,0:0:0:0:
444,288,18554,2,0,L|516:288,1,62.9999980773926
407,129,18873,2,0,L|344:129,1,62.9999980773926,2|0,0:0|0:0,0:0:0:0:
248,166,19193,5,0,0:0:0:0:
255,196,19352,1,0,0:0:0:0:
262,226,19512,1,2,0:0:0:0:
269,257,19671,1,0,0:0:0:0:
179,230,19831,2,0,L|179:158,1,62.9999980773926
338,193,20150,2,0,L|338:256,1,62.9999980773926,2|2,0:0|0:0,0:0:0:0:
200,321,20469,5,0,0:0:0:0:
200,321,20628,1,0,0:0:0:0:
200,321,20788,1,2,0:0:0:0:
200,321,20947,1,0,0:0:0:0:
179,230,21107,5,0,0:0:0:0:
163,228,21267,1,0,0:0:0:0:
147,226,21426,1,2,0:0:0:0:
131,224,21586,1,0,0:0:0:0:
15,306,21745,5,0,0:0:0:0:
15,306,21905,1,0,0:0:0:0:
15,306,22064,1,2,0:0:0:0:
15,306,22223,1,0,0:0:0:0:
131,224,22384,5,0,0:0:0:0:
118,182,22543,1,0,0:0:0:0:
85,153,22703,1,2,0:0:0:0:
43,141,22862,1,2,0:0:0:0:
15,306,23022,6,0,L|20:370,2,62.9999980773926,0|0|2,0:0|0:0|0:0,0:0:0:0:
77,232,23501,1,0,0:0:0:0:
6,319,23660,2,0,L|10:381,1,62.9999980773926
172,248,23979,2,0,L|177:184,1,62.9999980773926,2|0,0:0|0:0,0:0:0:0:
43,141,24298,5,0,0:0:0:0:
46,165,24458,1,0,0:0:0:0:
49,190,24617,1,2,0:0:0:0:
52,214,24777,1,0,0:0:0:0:
201,83,24937,2,0,P|168:73|135:78,1,62.9999980773926
172,248,25256,2,0,P|205:258|238:253,1,62.9999980773926,2|2,0:0|0:0,0:0:0:0:
269,180,25575,5,0,0:0:0:0:
272,156,25735,1,0,0:0:0:0:
275,131,25894,1,2,0:0:0:0:
278,107,26054,1,0,0:0:0:0:
104,151,26213,2,0,P|94:193|96:218,1,62.9999980773926
269,180,26533,5,2,0:0:0:0:
211,22,26692,2,0,L|269:28,1,31.4999990386963
120,55,26852,2,0,L|32:64,1,62.9999980773926
195,118,27171,2,0,L|257:124,1,62.9999980773926
104,151,27490,6,0,P|79:148|59:155,1,45,4|0,0:0|0:0,0:0:0:0:
179,214,27650,2,0,P|193:194|197:172,1,45
86,246,27809,2,0,P|103:306|159:331,1,90,4|0,0:0|0:0,0:0:0:0:
270,181,28128,1,0,3:0:0:0:
104,151,28288,1,0,0:0:0:0:
172,249,28447,1,2,0:1:0:0:
202,83,28607,1,0,0:0:0:0:
331,192,28767,1,0,3:0:0:0:
182,71,28926,1,0,0:0:0:0:
360,25,29086,6,0,P|396:105|392:122,1,90,10|0,2:0|0:0,0:0:0:0:
265,137,29405,1,0,0:1:0:0:
431,167,29565,1,0,0:0:0:0:
363,69,29724,1,0,0:0:0:0:
333,235,29884,1,0,0:0:0:0:
361,47,30043,1,0,0:0:0:0:
431,167,30203,1,0,0:0:0:0:
359,25,30362,6,0,L|258:33,1,90,10|8,0:0|0:0,0:0:0:0:
265,137,30681,1,0,0:1:0:0:
428,73,30841,1,0,0:1:0:0:
243,141,31001,1,0,0:0:0:0:
431,167,31160,1,0,0:0:0:0:
431,167,31240,1,0,0:0:0:0:
431,167,31320,6,0,P|439:117|429:71,1,90
265,137,31639,1,0,0:1:0:0:
431,167,31799,1,0,0:0:0:0:
255,234,31958,2,0,P|246:283|256:329,1,90
421,264,32277,5,0,0:1:0:0:
364,106,32437,1,0,0:1:0:0:
428,288,32596,1,0,0:0:0:0:
487,165,32757,1,0,0:1:0:0:
305,229,32916,1,0,0:0:0:0:
511,158,33075,1,0,0:0:0:0:
378,291,33235,5,0,0:0:0:0:
323,134,33394,1,0,0:1:0:0:
214,261,33554,2,0,P|210:318|230:358,1,90
305,229,33873,1,0,0:0:0:0:
140,197,34032,1,0,0:1:0:0:
196,355,34192,2,0,L|295:344,1,90
214,261,34511,6,0,P|131:272|92:355,1,180
196,355,34990,1,0,0:0:0:0:
298,261,35150,6,0,P|381:272|420:355,1,180
316,355,35628,1,0,0:0:0:0:
214,261,35788,2,0,P|185:306|191:347,1,90
232,164,36107,2,0,P|178:161|146:187,1,90
325,131,36426,2,0,P|300:83|262:68,1,90
400,195,36745,2,0,P|429:150|422:108,1,90
232,164,37064,5,2,0:0:0:0:
424,200,37224,1,0,0:0:0:0:
214,261,37384,1,0,0:1:0:0:
400,195,37543,1,0,0:0:0:0:
232,164,37703,1,2,0:0:0:0:
382,292,37862,1,0,0:1:0:0:
243,303,38022,6,0,L|241:258,1,45
371,153,38181,2,0,L|369:197,1,45
232,164,38341,1,0,0:0:0:0:
232,164,38501,1,0,0:0:0:0:
371,153,38660,6,0,L|367:242,1,90
406,124,38979,2,0,L|402:213,1,90
440,94,39298,2,0,L|436:183,1,90
301,105,39618,1,0,0:0:0:0:
301,105,39777,1,0,0:0:0:0:
367,242,39937,6,0,L|363:331,1,90
402,213,40256,2,0,L|398:302,1,90
436,183,40575,2,0,L|432:272,1,90
297,194,40894,1,0,0:0:0:0:
297,194,41055,1,0,0:0:0:0:
374,63,41214,6,0,L|370:152,1,90
409,34,41533,2,0,L|405:123,1,90
443,4,41852,2,0,L|439:93,1,90
304,15,42171,1,0,0:0:0:0:
304,15,42330,1,0,0:0:0:0:
454,143,42490,1,0,0:1:0:0:
315,154,42650,5,0,0:0:0:0:
443,4,42810,1,0,0:0:0:0:
509,190,42969,1,0,0:0:0:0:
378,79,43129,1,0,0:0:0:0:
347,248,43288,1,0,0:0:0:0:
476,97,43448,5,0,0:0:0:0:
476,97,46001,5,2,3:0:0:0:
432,107,46639,5,2,3:0:0:0:
388,117,47277,5,2,3:0:0:0:
450,184,47596,1,2,3:0:0:0:
327,50,47756,1,0,3:0:0:0:
327,50,47836,1,0,3:0:0:0:
327,50,47916,1,0,3:0:0:0:
269,223,48075,1,0,0:0:0:0:
292,221,48154,1,0,0:0:0:0:
315,219,48235,6,0,L|359:213,1,45,8|0,0:0|0:0,0:0:0:0:
478,97,48394,2,0,L|429:91,1,45,8|0,0:0|0:0,0:0:0:0:
423,272,48554,5,2,3:0:0:0:
423,272,48713,1,2,3:0:0:0:
388,116,48873,1,0,3:0:0:0:
427,294,49033,1,0,0:0:0:0:
319,224,49192,1,0,0:0:0:0:
496,186,49352,1,0,0:0:0:0:
298,234,49511,2,0,P|290:197|312:139,1,90
407,205,49830,5,0,0:0:0:0:
407,205,49990,1,0,0:0:0:0:
310,358,50150,1,0,0:0:0:0:
282,233,50309,1,0,0:0:0:0:
435,330,50469,1,0,0:0:0:0:
278,323,50628,1,0,0:0:0:0:
438,239,50788,2,0,L|434:133,1,90
286,143,51107,5,0,0:0:0:0:
286,143,51267,1,0,0:0:0:0:
446,59,51426,1,0,0:0:0:0:
324,21,51586,1,0,0:0:0:0:
408,181,51745,1,0,0:0:0:0:
446,59,51905,1,0,0:0:0:0:
286,143,52064,2,0,P|275:189|296:254,1,90
442,149,52384,5,0,0:0:0:0:
442,149,52543,1,0,0:0:0:0:
289,52,52703,1,0,0:0:0:0:
281,234,52862,1,0,0:0:0:0:
289,29,53022,1,0,0:0:0:0:
289,29,53181,1,0,0:0:0:0:
387,135,53341,1,0,0:0:0:0:
182,127,53501,1,0,0:0:0:0:
332,221,53660,6,8,P|371:195|389:144,1,90,12|8,0:0|0:3,0:3:0:0:
285,131,53979,1,0,0:0:0:0:
229,217,54139,2,8,P|232:263|267:304,1,90,12|8,0:0|0:3,0:3:0:0:
332,221,54458,1,0,0:0:0:0:
182,127,54618,2,8,L|76:144,1,90,12|8,0:0|0:3,0:3:0:0:
229,217,54935,5,0,0:0:0:0:
387,135,55096,2,8,L|374:45,1,90,12|8,0:0|0:3,0:3:0:0:
285,131,55416,1,0,0:0:0:0:
435,225,55575,1,0,0:0:0:0:
229,217,55735,1,0,0:0:0:0:
387,135,55894,1,0,0:0:0:0:
332,221,56054,1,0,0:0:0:0:
332,221,56213,2,0,L|209:208,1,90
341,45,56533,5,0,0:0:0:0:
229,217,56693,1,0,0:0:0:0:
441,50,56853,1,0,0:0:0:0:
182,127,57012,1,0,0:0:0:0:
486,139,57172,1,0,0:0:0:0:
238,41,57331,1,0,0:0:0:0:
274,300,57490,5,0,0:0:0:0:
486,139,58767,6,0,B|431:124|431:124|388:133|388:133|346:110|281:128,1,180,4|0,0:0|0:0,0:0:0:0:
328,221,59245,1,0,0:0:0:0:
328,221,59325,1,0,0:0:0:0:
328,221,59405,2,0,B|344:204|377:220|377:220|445:206,1,90
438,47,59724,1,0,0:0:0:0:
280,129,59884,1,0,0:0:0:0:
431,225,60043,6,0,B|486:139|486:139|438:115|399:135|430:183|448:152,1,180
311,272,60522,1,0,0:0:0:0:
311,272,60602,1,0,0:0:0:0:
311,272,60681,2,0,P|299:322|316:372,1,90
431,225,61001,1,0,0:0:0:0:
280,129,61160,1,0,0:0:0:0:
272,307,61320,6,0,B|235:295|197:306|197:306|163:317|111:310,1,135
117,320,61639,2,0,B|146:325|183:318|183:318|156:347|176:348,1,90
326,220,61958,1,0,0:0:0:0:
121,211,62118,1,0,0:0:0:0:
272,307,62277,1,0,0:0:0:0:
98,205,62437,1,0,0:0:0:0:
280,129,62596,6,0,L|285:275,1,135
295,283,62916,6,0,L|298:175,1,90
335,41,63235,1,0,0:0:0:0:
486,138,63394,1,0,0:0:0:0:
280,129,63554,1,0,0:0:0:0:
439,47,63713,1,0,0:0:0:0:
439,47,63793,1,0,0:0:0:0:
439,47,63873,6,0,P|386:126|388:146,1,90
431,226,64192,1,0,0:0:0:0:
280,129,64352,1,0,0:0:0:0:
241,232,64511,2,0,P|285:238|327:222,1,90
90,135,64830,1,0,0:0:0:0:
116,259,64990,1,0,0:0:0:0:
116,259,65070,1,0,0:0:0:0:
116,259,65150,5,0,0:0:0:0:
214,108,65309,1,0,0:0:0:0:
41,210,65469,2,0,P|31:275|46:308,1,90
289,157,65788,2,0,P|301:114|290:70,1,90
138,59,66107,1,0,0:0:0:0:
232,244,66267,1,0,0:0:0:0:
241,64,66426,5,0,0:0:0:0:
168,309,66586,1,0,0:0:0:0:
81,146,66745,1,0,0:0:0:0:
336,249,66905,1,0,0:0:0:0:
186,153,67064,5,0,0:0:0:0:
168,309,67224,1,0,0:0:0:0:
289,157,67384,1,0,0:0:0:0:
383,341,67543,1,0,0:0:0:0:
232,244,67703,1,0,0:0:0:0:
392,161,67862,1,0,0:0:0:0:
241,65,68022,6,0,L|386:65,1,135
398,68,68341,2,0,L|325:193,1,135
318,204,68660,1,0,0:0:0:0:
241,65,68820,1,0,0:0:0:0:
241,65,68900,1,0,0:0:0:0:
241,65,68979,6,0,P|296:52|340:69,1,90
392,161,69298,1,0,0:0:0:0:
183,146,69458,2,0,L|179:203,1,45
336,248,69618,1,0,0:0:0:0:
163,134,69777,1,0,0:0:0:0:
392,161,69937,2,0,P|395:106|386:72,1,90
265,201,70256,6,0,P|249:251|326:333,1,135
344,69,70734,6,0,P|382:110|390:157,1,90
359,258,70735,1,0,0:0:0:0:
308,132,70894,2,0,L|284:45,1,90
359,258,71213,2,0,L|448:264,1,90
268,167,71453,1,0,0:0:0:0:
268,167,71533,6,0,P|206:228|229:310,1,180
356,192,72011,2,0,B|360:144|360:144|352:102|360:8,1,180
436,56,72490,1,0,0:0:0:0:
436,56,72650,1,0,0:0:0:0:
372,120,72809,2,0,P|324:132|276:124,1,90
216,68,73128,2,0,B|164:64|164:64|116:76,1,90
60,132,73447,5,0,0:0:0:0:
80,222,73607,1,0,0:0:0:0:
128,68,73767,1,0,0:0:0:0:
184,216,73926,1,0,0:0:0:0:
196,128,74086,6,0,P|272:108|324:120,1,125.999996154785
360,160,74564,1,0,0:0:0:0:
360,160,74724,2,0,B|428:168|428:168|492:152,1,125.999996154785
464,100,75203,1,0,0:0:0:0:
463,100,75362,2,0,P|468:68|461:38,1,62.9999980773926
384,148,75681,2,0,P|380:180|388:212,1,62.9999980773926
468,260,76001,6,0,P|388:248|320:264,1,125.999996154785
264,308,76479,1,0,0:0:0:0:
172,320,76639,2,0,B|236:336|236:336|296:320,1,125.999996154785
344,255,77277,1,0,0:0:0:0:
344,255,77596,6,0,L|354:192,2,62.9999980773926
221,266,78235,2,0,L|231:329,2,62.9999980773926
100,228,78873,6,0,L|110:165,2,62.9999980773926
231,329,79511,1,0,0:0:0:0:
336,252,79830,1,0,0:0:0:0:
152,208,80150,1,0,0:0:0:0:
404,180,80469,5,0,0:0:0:0:
108,292,80788,1,0,0:0:0:0:
484,320,81107,1,0,0:0:0:0:
60,196,81426,1,0,0:0:0:0:
484,64,81745,1,0,0:0:0:0:
392,168,83022,5,0,0:0:0:0:
392,168,83979,6,0,L|340:160,1,45
231,207,84139,2,0,L|276:213,1,45
351,259,84298,2,0,P|367:301|362:346,1,90
231,207,84618,2,0,P|215:159|231:99,1,90
276,48,84937,1,0,0:0:0:0:
332,172,85096,1,0,0:0:0:0:
220,120,85256,6,0,B|168:116|168:116|116:120,1,90
208,228,85575,1,0,0:0:0:0:
332,172,85735,1,0,0:0:0:0:
404,284,85894,2,0,L|416:168,1,90
325,189,86134,1,0,0:0:0:0:
325,189,86213,2,0,L|316:100,1,90
318,291,86533,2,0,P|362:301|403:284,1,90
248,240,86852,6,0,B|204:232|160:252|160:252|124:240|124:240|72:248,1,180
232,328,87330,1,0,0:0:0:0:
284,204,87490,2,0,P|288:144|280:104,1,90
120,28,87809,2,0,P|115:73|121:118,1,90
172,192,88128,5,0,0:0:0:0:
236,128,88288,1,0,0:0:0:0:
336,280,88447,1,0,0:0:0:0:
244,276,88607,1,0,0:0:0:0:
336,120,88767,1,0,0:0:0:0:
372,252,88926,1,0,0:0:0:0:
240,272,89086,5,0,0:0:0:0:
212,236,89166,1,0,0:0:0:0:
208,192,89245,1,0,0:0:0:0:
224,148,89325,1,0,0:0:0:0:
264,124,89405,6,0,B|308:128|308:128|384:100|423:128,1,135
429,129,89724,1,0,0:0:0:0:
237,102,89884,6,0,B|281:106|281:106|357:78|396:106,1,135
402,107,90203,1,0,0:0:0:0:
199,73,90362,6,0,B|243:77|243:77|319:49|358:77,1,135
364,78,90681,1,0,0:0:0:0:
332,232,90841,1,0,0:0:0:0:
123,151,91001,1,0,0:0:0:0:
257,123,91160,1,0,0:0:0:0:
257,123,91240,1,0,0:0:0:0:
257,123,91320,1,0,0:0:0:0:
95,264,91479,1,0,0:0:0:0:
139,50,91639,1,0,0:0:0:0:
239,236,91798,1,0,0:0:0:0:
256,356,91958,5,0,0:0:0:0:
176,128,92118,1,0,0:0:0:0:
272,248,92277,1,0,0:0:0:0:
337,64,92437,1,0,0:0:0:0:
160,66,92596,5,0,0:0:0:0:
127,86,92676,1,0,0:0:0:0:
103,116,92756,1,0,0:0:0:0:
97,146,92836,1,0,0:0:0:0:
160,66,92916,6,0,L|276:67,1,90
48,184,93235,2,0,L|104:179,1,45
60,194,93394,2,0,L|104:198,1,45
338,203,93554,2,0,L|257:195,1,45
323,228,93713,2,0,B|258:226|229:252|229:252|222:173|288:151|260:201,1,180
256,155,94112,1,0,0:0:0:0:
256,155,94192,6,0,B|269:206|269:206|231:274|280:338,1,180
364,328,94671,1,0,0:0:0:0:
252,252,94830,2,0,P|188:252|148:260,1,90
48,328,95150,2,0,B|40:284|40:284|48:240,1,90
164,80,95469,2,0,B|172:124|172:124|164:168,1,90
212,296,95788,1,0,0:0:0:0:
256,180,95947,1,0,0:0:0:0:
324,240,96107,6,0,P|368:243|411:231,1,90
128,135,96426,2,0,P|110:177|107:221,1,90
199,101,96745,1,0,0:0:0:0:
256,180,96905,1,0,0:0:0:0:
252,20,97064,2,0,B|200:12|200:12|164:19,1,90
199,101,97384,1,0,0:0:0:0:
312,140,97543,2,0,B|332:96|332:96|168:104|168:104,1,180
200,192,98022,5,0,0:0:0:0:
168,16,98181,1,0,0:0:0:0:
280,140,98341,2,0,L|369:134,1,90
160,256,98660,1,0,0:0:0:0:
228,140,98820,1,0,0:0:0:0:
300,192,98979,2,0,L|389:195,1,90
408,107,99298,2,0,L|497:103,1,90
352,232,99618,6,0,P|268:204|268:96,1,180
308,52,100096,1,0,0:0:0:0:
228,208,100256,1,0,0:0:0:0:
180,40,100416,1,0,0:0:0:0:
44,117,100575,2,0,B|92:124|92:124|132:116,1,90
208,68,100894,6,0,B|224:128|224:128|207:202|207:202|232:272,1,180
272,316,101373,1,0,0:0:0:0:
272,316,101453,1,0,0:0:0:0:
272,316,101533,1,0,0:0:0:0:
292,136,101692,1,0,0:0:0:0:
352,204,101852,6,0,P|396:209|440:203,1,90
277,226,102171,2,0,L|269:346,2,90
180,44,102650,2,0,L|188:224,1,180
184,317,103128,2,0,P|228:327|271:315,1,90
188,224,103447,6,0,P|40:220|0:260,1,180
184,317,103926,1,0,0:0:0:0:
236,99,104086,2,0,L|228:188,1,90
100,281,104405,2,0,L|92:192,1,90
232,192,104724,6,0,B|276:208|316:192|316:192|344:188|344:188|388:204|440:184,1,180
272,96,105362,1,0,0:0:0:0:
408,192,105522,2,0,P|392:244|272:272,2,180
380,76,106320,1,0,0:0:0:0:
344,320,106479,1,0,0:0:0:0:
312,188,106639,6,0,L|302:98,1,90
175,209,106958,1,0,0:0:0:0:
132,80,107118,1,0,0:0:0:0:
64,196,107277,2,0,P|52:256|72:296,1,90
188,232,107596,1,0,0:0:0:0:
80,152,107756,1,0,0:0:0:0:
280,140,107916,5,0,0:0:0:0:
148,168,108075,1,0,0:0:0:0:
336,236,108235,2,0,L|344:136,1,90
324,36,108554,1,0,0:0:0:0:
244,144,108713,1,0,0:0:0:0:
343,146,108873,6,0,L|448:156,1,90
240,292,109192,1,0,0:0:0:0:
272,92,109352,1,0,0:0:0:0:
272,92,109431,1,0,0:0:0:0:
272,92,109511,2,0,P|221:74|172:84,1,90
264,192,109830,1,0,0:0:0:0:
376,116,109990,1,0,0:0:0:0:
304,304,110150,6,0,P|240:312|208:304,1,90
288,168,110469,1,0,0:0:0:0:
396,256,110628,1,0,0:0:0:0:
376,116,110788,2,0,L|364:26,1,90
288,336,111107,6,0,L|291:156,1,180
376,116,111586,1,0,0:0:0:0:
291,156,111745,2,0,P|196:153|172:51,1,180,0|0,2:0|2:0,2:0:0:0:
253,79,112224,1,0,2:0:0:0:
352,308,112384,2,0,L|383:208,1,90
291,156,112703,6,0,B|252:152|252:152|212:172|212:172|164:148|100:184,1,180,0|0,2:0|2:0,2:0:0:0:
104,88,113181,1,0,0:0:0:0:
168,244,113341,1,0,0:0:0:0:
320,128,113501,1,0,0:0:0:0:
272,216,113660,6,0,P|263:259|274:303,1,90
395,86,113979,2,0,P|361:56|318:44,1,90
232,103,114298,1,0,0:0:0:0:
420,171,114458,1,0,0:0:0:0:
288,196,114618,1,0,0:0:0:0:
452,120,114777,1,0,0:0:0:0:
232,103,114937,6,0,L|224:195,1,90
212,312,115256,1,0,0:0:0:0:
232,103,115416,1,0,0:0:0:0:
300,164,115575,2,0,P|344:171|388:164,1,90
416,80,115894,1,0,0:0:0:0:
300,164,116054,2,0,L|272:352,1,180
124,320,116533,5,0,0:0:0:0:
172,192,116692,1,0,0:0:0:0:
273,342,116852,2,0,P|325:349|365:341,1,90
392,220,117171,1,0,0:0:0:0:
228,263,117330,2,0,L|48:259,1,180
268,352,117809,1,0,0:0:0:0:
140,304,117969,1,0,0:0:0:0:
300,207,118128,6,0,P|307:163|301:119,1,90
140,215,118447,2,0,P|132:267|140:307,1,90
304,160,118767,1,0,0:0:0:0:
224,252,118926,1,0,0:0:0:0:
240,60,119086,2,0,P|195:52|151:58,1,90
232,155,119405,1,0,0:0:0:0:
348,79,119564,1,0,0:0:0:0:
296,275,119724,1,0,0:0:0:0:
232,155,119884,1,0,0:0:0:0:
356,212,120043,6,0,P|404:224|476:192,1,90
296,275,120362,1,0,0:0:0:0:
200,104,120522,1,0,0:0:0:0:
168,188,120681,2,0,L|152:288,1,90
344,196,121001,2,0,L|360:96,1,90
200,104,121320,1,0,0:0:0:0:
224,240,121479,1,0,0:0:0:0:
124,196,121639,6,0,L|11:203,1,90
144,308,121958,1,0,0:0:0:0:
200,104,122118,1,0,0:0:0:0:
224,240,122277,1,0,0:0:0:0:
108,68,122437,1,0,0:0:0:0:
196,172,122596,2,0,L|285:177,1,90
386,133,122916,1,0,0:0:0:0:
362,269,123075,1,0,0:0:0:0:
360,92,123235,6,0,L|354:2,1,90
452,168,123554,1,0,0:0:0:0:
316,192,123713,1,0,0:0:0:0:
480,124,123873,2,0,L|472:292,1,135
312,332,124192,5,0,0:0:0:0:
352,212,124352,1,0,0:0:0:0:
352,212,124431,1,0,0:0:0:0:
352,212,124511,1,0,0:0:0:0:
198,156,124671,1,0,0:0:0:0:
440,220,124830,1,0,0:0:0:0:
372,4,124990,1,0,0:0:0:0:
364,275,125150,6,0,L|368:96,1,180
200,104,125628,1,0,0:0:0:0:
200,104,125708,1,0,0:0:0:0:
200,104,125788,1,0,0:0:0:0:
144,308,125947,1,0,0:0:0:0:
124,196,126107,2,0,L|34:201,1,90
200,104,126426,6,0,L|220:284,1,180
320,44,126905,1,0,0:0:0:0:
320,44,126985,1,0,0:0:0:0:
320,44,127064,1,0,0:0:0:0:
224,236,127224,1,0,0:0:0:0:
136,132,127384,1,0,0:0:0:0:
180,328,127543,1,0,0:0:0:0:
180,328,127623,1,0,0:0:0:0:
179,327,127703,6,0,L|160:149,1,180
176,60,128181,1,0,0:0:0:0:
264,216,128341,1,0,0:0:0:0:
324,48,128501,2,0,L|320:-16,2,45
264,156,128820,2,0,L|268:220,2,45
340,72,129139,1,0,0:0:0:0:
384,240,129298,1,0,0:0:0:0:
432,128,129458,1,0,0:0:0:0:
288,240,129618,5,0,0:0:0:0:
340,152,129777,1,0,0:0:0:0:
408,332,129937,1,0,0:0:0:0:
376,68,130096,1,0,0:0:0:0:
396,256,130256,5,0,0:0:0:0:
421,218,130336,1,0,0:0:0:0:
425,173,130416,1,0,0:0:0:0:
406,133,130495,1,0,0:0:0:0:
370,106,130575,1,0,0:0:0:0:
324,102,130655,1,0,0:0:0:0:
284,122,130735,1,0,0:0:0:0:
258,158,130814,1,0,0:0:0:0:
256,204,130894,6,0,L|260:256,3,45
156,296,131213,2,0,L|152:340,3,45
140,252,131533,5,0,0:0:0:0:
121,210,131612,1,0,0:0:0:0:
125,165,131692,1,0,0:0:0:0:
151,129,131772,1,0,0:0:0:0:
191,108,131852,1,0,0:0:0:0:
237,112,131931,1,0,0:0:0:0:
273,139,132011,1,0,0:0:0:0:
292,179,132091,1,0,0:0:0:0:
276,220,132171,6,0,L|287:263,3,45
360,152,132490,2,0,L|364:107,3,45
392,72,132809,6,0,B|341:103|270:80|270:80|200:59|200:59|246:35|293:47,1,270
267,43,133447,2,0,P|298:173|271:304,1,270,0|0,0:0|0:0,0:0:0:0:
271,304,134086,2,0,B|252:208|252:208|264:120,1,180
267,43,134724,1,0,0:0:0:0:
324,304,135043,1,0,0:0:0:0:
292,216,135362,6,0,P|284:160|300:112,1,90
340,52,135681,1,0,0:0:0:0:
396,224,135841,1,0,0:0:0:0:
396,224,135921,1,0,0:0:0:0:
396,224,136001,1,0,0:0:0:0:
244,184,136160,1,0,0:0:0:0:
296,112,136320,6,0,P|352:104|400:124,1,90
244,184,136639,1,0,0:0:0:0:
188,60,136798,1,0,0:0:0:0:
112,248,136958,1,0,0:0:0:0:
100,112,137118,1,0,0:0:0:0:
100,112,137197,1,0,0:0:0:0:
100,112,137277,2,0,L|92:22,1,90
168,228,137596,1,0,0:0:0:0:
252,124,137756,1,0,0:3:0:0:
396,152,137916,6,0,B|392:104|392:104|420:64|384:4|384:4|376:60,1,180
319,96,138394,1,0,0:0:0:0:
319,96,138474,1,0,0:0:0:0:
319,96,138554,2,0,P|277:107|235:93,1,90
412,156,138873,2,0,L|432:264,1,90
452,328,139192,2,0,L|464:136,1,180
420,68,139671,1,0,0:0:0:0:
324,220,139830,5,0,0:0:0:0:
296,88,139990,1,0,0:0:0:0:
424,132,140150,1,0,0:0:0:0:
192,176,140309,1,0,0:0:0:0:
436,136,140469,6,0,P|464:204|432:308,1,180
264,256,140947,1,0,0:0:0:0:
264,256,141027,1,0,0:0:0:0:
264,256,141107,2,0,P|315:240|360:256,1,90
400,324,141426,1,0,0:0:0:0:
340,156,141586,1,0,0:0:0:0:
264,256,141745,6,0,B|216:264|216:264|174:261,1,90
308,176,142064,1,0,0:0:0:0:
384,340,142224,1,0,0:0:0:0:
384,340,142304,1,0,0:0:0:0:
384,340,142384,2,0,B|391:292|391:292|389:250,1,90
417,120,142703,2,0,L|309:108,1,90
124,259,143022,5,0,0:0:0:0:
239,98,143181,1,0,0:0:0:0:
209,311,143341,1,0,0:0:0:0:
370,209,143501,1,0,0:0:0:0:
236,76,143660,1,0,0:0:0:0:
150,214,143820,5,0,0:0:0:0:
284,164,143979,1,0,0:0:0:0:
201,98,144139,1,0,0:0:0:0:
244,299,144298,1,0,0:0:0:0:
328,111,144458,1,0,0:0:0:0:
256,208,144618,5,0,0:0:0:0:
256,208,144937,1,0,0:0:0:0:
256,208,145256,1,0,0:0:0:0:
368,248,145416,2,0,L|323:255,1,45
358,140,145575,2,0,L|448:144,1,90
260,212,145894,2,0,L|170:208,1,90
340,148,146213,1,0,0:0:0:0:
404,268,146373,1,0,0:0:0:0:
420,180,146533,6,0,L|424:80,1,90
324,272,146852,2,0,L|320:372,1,90
331,181,147171,2,0,P|391:173|440:189,1,90
181,203,147490,2,0,P|121:211|72:195,1,90
248,112,147809,1,0,0:0:0:0:
240,280,147969,1,0,0:0:0:0:
248,128,148128,6,0,L|148:140,1,90
240,280,148447,1,0,0:0:0:0:
248,92,148607,2,0,L|148:104,1,90
240,280,148926,1,0,0:0:0:0:
256,48,149086,2,0,L|166:58,1,90
280,180,149405,6,0,L|456:216,1,180
256,48,149884,1,0,0:0:0:0:
280,180,150043,2,0,L|276:276,1,90
188,304,150362,1,0,0:0:0:0:
91,190,150522,2,0,L|280:180,1,188.999994232178
241,83,151160,1,0,0:0:0:0:
279,298,151320,6,0,P|298:238|279:179,1,125.999996154785
364,84,151798,1,0,0:0:0:0:
284,180,151958,2,0,L|221:177,1,62.9999980773926
136,84,152277,2,0,L|73:86,1,62.9999980773926
172,180,152596,5,0,0:0:0:0:
204,172,152676,1,0,0:0:0:0:
224,148,152756,1,0,0:0:0:0:
236,120,152836,1,0,0:0:0:0:
232,84,152916,1,0,0:0:0:0:
116,104,153075,1,0,0:0:0:0:
116,104,153235,6,0,B|104:208|104:208|120:288,1,180
200,320,153713,1,0,0:0:0:0:
232,188,153873,2,0,P|189:176|145:185,1,90
272,316,154192,2,0,P|320:328|364:316,1,90
416,120,154511,1,0,0:0:0:0:
320,240,154671,1,0,0:0:0:0:
324,72,154830,1,0,0:0:0:0:
412,216,154990,1,0,0:0:0:0:
260,141,155150,6,0,P|215:148|171:143,1,90
324,72,155469,6,0,P|368:66|412:74,1,90
320,240,155788,1,0,0:0:0:0:
412,216,155947,1,0,0:0:0:0:
260,140,156107,2,0,P|248:184|253:228,1,90
392,120,156346,1,0,0:0:0:0:
392,120,156426,2,0,P|404:73|396:25,1,90
260,140,156745,6,0,P|216:149|144:113,1,90
398,32,157064,2,0,P|442:23|514:59,1,90
392,120,157384,2,0,L|392:210,1,90
256,124,157623,1,0,0:0:0:0:
256,124,157703,2,0,L|256:34,1,90
248,212,158022,2,0,P|180:224|140:208,1,90
256,124,158341,6,0,B|304:120|304:120|344:128|344:128|392:104|432:136|464:128,1,180
384,204,158820,2,0,P|356:148|392:32,1,180
311,96,159298,2,0,P|267:104|223:99,1,90
421,182,159618,2,0,B|408:140|408:140|408:168|388:216|388:216|400:272,1,180
400,272,160096,2,0,P|328:296|212:256,1,180
229,271,160575,6,0,P|185:266|142:278,1,90
180,248,160894,5,0,0:0:0:0:
232,112,161054,1,0,0:0:0:0:
288,304,161213,1,0,0:0:0:0:
360,152,161373,1,0,0:0:0:0:
132,176,161533,5,0,0:0:0:0:
292,260,161692,1,0,0:0:0:0:
288,52,161852,1,0,0:0:0:0:
208,228,162011,1,0,0:0:0:0:
160,60,162171,1,0,0:0:0:0:
360,160,162330,1,0,0:0:0:0:
160,292,162490,5,0,0:0:0:0:
276,76,162650,1,0,0:0:0:0:
368,196,162809,2,0,P|380:240|379:285,1,90
144,188,163128,2,0,P|132:144|133:99,1,90
256,96,163447,6,0,B|240:148|252:184|252:184|272:220|257:272,1,180
260,364,163926,1,0,0:0:0:0:
348,144,164086,2,0,P|392:132|448:152,1,90
164,240,164405,2,0,P|120:252|64:232,1,90
16,176,164724,6,0,L|200:240,1,180
496,208,165203,2,0,L|312:144,1,180
226,228,165681,2,0,L|316:240,1,90
176,144,166001,6,0,P|104:148|52:200,1,135
64,252,166320,1,0,0:0:0:0:
100,48,166479,1,0,0:0:0:0:
100,48,166559,1,0,0:0:0:0:
100,48,166639,1,0,0:0:0:0:
192,248,166798,1,0,0:0:0:0:
248,156,166958,5,0,0:0:0:0:
372,300,167118,2,0,L|360:104,1,180
284,56,167596,1,0,0:0:0:0:
284,236,167756,1,0,0:0:0:0:
120,160,167916,2,0,P|68:156|32:164,1,90
192,248,168235,1,0,0:0:0:0:
200,68,168394,1,0,0:0:0:0:
200,68,168474,1,0,0:0:0:0:
200,68,168554,2,0,L|206:157,1,90
272,256,168873,1,0,0:0:0:0:
204,316,169033,6,0,P|160:326|115:320,1,90
280,164,169352,1,0,0:0:0:0:
360,208,169511,2,0,L|376:320,1,90
252,256,169830,1,0,0:0:0:0:
192,188,169990,2,0,B|183:141|183:141|188:96,1,90
252,256,170309,1,0,0:0:0:0:
320,144,170469,1,0,0:0:0:0:
380,328,170628,1,0,0:0:0:0:
424,248,170788,2,0,P|429:203|419:159,1,90
344,208,171107,5,0,0:0:0:0:
267,257,171267,2,0,P|259:301|270:344,1,90
424,176,171586,1,0,0:0:0:0:
354,117,171745,2,0,L|264:104,1,90
452,92,172064,1,0,0:0:0:0:
512,160,172224,6,0,B|516:207|516:207|508:248,1,90
364,68,172543,1,0,0:0:0:0:
424,0,172703,2,0,B|456:16|456:16|512:4,1,90
298,219,173022,2,0,P|308:175|300:132,1,90
364,68,173341,1,0,0:0:0:0:
153,32,173501,2,0,P|143:76|152:120,1,90
220,176,173820,1,0,0:0:0:0:
167,281,173979,6,0,L|256:264,1,90
308,192,174298,1,0,0:0:0:0:
80,248,174458,1,0,0:0:0:0:
116,100,174618,5,0,0:0:0:0:
220,176,174777,1,0,0:0:0:0:
280,12,174937,2,0,P|312:12|356:20,1,45
448,146,175096,2,0,P|425:146|403:144,1,45
255,240,175256,2,0,L|299:247,1,45
444,356,175416,2,0,B|364:353|364:353|320:373|266:356,1,180
140,340,175894,5,0,0:0:0:0:
236,120,176054,1,0,0:0:0:0:
240,256,176213,1,0,0:0:0:0:
136,184,176373,1,0,0:0:0:0:
340,168,176533,1,0,0:0:0:0:
192,296,176692,1,0,0:0:0:0:
236,120,176852,5,0,0:0:0:0:
304,328,177011,1,0,0:0:0:0:
372,136,177171,1,0,0:0:0:0:
184,224,177330,1,0,0:0:0:0:
376,276,177490,1,0,0:0:0:0:
236,120,177650,1,0,0:0:0:0:
88,252,177809,1,0,0:0:0:0:
272,296,177969,1,0,0:0:0:0:
228,60,178128,5,0,0:0:0:0:
48,160,188341,6,0,P|132:144|176:160,1,125.999996154785
304,136,188820,1,0,0:0:0:0:
303,136,188979,2,0,P|325:96|329:52,1,90
211,232,189298,2,0,P|216:276|234:317,1,90
176,100,189618,2,0,P|124:84|72:92,1,90
211,232,189937,5,0,0:0:0:0:
252,48,190096,1,0,0:0:0:0:
328,184,190256,1,0,0:0:0:0:
132,168,190416,1,0,0:0:0:0:
320,96,190575,1,0,0:0:0:0:
256,300,190735,1,0,0:0:0:0:
228,144,190894,6,0,P|160:132|64:156,1,135
68,188,191213,2,0,L|68:36,1,135
32,80,191533,2,0,B|95:95|95:95|163:83,1,135
266,69,191851,1,0,0:0:0:0:
138,46,192011,1,0,0:0:0:0:
192,160,192171,2,0,P|234:172|304:160,1,90
340,100,192490,5,0,0:0:0:0:
397,241,192650,1,0,0:0:0:0:
460,120,192809,1,0,0:0:0:0:
293,203,192969,1,0,0:0:0:0:
460,120,193128,2,0,P|468:72|460:32,1,90
340,100,193447,6,0,P|320:184|357:289,1,180
461,183,193926,1,0,0:0:0:0:
229,198,194086,2,0,L|113:206,1,90
351,306,194404,1,0,0:0:0:0:
341,95,194564,1,0,0:0:0:0:
353,336,194724,6,0,B|346:287|362:231|362:231|346:159,1,180
148,60,195203,1,0,0:0:0:0:
252,164,195362,1,0,0:0:0:0:
252,164,195522,1,0,0:0:0:0:
336,68,195681,6,0,L|452:64,1,90
176,68,196001,2,0,L|60:64,1,90
385,249,196320,2,0,L|392:160,1,90
120,148,196639,2,0,L|126:237,1,90
248,320,196958,5,0,0:0:0:0:
224,132,197118,1,0,0:0:0:0:
152,252,197277,1,0,0:0:0:0:
344,212,197437,1,0,0:0:0:0:
236,104,197596,5,0,0:0:0:0:
152,20,197756,1,0,0:0:0:0:
276,128,197916,1,0,0:0:0:0:
104,192,198075,1,0,0:0:0:0:
216,252,198235,1,0,0:0:0:0:
236,104,198394,1,0,0:0:0:0:
216,239,198554,6,0,L|218:297,1,45
418,113,198872,2,0,L|253:120,1,157.5
216,188,199192,2,0,L|401:283,1,187.5
420,276,199511,2,0,L|200:360,1,225.000008583069
228,368,199830,2,0,B|216:332|232:300|232:300|216:256|252:184|252:184|224:124|164:116|120:164|120:164,1,337.5
156,176,201107,6,0,P|102:205|140:104,1,251.999992309571
140,136,202064,1,0,0:0:0:0:
168,232,202384,2,0,L|156:328,1,90
140,136,202703,1,0,0:0:0:0:
224,264,202862,2,0,L|212:360,1,90
140,136,203181,1,0,0:0:0:0:
280,292,203341,2,0,L|268:388,1,90
308,212,203660,6,0,P|400:188|488:216,1,180
280,292,204139,1,0,0:0:0:0:
312,104,204298,1,0,0:0:0:0:
396,272,204458,1,0,0:0:0:0:
232,176,204618,2,0,L|143:189,1,90
104,260,204937,6,0,P|152:180|80:132,1,180
232,264,205416,1,0,0:0:0:0:
232,264,205495,1,0,0:0:0:0:
232,264,205575,2,0,L|344:280,1,90
321,107,205894,2,0,L|232:120,1,90
348,192,206213,6,0,L|367:13,1,180
376,216,206692,1,0,0:0:0:0:
376,216,206772,1,0,0:0:0:0:
376,216,206852,2,0,L|465:228,1,90
296,176,207171,2,0,P|275:222|283:265,1,90
368,312,207490,6,0,B|361:315|412:296|412:296|272:256,1,180
192,304,207969,1,0,0:0:0:0:
260,136,208128,1,0,0:0:0:0:
96,136,208288,1,0,0:0:0:0:
260,248,208447,1,0,0:0:0:0:
360,80,208607,1,0,0:0:0:0:
252,209,208767,1,0,0:0:0:0:
252,209,209086,6,0,L|281:39,1,135
294,33,209405,2,0,L|120:91,1,168.75
78,84,209724,2,0,L|243:222,1,202.500007724762
272,240,210043,6,0,B|268:192|268:192|288:96,1,135
264,68,210362,6,0,B|222:75|222:75|174:71,1,90
356,208,210602,1,0,0:0:0:0:
356,208,210681,6,0,B|397:200|397:200|445:204,1,90
224,280,211001,2,0,P|208:232|212:180,1,90
324,77,211320,1,0,0:0:0:0:
356,208,211479,1,0,0:0:0:0:
208,192,211639,2,0,P|151:201|108:192,1,90
280,233,211958,2,0,P|316:278|330:320,1,90
280,150,212277,2,0,P|300:96|330:63,1,90
280,236,212596,6,0,P|216:256|112:192,1,180
188,168,213075,1,0,0:0:0:0:
151,318,213394,1,0,0:0:0:0:
224,264,213554,2,0,L|332:268,1,90
396,304,213873,2,0,L|219:338,1,180
392,212,214352,1,0,0:0:0:0:
432,292,214511,6,0,L|447:380,1,90
461,154,214830,2,0,L|376:184,1,90
276,276,215150,2,0,P|244:200|288:104,1,180
186,183,215628,1,0,0:0:0:0:
327,108,215788,2,0,P|372:99|416:105,1,90
324,200,216107,1,0,0:0:0:0:
176,124,216267,2,0,L|150:302,1,180
244,296,216745,6,0,L|232:168,1,90
328,108,216985,1,0,0:0:0:0:
328,108,217064,6,0,L|319:197,1,90
384,316,217304,1,0,0:0:0:0:
384,316,217384,6,0,L|384:236,1,45
268,155,217543,6,0,L|268:200,1,45
388,128,217703,2,0,L|396:28,1,90
296,96,218022,1,0,0:0:0:0:
392,128,218181,1,0,0:0:0:0:
248,180,218341,2,0,L|158:176,1,90
280,212,218660,5,0,0:0:0:0:
312,116,218820,1,0,0:0:0:0:
364,260,218979,2,0,L|360:349,1,90
193,186,219298,2,0,L|289:214,1,90
66,189,219618,1,0,0:0:0:0:
98,93,219777,1,0,0:0:0:0:
150,237,219937,6,0,L|146:326,1,90
224,164,220256,2,0,P|152:212|52:176,1,180
92,112,220735,2,0,L|92:292,1,180
224,164,221213,2,0,L|224:74,1,90
136,216,221533,6,0,P|312:211|124:140,1,540
224,164,224086,6,0,B|232:225|232:225|208:296,1,125.999996154785
176,336,224564,1,0,0:0:0:0:
176,336,224724,2,0,B|252:312|308:344,1,125.999996154785
352,308,225203,1,0,0:0:0:0:
400,228,225362,2,0,P|404:197|397:166,1,62.9999980773926
332,100,225681,2,0,P|328:68|336:36,1,62.9999980773926
278,168,226001,6,0,P|218:186|160:166,1,125.999996154785
220,92,226479,1,0,0:0:0:0:
278,168,226639,2,0,B|293:226|293:226|277:290,1,125.999996154785
220,92,227277,1,0,0:0:0:0:
208,192,227596,2,0,L|196:268,2,62.9999980773926
128,96,228235,2,0,L|118:33,2,62.9999980773926
84,212,228873,2,0,L|74:274,2,62.9999980773926
132,100,229511,5,0,0:0:0:0:
209,205,229830,1,0,0:0:0:0:
253,21,230150,1,0,0:0:0:0:
281,273,230469,5,0,0:0:0:0:
156,44,230788,1,0,0:0:0:0:
57,362,231107,1,0,0:0:0:0:
256,24,231426,1,0,0:0:0:0:
454,362,231742,1,0,0:0:0:0:
416,332,233046,1,0,0:0:0:0:
384,292,234350,1,0,0:0:0:0:
256,192,234513,12,0,236307,0:0:0:0:
305,112,236633,6,0,P|279:111|229:124,1,45
327,210,236793,2,0,P|352:211|402:198,1,45
457,171,236952,2,0,P|471:237|450:268,1,90
327,210,237271,2,0,P|313:143|334:113,1,90
372,52,237591,1,0,0:0:0:0:
460,172,237750,1,0,0:0:0:0:
321,126,237910,6,0,L|213:134,1,90
150,190,238229,1,0,0:0:0:0:
270,278,238388,1,0,0:0:0:0:
231,132,238548,1,0,0:0:0:0:
172,304,238708,1,0,0:0:0:0:
172,304,238787,1,0,0:0:0:0:
172,304,238867,6,0,L|82:300,1,90
272,212,239186,2,0,L|361:215,1,90
188,320,239505,2,0,P|141:226|213:157,1,180
260,156,239984,1,0,0:0:0:0:
224,240,240144,6,0,L|44:229,1,180
144,148,240623,1,0,0:0:0:0:
308,216,240782,1,0,0:0:0:0:
296,128,240942,1,0,0:0:0:0:
296,128,241101,2,0,L|307:38,1,90
392,180,241420,2,0,L|395:269,1,90
279,318,241740,5,0,0:0:0:0:
275,274,241819,1,0,0:0:0:0:
271,230,241899,1,0,0:0:0:0:
267,186,241979,1,0,0:0:0:0:
263,142,242059,1,0,0:0:0:0:
264,148,242378,5,0,0:0:0:0:
264,148,242537,2,0,L|280:328,1,180
279,327,243016,1,0,0:0:0:0:
148,76,243335,1,0,0:0:0:0:
352,100,243495,1,0,0:0:0:0:
184,200,243654,1,0,0:0:0:0:
260,24,243814,1,0,0:0:0:0:
296,216,243974,6,0,L|304:306,1,90
115,200,244293,2,0,L|123:110,1,90
248,56,244612,5,0,0:0:0:0:
248,56,244771,1,0,0:0:0:0:
356,104,244931,1,0,0:0:0:0:
356,104,245091,1,0,0:0:0:0:
235,212,245250,5,0,0:0:0:0:
232,233,245330,1,0,0:0:0:0:
228,255,245410,1,0,0:0:0:0:
224,276,245490,1,0,0:0:0:0:
221,297,245569,1,0,0:0:0:0:
217,318,245649,1,0,0:0:0:0:
213,339,245729,1,0,0:0:0:0:
168,93,245888,5,0,0:0:0:0:
232,233,246048,1,0,0:0:0:0:
284,104,246208,2,0,L|308:224,1,90
148,228,246527,2,0,L|24:240,2,90
224,276,247005,1,0,0:0:0:0:
256,192,247164,12,0,256420,0:0:0:0:
