osu file format v14

[General]
AudioFilename: audio.mp3
AudioLeadIn: 0
PreviewTime: 198350
Countdown: 0
SampleSet: Soft
StackLeniency: 0.7
Mode: 0
LetterboxInBreaks: 0
WidescreenStoryboard: 1

[Editor]
Bookmarks: 2154,7100,17473,27685,37898,43005,48111,53217,58324,68536,73643,78749,83856,94068,104281,114494,119600,124707,129813,134919,145132,150239,152792,168111,177685,187898,199387,201940,204493,209600,217259,221089,228749
DistanceSpacing: 1
BeatDivisor: 4
GridSize: 32
TimelineZoom: 2.7

[Metadata]
Title:Dear Brave
TitleUnicode:ディアブレイブ
Artist:Kano
ArtistUnicode:鹿乃
Creator:Kowari
Version:Normal
Source:ヘヴィーオブジェクト
Tags:heavy object ed ending nowhere japanese j-pop jpop pop female vocal singer utaite anime
BeatmapID:2684032
BeatmapSetID:1293358

[Difficulty]
HPDrainRate:3
CircleSize:3
OverallDifficulty:4
ApproachRate:5
SliderMultiplier:1.1
SliderTickRate:1

[Events]
//Background and Video events
0,0,"bg.jpg",0,0
//Break Periods
2,17673,26485
2,177885,186698
//Storyboard Layer 0 (Background)
//Storyboard Layer 1 (Fail)
//Storyboard Layer 2 (Pass)
//Storyboard Layer 3 (Foreground)
//Storyboard Layer 4 (Overlay)
//Storyboard Sound Samples

[TimingPoints]
2154,319.148936170213,4,2,1,60,1,0
5824,-111.111111111111,4,2,1,50,0,0
7100,-100,4,2,1,70,0,0
17473,-100,4,2,1,45,0,0
27685,-111.111111111111,4,2,1,60,0,0
37898,-111.111111111111,4,2,1,65,0,0
43005,-111.111111111111,4,2,1,55,0,0
48111,-111.111111111111,4,2,1,65,0,0
53217,-111.111111111111,4,2,1,70,0,0
58324,-100,4,2,1,80,0,1
73643,-111.111111111111,4,2,1,70,0,0
78749,-111.111111111111,4,2,1,55,0,0
79388,-111.111111111111,4,2,1,63,0,0
80026,-111.111111111111,4,2,1,70,0,0
80664,-111.111111111111,4,2,1,80,0,0
81302,-111.111111111111,4,2,1,60,0,0
83856,-100,4,2,1,70,0,0
94068,-111.111111111111,4,2,1,60,0,0
105398,-111.111111111111,4,2,1,65,0,0
119600,-99.9999999999999,4,2,1,65,0,0
124707,-111.111111111111,4,2,1,60,0,0
129813,-111.111111111111,4,2,1,70,0,0
132366,-111.111111111111,4,2,1,60,0,0
133005,-111.111111111111,4,2,1,65,0,0
133643,-111.111111111111,4,2,1,70,0,0
134919,-100,4,2,1,80,0,1
150239,-111.111111111111,4,2,1,70,0,0
152792,-100,4,2,1,70,0,0
168111,319.148936170213,7,2,1,60,1,0
168111,-111.111111111111,7,2,1,60,0,0
172579,319.148936170213,4,2,1,80,1,0
187898,-111.111111111111,4,2,1,60,0,0
190451,-111.111111111111,4,2,1,65,0,0
193004,-111.111111111111,4,2,1,70,0,0
199387,-111.111111111111,4,2,1,60,0,0
201940,-100,4,2,1,80,0,1
204493,-111.111111111111,4,2,1,60,0,0
206886,-111.111111111111,4,2,1,70,0,0
209600,-100,4,2,1,80,0,1
221089,-100,4,2,1,60,0,0
223642,-111.111111111111,4,2,1,70,0,0
228749,-111.111111111111,4,2,1,55,0,0
229387,-111.111111111111,4,2,1,63,0,0
230025,-111.111111111111,4,2,1,70,0,0
230664,-111.111111111111,4,2,1,80,0,0
231302,328.767123287671,4,2,1,60,1,0
235247,-111.111111111111,4,2,1,60,0,0
236192,319.148936170213,4,2,1,70,1,0
236511,319.148936170213,4,2,1,70,1,0
246564,-100,4,2,1,50,0,0
249276,-100,4,2,1,35,0,0
251830,-100,4,2,1,20,0,0
253106,-100,4,2,1,5,0,0

[Colours]
Combo1 : 192,192,192
Combo2 : 223,223,0
Combo3 : 255,255,149
Combo4 : 128,128,255
Combo5 : 166,166,210
Combo6 : 0,223,223
Combo7 : 149,255,255
Combo8 : 128,128,128

[HitObjects]
33,28,5824,102,0,B|180:9|126:105|277:82,1,247.5,2|0,2:0|3:0,2:0:0:0:
418,21,7100,54,0,L|407:139,1,110,6|0,1:2|1:0,2:0:0:0:
403,185,7579,1,10,2:0:0:0:
387,293,7898,1,2,1:0:0:0:
387,293,8058,2,0,L|328:285,1,55,10|10,2:3|2:0,2:0:0:0:
280,268,8377,2,0,L|169:279,1,110,2|0,1:2|1:0,2:0:0:0:
116,289,8856,1,10,2:0:0:0:
25,226,9175,2,0,L|34:161,1,55,2|10,1:0|2:3,2:0:0:0:
37,116,9494,1,10,2:0:0:0:
37,116,9654,5,6,1:2:0:0:
116,39,9973,1,4,1:2:0:0:
182,126,10292,1,4,1:2:0:0:
252,41,10611,1,4,1:2:0:0:
329,119,10930,102,0,B|348:172|348:172|322:236,1,110,4|0,1:2|1:0,2:0:0:0:
290,262,11409,2,0,L|227:252,1,55,8|8,2:0|2:0,2:0:0:0:
181,243,11728,1,8,2:3:0:0:
135,345,12047,5,8,2:0:0:0:
135,345,12207,2,0,L|261:369,1,110,12|0,2:0|1:0,2:0:0:0:
294,383,12685,1,12,2:0:0:0:
393,336,13005,1,0,1:0:0:0:
393,336,13164,2,0,P|417:291|402:222,1,110,12|0,2:0|1:0,2:0:0:0:
369,196,13643,1,12,2:0:0:0:
385,87,13962,101,0,1:0:0:0:
385,87,14122,2,0,L|315:73,1,55,8|8,2:0|2:0,2:0:0:0:
276,68,14441,1,8,2:0:0:0:
167,47,14760,5,4,1:3:0:0:
167,47,14919,2,0,P|140:88|146:157,1,110,12|0,2:0|1:0,2:0:0:0:
180,185,15398,1,12,2:0:0:0:
209,295,15717,1,0,1:0:0:0:
209,295,15877,2,0,L|93:275,1,110,12|0,2:0|1:0,2:0:0:0:
46,266,16356,1,12,2:0:0:0:
18,108,16834,1,8,1:2:0:0:
18,108,16994,1,8,1:2:0:0:
143,28,17473,37,6,3:2:0:0:
451,27,27685,54,0,L|437:136,1,99.0000000000001,4|2,1:2|1:0,2:0:0:0:
432,174,28164,1,2,2:0:0:0:
421,272,28483,1,2,2:0:0:0:
357,347,28802,2,0,P|299:353|256:325,1,99.0000000000001,2|2,2:0|2:0,2:0:0:0:
246,288,29281,1,2,1:0:0:0:
246,288,29441,2,0,L|268:176,1,99.0000000000001,2|0,2:0|2:0,2:0:0:0:
276,142,29919,1,2,1:0:0:0:
295,44,30239,6,0,P|253:23|190:37,1,99.0000000000001,2|0,1:0|1:0,2:0:0:0:
169,66,30717,1,2,2:0:0:0:
73,39,31036,1,2,2:0:0:0:
10,116,31356,2,0,L|19:220,1,99.0000000000001,2|2,2:0|2:0,2:0:0:0:
116,200,31994,2,0,L|125:304,1,99.0000000000001,2|0,2:0|2:0,2:0:0:0:
133,347,32473,1,2,1:0:0:0:
229,370,32792,102,0,P|282:363|325:317,1,99.0000000000001,6|2,1:2|1:0,2:0:0:0:
323,285,33271,1,2,2:0:0:0:
246,222,33590,2,0,L|230:109,1,99.0000000000001,2|0,2:0|2:0,2:0:0:0:
231,74,34068,2,0,B|278:51|278:51|343:60,1,99.0000000000001,2|2,1:0|1:0,2:0:0:0:
407,111,34707,2,0,B|430:158|430:158|421:223,1,99.0000000000001,2|0,1:0|1:0,2:0:0:0:
365,284,35345,6,0,L|254:272,1,99.0000000000001,2|2,1:0|1:0,2:0:0:0:
182,326,35983,2,0,L|83:315,1,99.0000000000001,2|2,1:0|1:0,2:0:0:0:
34,310,36462,1,2,2:0:0:0:
34,310,36622,1,0,1:0:0:0:
9,214,36941,1,2,1:0:0:0:
96,168,37260,2,0,L|106:104,1,49.5000000000001,2|0,1:0|3:0,2:0:0:0:
112,70,37579,1,2,1:0:0:0:
195,14,37898,101,8,2:0:0:0:
195,14,38058,2,0,P|267:0|347:41,1,148.5,8|2,2:0|1:0,2:0:0:0:
396,105,38856,1,2,1:0:0:0:
450,193,39175,1,8,2:0:0:0:
450,193,39334,2,0,P|464:265|423:345,1,148.5,8|2,2:0|1:0,2:0:0:0:
339,357,40132,1,2,1:0:0:0:
269,294,40451,5,8,2:0:0:0:
269,294,40611,2,0,L|104:276,1,148.5,8|0,2:0|1:0,2:0:0:0:
22,267,41409,1,2,1:0:0:0:
39,173,41728,1,8,2:0:0:0:
39,173,41888,2,0,L|186:189,1,148.5,8|0,2:0|1:0,2:0:0:0:
285,184,42685,2,0,L|291:119,1,49.5000000000001,2|0,1:0|3:0,2:0:0:0:
302,86,43005,38,0,P|393:112|420:203,2,198,4|2|2,1:2|2:0|2:0,2:0:0:0:
219,140,44600,1,2,2:0:0:0:
161,59,44919,2,0,L|51:46,1,99.0000000000001,2|2,3:0|2:0,2:0:0:0:
10,132,45558,6,0,B|-14:235|73:219|28:337,1,198,2|2,2:0|2:0,2:0:0:0:
119,372,46515,1,2,2:0:0:0:
188,302,46834,2,0,L|290:292,1,99.0000000000001,0|0,3:0|3:0,2:0:0:0:
370,345,47473,1,2,2:0:0:0:
448,285,47792,2,0,L|442:224,1,49.5000000000001,8|8,2:0|2:0,2:0:0:0:
442,186,48111,38,0,P|455:142|434:80,1,99.0000000000001,4|10,1:2|2:0,2:0:0:0:
370,23,48749,2,0,L|310:30,1,49.5000000000001,2|0,1:0|1:0,2:0:0:0:
271,35,49068,1,10,2:0:0:0:
172,48,49388,2,0,P|158:91|180:154,1,99.0000000000001,0|10,1:0|2:0,2:0:0:0:
265,172,50026,2,0,L|258:242,1,49.5000000000001,2|0,1:0|1:0,2:0:0:0:
254,270,50345,1,10,2:0:0:0:
244,368,50664,6,0,L|137:354,1,99.0000000000001,0|10,1:0|2:0,2:0:0:0:
48,337,51302,2,0,P|48:302|59:270,1,49.5000000000001,0|0,1:0|1:0,2:0:0:0:
79,247,51622,1,10,2:0:0:0:
172,213,51941,2,0,L|159:100,1,99.0000000000001,0|10,1:0|2:0,2:0:0:0:
155,65,52419,2,0,P|201:42|263:56,1,99.0000000000001,2|0,2:0|1:0,2:0:0:0:
289,72,52898,1,8,2:0:0:0:
383,43,53217,102,0,L|369:157,1,99.0000000000001,12|0,2:0|1:0,2:0:0:0:
406,175,53696,2,0,L|392:289,1,99.0000000000001,12|0,2:0|1:0,2:0:0:0:
388,322,54175,1,12,2:0:0:0:
298,364,54494,1,0,1:0:0:0:
298,364,54654,2,0,P|237:368|191:335,1,99.0000000000001,12|0,2:0|1:0,2:0:0:0:
183,306,55132,2,0,L|197:235,1,49.5000000000001,12|8,2:0|2:0,2:0:0:0:
215,213,55451,2,0,L|205:164,1,49.5000000000001,8|8,2:0|2:0,2:0:0:0:
193,115,55771,5,4,1:2:0:0:
237,26,56090,2,0,L|298:15,1,49.5000000000001,8|8,1:2|1:2,2:0:0:0:
317,55,56409,2,0,L|365:63,1,49.5000000000001,8|8,1:2|1:2,2:0:0:0:
402,97,56728,2,0,L|450:88,1,49.5000000000001,8|8,1:2|1:2,2:0:0:0:
499,79,57047,1,4,1:2:0:0:
484,349,58324,70,0,B|430:365|430:365|371:345,1,110,6|8,1:2|2:0,2:0:0:0:
297,273,58962,2,0,L|308:207,1,55,0|8,1:0|2:3,2:0:0:0:
342,177,59281,2,0,L|331:111,1,55,10|2,2:0|2:0,2:0:0:0:
324,68,59600,2,0,P|281:43|211:56,1,110,0|8,1:0|2:0,2:0:0:0:
153,134,60239,2,0,L|85:117,1,55,2|8,1:0|2:3,2:0:0:0:
49,98,60558,1,10,2:0:0:0:
3,198,60877,6,0,L|15:311,1,110,6|8,1:2|2:0,2:0:0:0:
27,361,61356,1,2,2:0:0:0:
122,306,61675,2,0,L|194:296,1,55,10|8,2:3|2:0,2:0:0:0:
231,290,61994,1,2,1:0:0:0:
231,290,62154,1,2,2:0:0:0:
316,358,62473,1,8,2:0:0:0:
381,269,62792,2,0,L|375:198,1,55,2|8,1:0|2:3,2:0:0:0:
335,177,63111,2,0,L|341:106,1,55,10|2,2:0|1:0,2:0:0:0:
352,68,63430,101,4,1:2:0:0:
454,26,63749,1,10,2:0:0:0:
454,26,63909,2,0,P|474:72|464:138,1,110,2|10,2:0|2:3,2:0:0:0:
431,172,64388,1,8,2:0:0:0:
475,272,64707,2,0,L|346:257,1,110,4|10,1:2|2:0,2:0:0:0:
311,252,65185,1,2,2:0:0:0:
244,340,65505,1,8,2:3:0:0:
244,340,65664,2,0,L|175:352,1,55,10|4,2:0|2:3,2:0:0:0:
135,360,65983,5,12,2:0:0:0:
44,297,66302,1,8,2:0:0:0:
43,186,66622,1,12,2:0:0:0:
144,144,66941,2,0,L|201:153,1,55,8|0,2:0|1:0,2:0:0:0:
244,183,67260,2,0,P|259:136|243:69,1,110,12|8,2:0|2:0,2:0:0:0:
165,4,67898,1,12,2:0:0:0:
56,18,68217,1,8,2:0:0:0:
8,117,68536,102,0,B|-1:177|-1:177|22:230,1,110,4|8,1:2|2:0,2:0:0:0:
91,304,69175,2,0,L|166:291,1,55,2|10,1:0|2:3,2:0:0:0:
193,267,69494,2,0,L|247:276,1,55,10|2,2:0|2:0,2:0:0:0:
299,293,69813,2,0,L|421:277,1,110,0|8,1:0|2:0,2:0:0:0:
487,202,70451,2,0,P|491:164|482:132,1,55,2|8,1:0|2:3,2:0:0:0:
458,100,70771,1,10,2:0:0:0:
378,23,71090,6,0,P|321:14|263:54,1,110,14|2,2:0|1:0,2:0:0:0:
238,77,71568,2,0,P|229:134|269:192,1,110,14|2,2:0|1:0,2:0:0:0:
305,192,72047,2,0,L|299:261,1,55,10|10,2:0|2:0,2:0:0:0:
297,301,72366,1,4,1:2:0:0:
199,352,72685,1,8,2:0:0:0:
94,317,73005,2,0,L|103:252,1,55,10|8,1:3|2:3,2:0:0:0:
73,215,73324,2,0,L|64:150,1,55,6|6,1:3|2:3,2:0:0:0:
60,111,73643,70,0,P|105:80|167:96,1,99.0000000000001,4|2,1:2|2:0,2:0:0:0:
188,111,74122,1,2,1:0:0:0:
188,111,74281,1,8,2:0:0:0:
208,207,74600,2,0,L|272:192,1,49.5000000000001,10|10,2:3|2:0,2:0:0:0:
304,185,74919,2,0,P|330:215|328:286,1,99.0000000000001,4|2,1:2|1:0,2:0:0:0:
267,346,75558,1,8,2:0:0:0:
359,382,75877,2,0,L|424:368,1,49.5000000000001,8|8,2:3|2:0,2:0:0:0:
456,363,76196,6,0,B|471:312|471:312|451:260,1,99.0000000000001,4|0,1:2|2:0,2:0:0:0:
424,229,76675,1,0,1:0:0:0:
424,229,76834,1,8,2:0:0:0:
447,132,77154,2,0,L|461:70,1,49.5000000000001,8|8,2:3|2:0,2:0:0:0:
468,35,77473,2,0,P|434:14|367:27,1,99.0000000000001,4|0,1:2|1:0,2:0:0:0:
344,57,77951,1,0,1:3:0:0:
344,57,78111,1,8,2:0:0:0:
321,153,78430,2,0,L|263:144,1,49.5000000000001,8|8,2:3|2:0,2:0:0:0:
231,116,78749,102,0,L|123:130,1,99.0000000000001,4|0,1:2|1:0,2:0:0:0:
108,225,79388,2,0,L|206:212,1,99.0000000000001,8|8,1:3|1:3,2:0:0:0:
289,265,80026,2,0,P|276:320|297:372,1,99.0000000000001,8|8,1:2|1:2,2:0:0:0:
387,358,80664,2,0,P|400:303|379:251,1,99.0000000000001,8|12,1:2|1:2,2:0:0:0:
336,179,81302,5,4,1:2:0:0:
89,275,82579,1,4,1:2:0:0:
139,28,83856,38,0,L|255:44,1,110,6|8,1:2|2:0,2:0:0:0:
289,78,84334,2,0,L|402:61,1,110,2|0,1:0|1:0,2:0:0:0:
452,51,84813,1,10,2:0:0:0:
510,150,85132,1,2,1:0:0:0:
510,150,85292,2,0,P|513:200|479:264,1,110,2|2,1:0|3:0,2:0:0:0:
433,259,85771,1,2,1:0:0:0:
366,171,86090,1,10,2:0:0:0:
260,203,86409,6,0,L|273:315,1,110,6|8,1:2|2:0,2:0:0:0:
288,370,86888,1,0,1:0:0:0:
288,370,87047,2,0,P|238:382|166:355,1,110,2|8,2:0|2:0,2:0:0:0:
123,274,87685,1,2,1:0:0:0:
184,182,88005,2,0,L|189:116,1,55,8|2,2:0|1:0,2:0:0:0:
240,110,88324,2,0,L|235:44,1,55,2|2,2:0|1:0,2:0:0:0:
230,0,88643,1,10,2:0:0:0:
120,5,88962,102,0,P|88:27|62:98,1,110,6|8,1:2|2:0,2:0:0:0:
24,132,89441,2,0,P|46:176|101:208,1,110,2|0,1:0|1:0,2:0:0:0:
150,201,89919,1,10,2:0:0:0:
255,162,90239,1,2,1:0:0:0:
255,162,90398,2,0,L|374:147,1,110,2|2,1:0|1:0,2:0:0:0:
418,136,90877,1,2,2:0:0:0:
496,212,91196,2,0,L|488:271,1,55,10|0,2:0|2:0,2:0:0:0:
481,321,91515,5,12,2:0:0:0:
388,380,91834,1,8,2:0:0:0:
305,306,92154,1,8,2:0:0:0:
219,375,92473,1,8,2:0:0:0:
134,304,92792,2,0,L|128:249,1,55,8|8,2:0|1:2,2:0:0:0:
80,220,93111,2,0,L|88:155,1,55,8|8,1:2|1:2,2:0:0:0:
118,121,93430,1,2,3:0:0:0:
118,121,93590,2,0,L|112:56,1,55,0|14,1:0|2:0,0:0:0:0:
205,30,94068,38,0,P|227:84|215:136,1,99.0000000000001,6|2,1:2|1:0,2:0:0:0:
207,170,94547,1,2,2:0:0:0:
277,239,94866,1,2,2:0:0:0:
361,186,95185,2,0,L|462:208,1,99.0000000000001,2|0,2:0|2:0,2:0:0:0:
509,224,95664,1,2,1:0:0:0:
509,224,95824,1,2,2:0:0:0:
506,323,96143,1,2,2:0:0:0:
418,368,96462,5,2,2:0:0:0:
418,368,96622,2,0,L|321:346,1,99.0000000000001,2|2,1:0|1:0,2:0:0:0:
273,332,97100,1,2,2:0:0:0:
183,373,97419,1,2,2:0:0:0:
96,325,97739,2,0,P|83:277|99:220,1,99.0000000000001,2|0,2:0|2:0,2:0:0:0:
133,200,98217,1,0,1:0:0:0:
133,200,98377,2,0,L|231:207,1,99.0000000000001,2|2,2:0|2:0,2:0:0:0:
280,213,98856,1,2,1:0:0:0:
369,255,99175,102,0,B|384:205|384:205|367:146,1,99.0000000000001,6|2,2:0|1:0,2:0:0:0:
347,116,99654,2,0,L|236:106,1,99.0000000000001,2|0,2:0|2:0,2:0:0:0:
199,105,100132,1,2,1:0:0:0:
116,50,100451,2,0,P|94:98|107:164,1,99.0000000000001,2|2,1:0|1:0,2:0:0:0:
124,184,100930,1,2,2:0:0:0:
89,276,101249,1,2,2:0:0:0:
164,340,101568,5,2,2:0:0:0:
164,340,101728,2,0,L|262:350,1,99.0000000000001,2|2,1:0|1:0,2:0:0:0:
311,353,102207,2,0,P|330:306|322:254,1,99.0000000000001,2|2,2:0|2:0,2:0:0:0:
255,195,102845,1,2,2:0:0:0:
255,195,103005,1,0,1:0:0:0:
253,95,103324,1,0,1:0:0:0:
339,46,103643,1,0,1:0:0:0:
416,106,103962,2,0,L|464:98,1,49.5000000000001,2|10,1:0|2:0,2:0:0:0:
512,86,104281,101,6,1:2:0:0:
452,323,105079,1,2,1:2:0:0:
357,353,105398,2,0,L|239:337,1,99.0000000000001,6|10,1:2|2:3,2:0:0:0:
210,328,105877,1,10,2:0:0:0:
210,328,106036,2,0,P|202:278|226:229,1,99.0000000000001,2|0,2:0|2:0,2:0:0:0:
264,211,106515,1,10,2:0:0:0:
361,229,106834,54,0,L|374:120,1,99.0000000000001,2|10,1:0|2:0,2:0:0:0:
377,81,107313,2,0,P|339:62|270:77,1,99.0000000000001,2|2,2:0|2:0,2:0:0:0:
213,137,107951,1,2,0:0:0:0:
125,91,108271,2,0,L|76:98,1,49.5000000000001,2|10,2:0|2:0,2:0:0:0:
26,105,108590,2,0,P|11:141|27:207,1,99.0000000000001,2|0,2:0|3:0,2:0:0:0:
59,229,109068,1,10,2:0:0:0:
136,291,109388,6,0,L|239:282,1,99.0000000000001,2|10,1:0|2:0,2:0:0:0:
283,281,109866,1,2,2:0:0:0:
363,339,110185,1,2,2:0:0:0:
432,267,110505,2,0,P|445:232|432:167,1,99.0000000000001,2|0,2:0|2:0,2:0:0:0:
399,138,110983,1,8,2:0:0:0:
300,137,111302,2,0,P|287:102|300:37,1,99.0000000000001,2|8,1:0|2:0,2:0:0:0:
340,17,111781,1,2,2:0:0:0:
340,17,111941,2,0,L|406:26,1,49.5000000000001,2|2,1:0|2:0,2:0:0:0:
438,28,112260,101,8,2:0:0:0:
496,107,112579,1,0,1:0:0:0:
407,151,112898,1,8,0:0:0:0:
470,227,113217,2,0,L|467:292,1,49.4999984893799,0|0,1:0|1:0,0:0:0:0:
463,325,113536,1,8,2:0:0:0:
373,367,113856,2,0,L|309:356,1,49.5000000000001,0|0,1:0|1:0,2:0:0:0:
279,336,114175,2,0,L|230:344,1,49.5000000000001,8|0,2:0|2:0,2:0:0:0:
182,356,114494,5,4,1:2:0:0:
93,310,114813,2,0,P|86:277|91:240,1,49.5000000000001,10|2,2:0|1:0,2:0:0:0:
113,220,115132,2,0,L|99:108,1,99.0000000000001,2|10,1:0|2:0,2:0:0:0:
89,73,115611,1,2,2:0:0:0:
174,23,115930,1,0,1:0:0:0:
174,23,116090,2,0,L|232:15,1,49.5000000000001,10|2,2:0|1:0,2:0:0:0:
272,12,116409,2,0,P|286:48|282:115,1,99.0000000000001,2|10,1:0|2:0,2:0:0:0:
247,140,116888,1,2,2:0:0:0:
213,233,117207,101,0,1:0:0:0:
213,233,117366,2,0,L|225:291,1,49.5000000000001,10|2,2:0|1:0,2:0:0:0:
238,328,117685,2,0,B|289:337|289:337|341:307,1,99.0000000000001,0|10,1:0|2:0,2:0:0:0:
368,281,118164,1,10,2:0:0:0:
463,306,118483,1,0,1:0:0:0:
463,306,118643,2,0,L|473:248,1,49.5000000000001,10|2,2:0|2:3,2:0:0:0:
494,213,118962,2,0,L|484:155,1,49.5000000000001,0|0,1:0|1:0,2:0:0:0:
473,116,119281,1,10,2:0:0:0:
436,12,119600,6,0,P|393:24|351:93,1,110,14|10,2:0|2:0,2:0:0:0:
354,129,120079,2,0,L|242:113,1,110,2|10,2:0|2:0,2:0:0:0:
164,47,120717,1,2,1:0:0:0:
164,47,120877,2,0,B|132:93|132:93|144:153,1,110,8|2,2:0|1:0,2:0:0:0:
182,248,121515,2,0,L|165:312,1,55.0000000000001,2|0,1:0|1:0,2:0:0:0:
155,354,121834,1,10,2:0:0:0:
45,362,122154,102,0,P|19:326|20:251,1,110,2|8,1:0|2:0,2:0:0:0:
36,211,122632,1,2,1:0:0:0:
36,211,122792,2,0,L|54:84,1,110,2|2,1:0|1:0,2:0:0:0:
61,47,123271,1,2,1:0:0:0:
61,47,123430,1,12,2:0:0:0:
161,1,123749,2,0,L|232:17,1,55.0000000000001,0|8,1:0|2:0,2:0:0:0:
267,29,124068,1,4,1:2:0:0:
309,130,124388,1,8,2:0:0:0:
400,92,124707,54,0,P|407:138|380:198,1,99.0000000000001,4|2,1:2|1:0,2:0:0:0:
417,281,125345,2,0,P|371:288|311:261,1,99.0000000000001,2|2,1:0|1:0,2:0:0:0:
300,225,125824,1,2,2:0:0:0:
300,225,125983,2,0,P|248:208|199:217,1,99.0000000000001,0|2,1:0|1:0,2:0:0:0:
120,158,126622,2,0,P|103:210|112:259,1,99.0000000000001,2|2,1:0|1:0,2:0:0:0:
141,290,127100,1,2,2:0:0:0:
141,290,127260,1,0,1:0:0:0:
216,353,127579,6,0,L|280:347,1,49.5000000000001,2|2,1:0|2:0,2:0:0:0:
314,342,127898,1,0,1:0:0:0:
380,268,128217,2,0,L|444:274,1,49.5000000000001,2|2,1:0|2:0,2:0:0:0:
478,267,128536,2,0,P|496:217|485:158,1,99.0000000000001,0|2,1:0|1:2,2:0:0:0:
464,130,129015,1,2,2:0:0:0:
409,47,129334,1,0,1:0:0:0:
409,47,129494,2,0,L|337:58,1,49.5000000000001,8|2,2:0|2:0,2:0:0:0:
311,62,129813,37,6,1:2:0:0:
222,18,130132,1,8,1:2:0:0:
162,97,130451,2,0,L|173:168,1,49.5000000000001,8|8,1:2|2:0,2:0:0:0:
211,172,130771,2,0,L|200:243,1,49.5000000000001,8|8,1:2|2:0,2:0:0:0:
193,269,131090,1,8,1:2:0:0:
161,362,131409,1,8,1:2:0:0:
161,362,131568,2,0,P|109:369|65:337,1,99.0000000000001,8|8,2:0|2:0,2:0:0:0:
47,301,132047,1,8,1:2:0:0:
92,213,132366,5,4,1:2:0:0:
274,290,133005,1,12,1:2:0:0:
353,108,133643,1,4,1:2:0:0:
171,31,134281,1,6,1:2:0:0:
31,201,134919,70,0,P|83:186|144:205,1,110,6|8,1:2|2:0,2:0:0:0:
174,302,135558,2,0,L|240:313,1,55,0|8,1:0|2:3,2:0:0:0:
271,276,135877,2,0,L|337:265,1,55,10|2,2:0|2:0,2:0:0:0:
379,254,136196,2,0,B|386:197|386:197|355:146,1,110,0|8,1:0|2:0,2:0:0:0:
248,147,136834,2,0,L|244:67,1,55,2|8,1:0|2:3,2:0:0:0:
243,36,137154,1,10,2:0:0:0:
133,43,137473,6,0,P|83:60|55:117,1,110,2|10,1:0|2:0,2:0:0:0:
61,162,137951,1,2,2:0:0:0:
62,271,138271,2,0,L|134:281,1,55,10|8,2:3|2:0,2:0:0:0:
174,293,138590,1,2,1:0:0:0:
174,293,138749,1,0,1:0:0:0:
257,364,139068,1,8,2:0:0:0:
310,267,139388,2,0,L|304:196,1,55,2|8,1:0|2:3,2:0:0:0:
264,175,139707,2,0,L|270:104,1,55,10|8,2:0|2:0,2:0:0:0:
271,64,140026,101,4,1:2:0:0:
369,12,140345,1,10,2:0:0:0:
369,12,140505,2,0,B|424:0|424:0|498:24,1,110,2|10,2:0|2:3,2:0:0:0:
507,60,140983,1,8,2:0:0:0:
416,122,141302,2,0,P|388:173|396:241,1,110,2|10,1:0|2:0,2:0:0:0:
423,266,141781,1,2,2:0:0:0:
428,380,142100,1,8,2:3:0:0:
428,380,142260,2,0,L|361:371,1,55,10|4,2:0|2:3,2:0:0:0:
319,363,142579,5,12,2:0:0:0:
247,279,142898,1,8,2:0:0:0:
330,207,143217,1,12,2:0:0:0:
254,127,143536,2,0,L|261:66,1,55,8|0,2:0|1:0,2:0:0:0:
291,26,143856,2,0,B|239:9|239:9|177:27,1,110,12|8,2:0|2:0,2:0:0:0:
119,112,144494,1,12,2:0:0:0:
176,205,144813,2,0,L|166:268,1,55,8|8,2:0|2:0,0:0:0:0:
132,301,145132,102,0,P|72:311|19:287,1,110,4|8,1:2|2:0,2:0:0:0:
85,200,145771,2,0,L|72:125,1,55,0|8,1:0|2:3,2:0:0:0:
52,95,146090,2,0,L|61:41,1,55,10|2,2:0|2:0,2:0:0:0:
108,11,146409,2,0,B|168:-3|168:-3|234:19,1,110,0|8,1:0|2:0,2:0:0:0:
306,71,147047,2,0,P|310:109|301:141,1,55,2|8,1:0|2:3,2:0:0:0:
277,173,147366,1,10,2:0:0:0:
223,268,147685,6,0,L|344:284,1,110,12|10,2:0|2:3,2:0:0:0:
369,322,148164,2,0,L|478:307,1,110,14|2,2:0|1:0,2:0:0:0:
512,260,148643,2,0,P|522:227|505:187,1,55,10|10,2:0|2:0,2:0:0:0:
477,167,148962,1,4,1:2:0:0:
372,201,149281,1,8,2:0:0:0:
304,114,149600,2,0,L|239:105,1,55,10|8,1:3|2:3,2:0:0:0:
202,135,149919,2,0,L|137:144,1,55,6|6,1:3|2:3,2:0:0:0:
98,137,150239,70,0,B|86:185|86:185|113:242,1,99.0000000000001,6|2,1:2|1:0,2:0:0:0:
148,256,150717,1,10,2:3:0:0:
148,256,150877,1,8,2:0:0:0:
165,353,151196,2,0,L|229:338,1,49.5000000000001,2|10,1:0|2:0,2:0:0:0:
251,310,151515,2,0,L|299:321,1,49.5000000000001,0|8,1:0|2:0,2:0:0:0:
345,340,151834,1,10,2:0:0:0:
433,296,152154,2,0,L|426:235,1,49.5000000000001,10|10,0:2|0:0,2:0:0:0:
403,203,152473,2,0,L|413:154,1,49.5000000000001,2|8,1:0|2:0,2:0:0:0:
433,103,152792,86,0,B|388:72|388:72|325:82,1,110,6|8,1:2|2:0,2:0:0:0:
247,148,153430,1,2,1:0:0:0:
247,148,153590,2,0,L|185:136,1,55,10|10,2:3|2:0,2:0:0:0:
139,124,153909,2,0,P|123:83|152:14,1,110,2|2,1:0|2:0,2:0:0:0:
194,2,154388,1,10,2:0:0:0:
303,4,154707,2,0,L|365:19,1,55,0|8,1:0|2:3,2:0:0:0:
399,50,155026,2,0,L|458:44,1,55,10|2,2:0|2:0,2:0:0:0:
508,39,155345,5,0,1:0:0:0:
469,141,155664,1,8,2:0:0:0:
507,244,155983,1,2,1:0:0:0:
507,244,156143,2,0,L|487:313,1,55,10|8,2:3|2:0,2:0:0:0:
470,347,156462,2,0,P|426:354|366:317,1,110,2|0,1:0|1:0,2:0:0:0:
354,270,156941,1,8,2:0:0:0:
419,182,157260,2,0,L|414:118,1,55,2|10,1:0|2:3,2:0:0:0:
411,72,157579,1,10,2:0:0:0:
301,66,157898,102,0,L|168:66,1,110,6|8,1:2|2:0,2:0:0:0:
135,67,158377,1,2,2:0:0:0:
29,83,158696,1,2,1:0:0:0:
29,83,158856,2,0,L|34:149,1,55,8|0,2:0|2:0,2:0:0:0:
34,192,159175,2,0,P|14:239|35:302,1,110,2|8,1:0|2:0,2:0:0:0:
78,317,159654,2,0,L|186:298,1,110,2|8,2:0|2:3,2:0:0:0:
240,287,160132,1,10,2:0:0:0:
326,354,160451,5,4,1:2:0:0:
410,283,160771,1,0,1:0:0:0:
410,283,160930,2,0,B|426:230|426:230|406:171,1,110,12|8,2:0|2:0,2:0:0:0:
376,133,161409,1,4,1:2:0:0:
410,31,161728,1,0,1:0:0:0:
410,31,161888,2,0,L|286:52,1,110,12|8,2:0|2:0,2:0:0:0:
247,57,162366,2,0,L|236:137,1,55,4|8,1:2|2:0,2:0:0:0:
191,139,162685,2,0,L|198:193,1,55,8|0,2:0|1:0,2:0:0:0:
208,249,163005,1,4,1:2:0:0:
219,358,163324,102,0,P|172:375|109:354,1,110,10|0,2:0|1:0,2:0:0:0:
86,313,163802,1,10,2:3:0:0:
86,313,163962,1,8,2:0:0:0:
19,225,164281,2,0,L|37:105,1,110,2|8,1:2|2:0,2:0:0:0:
53,64,164760,2,0,P|108:52|162:93,1,110,2|8,2:0|2:3,2:0:0:0:
182,123,165239,1,10,2:0:0:0:
183,232,165558,6,0,L|297:212,1,110,6|10,1:2|2:0,2:0:0:0:
344,200,166036,1,8,2:0:0:0:
402,293,166356,2,0,L|461:283,1,55,10|8,2:0|2:0,2:0:0:0:
510,273,166675,2,0,P|520:224|485:155,1,110,6|0,1:2|1:0,2:0:0:0:
450,143,167154,1,10,3:2:0:0:
386,52,167473,1,10,2:3:0:0:
294,113,167792,1,8,2:0:0:0:
231,35,168111,6,0,L|122:24,1,99.0000000000001,4|0,1:2|1:0,2:0:0:0:
83,18,168589,1,0,3:0:0:0:
23,96,168908,1,0,3:0:0:0:
23,96,169068,2,0,P|6:147|22:209,1,99.0000000000001,0|0,1:0|1:0,2:0:0:0:
48,225,169547,1,0,3:0:0:0:
139,276,169866,1,0,3:0:0:0:
139,276,170025,2,0,L|209:264,1,49.5000000000001,8|8,1:2|1:2,2:0:0:0:
236,259,170345,6,0,B|243:206|243:206|224:154,1,99.0000000000001,4|0,1:2|1:0,2:0:0:0:
195,125,170823,1,0,3:0:0:0:
250,42,171142,1,0,3:0:0:0:
250,42,171302,2,0,P|311:23|353:34,1,99.0000000000001,0|0,1:0|1:0,2:0:0:0:
385,57,171781,1,0,3:0:0:0:
449,131,172100,1,0,3:0:0:0:
449,131,172259,2,0,L|441:198,1,49.5000000000001,8|8,1:2|1:2,2:0:0:0:
435,235,172579,69,4,1:2:0:0:
416,343,172898,1,8,2:0:0:0:
416,343,173057,2,0,P|368:358|305:336,1,110,4|8,1:2|2:0,2:0:0:0:
279,297,173536,2,0,L|289:229,2,55,4|8|8,1:2|2:0|2:0,2:0:0:0:
227,316,174015,1,4,1:2:0:0:
128,266,174334,1,8,2:0:0:0:
128,266,174493,2,0,P|124:226|134:191,1,55,4|8,1:2|2:0,2:0:0:0:
164,171,174813,1,8,2:0:0:0:
164,171,174972,1,4,1:2:0:0:
251,103,175291,5,8,1:2:0:0:
251,103,175451,1,8,1:2:0:0:
173,24,175770,1,8,1:2:0:0:
69,61,176089,1,8,1:2:0:0:
122,157,176408,2,0,L|131:270,1,110,8|8,1:2|1:2,2:0:0:0:
135,321,176886,1,8,1:2:0:0:
135,321,177047,2,0,P|166:329|202:325,1,55,8|8,1:2|1:2,2:0:0:0:
226,287,177366,2,0,P|257:278|293:283,1,55,8|8,1:2|1:2,2:0:0:0:
328,304,177685,101,4,1:2:0:0:
484,317,187898,22,0,L|418:306,1,49.5000000000001,6|2,1:2|2:0,2:0:0:0:
386,298,188217,1,2,1:2:0:0:
290,273,188536,2,0,L|279:339,2,49.5000000000001,2|2|2,1:0|2:0|1:0,2:0:0:0:
317,231,189015,2,0,L|306:118,1,99.0000000000001,2|2,2:0|2:0,2:0:0:0:
299,83,189493,1,2,1:0:0:0:
299,83,189653,1,2,2:0:0:0:
214,30,189972,1,2,2:0:0:0:
214,30,190132,2,0,L|152:41,1,49.5000000000001,2|8,1:0|2:0,2:0:0:0:
115,42,190451,5,6,1:2:0:0:
40,107,190770,1,10,2:0:0:0:
125,158,191089,1,6,1:2:0:0:
47,218,191408,2,0,L|40:280,1,49.5000000000001,10|10,2:0|2:0,2:0:0:0:
35,316,191727,1,4,1:2:0:0:
123,359,192047,102,0,L|181:349,1,49.5000000000001,8|8,2:0|2:0,2:0:0:0:
209,318,192366,2,0,L|257:326,1,49.5000000000001,8|8,2:0|2:0,2:0:0:0:
306,337,192685,1,8,1:3:0:0:
400,364,193004,54,0,P|424:323|415:261,1,99.0000000000001,6|10,1:2|2:0,2:0:0:0:
389,234,193483,1,2,1:0:0:0:
298,194,193802,1,2,2:0:0:0:
264,100,194121,2,0,P|263:60|297:1,1,99.0000000000001,10|0,2:0|1:0,2:0:0:0:
338,1,194600,1,8,2:0:0:0:
436,6,194919,2,0,L|431:61,1,49.5000000000001,2|0,2:0|1:0,2:0:0:0:
424,104,195238,1,10,2:0:0:0:
478,186,195557,5,12,2:0:0:0:
394,239,195876,1,8,2:0:0:0:
323,169,196196,1,8,2:0:0:0:
238,221,196515,1,8,2:0:0:0:
185,137,196834,2,0,L|194:79,1,49.5000000000001,12|8,1:2|1:2,2:0:0:0:
200,39,197153,1,8,1:2:0:0:
100,33,197472,2,0,L|91:91,1,49.5000000000001,8|8,1:2|1:2,2:0:0:0:
66,123,197791,2,0,L|75:181,1,49.5000000000001,8|8,1:2|1:2,2:0:0:0:
88,219,198110,1,2,2:0:0:0:
458,359,199387,37,4,1:2:0:0:
264,13,200664,1,4,1:2:0:0:
9,371,201940,22,0,L|136:356,1,110,14|2,1:2|1:0,2:0:0:0:
173,351,202419,1,14,1:2:0:0:
251,273,202738,2,0,L|324:282,1,55,2|8,1:0|2:0,2:0:0:0:
360,285,203057,2,0,B|378:232|378:232|361:170,1,110,2|0,1:0|1:0,2:0:0:0:
344,128,203536,1,8,2:0:0:0:
306,24,203855,2,0,L|226:32,1,55,2|0,1:0|1:0,2:0:0:0:
196,34,204174,1,10,2:0:0:0:
126,103,204493,86,0,P|116:142|137:211,1,99.0000000000001,4|2,1:2|1:2,2:0:0:0:
172,222,204972,1,2,2:0:0:0:
242,291,205291,1,2,2:0:0:0:
174,363,205610,1,2,2:0:0:0:
174,363,205770,2,0,L|64:347,1,99.0000000000001,6|2,1:2|1:2,2:0:0:0:
26,342,206249,1,2,2:0:0:0:
8,244,206568,1,0,2:0:0:0:
8,244,206727,2,0,L|21:177,1,49.5000000000001,10|8,2:0|2:0,2:0:0:0:
31,147,207047,1,12,1:2:0:0:
100,76,207366,6,0,P|132:90|154:118,1,49.5000000000001,8|8,1:2|1:2,2:0:0:0:
191,92,207685,2,0,P|203:124|199:159,1,49.5000000000001,8|8,1:2|1:2,2:0:0:0:
191,186,208004,1,8,1:2:0:0:
191,186,208164,1,8,1:2:0:0:
466,343,209600,6,0,P|481:286|452:230,1,110,6|8,1:2|2:0,2:0:0:0:
381,165,210238,2,0,L|306:178,1,55,0|8,1:0|2:3,2:0:0:0:
279,202,210557,2,0,L|225:193,1,55,10|2,2:0|2:0,2:0:0:0:
169,188,210876,2,0,L|164:65,1,110,0|8,1:2|2:0,2:0:0:0:
247,6,211515,2,0,P|285:2|317:11,1,55,2|8,1:0|2:3,2:0:0:0:
338,46,211834,1,10,2:0:0:0:
441,9,212153,6,0,B|461:62|461:62|439:127,1,110,12|10,2:0|2:3,2:0:0:0:
400,146,212632,2,0,B|380:199|380:199|402:264,1,110,14|4,2:0|2:3,2:0:0:0:
414,301,213110,2,0,L|345:295,1,55,10|10,2:0|2:0,2:0:0:0:
304,290,213430,1,4,1:2:0:0:
215,355,213749,1,10,2:0:0:0:
122,295,214068,2,0,L|131:230,1,55,8|8,1:3|2:3,2:0:0:0:
101,193,214387,2,0,L|92:128,1,55,4|4,1:3|2:3,2:0:0:0:
84,84,214706,101,6,1:2:0:0:
177,25,215025,1,10,2:0:0:0:
177,25,215185,2,0,L|290:48,1,110,2|10,2:0|2:3,2:0:0:0:
337,62,215664,1,8,2:0:0:0:
383,161,215983,1,4,1:2:0:0:
280,201,216302,2,0,P|259:234|263:308,1,110,8|8,1:2|1:2,2:0:0:0:
300,341,216781,1,8,2:0:0:0:
300,341,216940,2,0,L|374:338,1,55,8|8,1:2|2:0,2:0:0:0:
409,343,217259,6,0,L|418:220,1,110,6|8,1:2|2:0,2:0:0:0:
483,145,217898,2,0,L|474:65,1,55,0|8,1:0|2:3,2:0:0:0:
462,36,218217,2,0,L|382:45,1,55,10|2,2:0|2:0,2:0:0:0:
352,46,218536,2,0,P|299:36|237:73,1,110,0|8,1:2|2:0,2:0:0:0:
188,150,219174,2,0,L|201:213,1,55,2|8,1:0|2:3,2:0:0:0:
214,256,219493,1,10,2:0:0:0:
233,364,219813,102,0,B|175:380|175:380|117:361,1,110,12|0,2:0|1:0,2:0:0:0:
84,330,220291,1,0,1:0:0:0:
84,330,220451,1,12,2:0:0:0:
12,246,220770,2,0,L|23:178,1,55,8|8,2:0|2:0,2:0:0:0:
31,143,221089,1,4,1:2:0:0:
256,192,221249,12,6,223004,3:0:0:0:
33,75,223642,86,0,L|138:64,1,99.0000000000001,6|2,1:2|2:0,2:0:0:0:
184,61,224121,1,0,1:0:0:0:
184,61,224281,1,10,2:0:0:0:
278,33,224600,2,0,P|291:60|293:97,1,49.5000000000001,2|10,1:0|2:0,2:0:0:0:
263,118,224919,2,0,L|288:230,1,99.0000000000001,0|2,1:0|1:0,2:0:0:0:
375,253,225557,1,8,2:0:0:0:
460,203,225876,2,0,L|463:141,1,49.5000000000001,2|10,1:0|2:0,2:0:0:0:
475,105,226196,6,0,P|420:91|371:106,1,99.0000000000001,4|0,1:2|1:0,2:0:0:0:
355,145,226674,1,8,2:3:0:0:
355,145,226834,1,8,2:0:0:0:
258,123,227153,2,0,L|196:109,1,49.5000000000001,0|8,1:0|2:0,2:0:0:0:
161,102,227472,2,0,B|134:146|134:146|153:203,1,99.0000000000001,0|0,1:0|1:0,2:0:0:0:
186,231,227951,1,8,2:3:0:0:
186,231,228110,1,8,2:0:0:0:
282,253,228430,2,0,L|289:309,1,49.5000000000001,0|8,1:0|2:0,2:0:0:0:
290,351,228749,102,0,P|241:368|183:354,1,99.0000000000001,4|0,1:2|1:0,2:0:0:0:
118,298,229387,2,0,P|101:249|115:191,1,99.0000000000001,8|8,1:3|1:3,2:0:0:0:
174,129,230025,2,0,L|287:136,1,99.0000000000001,8|8,1:2|1:2,2:0:0:0:
327,52,230664,2,0,L|440:59,1,99.0000000000001,8|12,1:2|1:2,2:0:0:0:
490,143,231302,5,2,2:0:0:0:
269,250,232617,1,2,2:0:0:0:
125,48,233932,1,2,2:0:0:0:
7,350,235247,102,0,B|117:345|66:284|200:285,1,198,2|2,2:0|2:0,2:0:0:0:
284,310,236192,1,10,2:0:0:0:
382,358,236511,54,0,P|402:314|391:240,1,110,4|8,1:2|2:0,2:0:0:0:
349,226,236989,2,0,P|343:171|364:121,1,110,2|2,1:0|1:0,2:0:0:0:
413,97,237468,1,10,2:0:0:0:
348,15,237787,1,2,1:0:0:0:
348,15,237947,2,0,L|223:7,1,110,2|2,1:0|3:0,2:0:0:0:
184,11,238425,1,2,1:0:0:0:
117,98,238745,1,10,2:0:0:0:
212,152,239064,6,0,B|231:205|231:205|215:263,1,110,6|8,1:2|2:0,2:0:0:0:
182,299,239542,1,0,1:0:0:0:
182,299,239702,2,0,L|295:298,1,110,2|10,1:0|2:0,2:0:0:0:
382,360,240340,1,2,1:0:0:0:
451,274,240659,2,0,L|456:201,1,55,8|2,2:0|1:0,2:0:0:0:
501,190,240979,2,0,L|494:117,1,55,2|2,1:0|1:0,2:0:0:0:
487,80,241298,1,10,2:0:0:0:
397,16,241617,102,0,L|280:36,1,110,6|8,1:2|2:0,2:0:0:0:
242,64,242096,2,0,L|133:45,1,110,2|0,1:0|1:0,2:0:0:0:
78,40,242574,1,10,2:0:0:0:
15,131,242893,1,2,1:0:0:0:
15,131,243053,2,0,P|3:187|35:248,1,110,2|2,1:0|1:0,2:0:0:0:
71,258,243532,1,2,2:0:0:0:
158,324,243851,2,0,L|218:315,1,55,10|0,2:0|2:0,2:0:0:0:
265,300,244170,5,14,2:0:0:0:
339,218,244489,1,8,2:0:0:0:
242,164,244808,1,8,2:0:0:0:
330,98,245128,1,8,2:0:0:0:
242,30,245447,2,0,L|179:36,1,55,8|8,2:0|1:2,2:0:0:0:
145,70,245766,2,0,L|90:64,1,55,8|8,1:2|1:2,2:0:0:0:
36,54,246085,2,0,L|43:-5,2,55,0|0|8,3:0|3:0|2:0,2:0:0:0:
27,108,246564,101,4,1:2:0:0:
256,192,246723,12,0,253106,2:0:0:0:
