osu file format v14

[General]
AudioFilename: audio.mp3
AudioLeadIn: 0
PreviewTime: 198350
Countdown: 0
SampleSet: Soft
StackLeniency: 0.7
Mode: 0
LetterboxInBreaks: 0
WidescreenStoryboard: 1

[Editor]
Bookmarks: 2154,7100,17473,27685,36302,37898,43005,48111,53217,58324,68536,73643,78749,83856,94068,104281,114494,119600,124707,129813,134919,145132,150239,152792,168111,177685,187898,199387,201940,204493,209600,217259,221089,228749
DistanceSpacing: 1.4
BeatDivisor: 4
GridSize: 32
TimelineZoom: 2.7

[Metadata]
Title:Dear Brave
TitleUnicode:ディアブレイブ
Artist:Kano
ArtistUnicode:鹿乃
Creator:Kowari
Version:Extra
Source:ヘヴィーオブジェクト
Tags:heavy object ed ending nowhere japanese j-pop jpop pop female vocal singer utaite anime
BeatmapID:2684029
BeatmapSetID:1293358

[Difficulty]
HPDrainRate:5.2
CircleSize:3.8
OverallDifficulty:8.7
ApproachRate:9.2
SliderMultiplier:1.72
SliderTickRate:1

[Events]
//Background and Video events
0,0,"bg.jpg",0,0
//Break Periods
2,177885,187328
2,208364,209030
//Storyboard Layer 0 (Background)
//Storyboard Layer 1 (Fail)
//Storyboard Layer 2 (Pass)
//Storyboard Layer 3 (Foreground)
//Storyboard Layer 4 (Overlay)
//Storyboard Sound Samples

[TimingPoints]
2154,319.148936170213,4,2,1,45,1,0
2154,-121.951219512195,4,2,1,45,0,0
5824,-161.290322580645,4,2,1,50,0,0
6781,-108.695652173913,4,2,1,60,0,0
7100,-98.0392156862745,4,2,1,70,0,0
17473,-121.951219512195,4,2,1,45,0,0
27685,-108.695652173913,4,2,1,60,0,0
37898,-108.695652173913,4,2,1,65,0,0
43005,-161.290322580645,4,2,1,55,0,0
48111,-161.290322580645,4,2,1,65,0,0
48430,-108.695652173913,4,2,1,65,0,0
53217,-98.0392156862745,4,2,1,70,0,0
58324,-89.2857142857143,4,2,1,80,0,1
73643,-98.0392156862745,4,2,1,70,0,0
78749,-98.0392156862745,4,2,1,55,0,0
79388,-98.0392156862745,4,2,1,63,0,0
80026,-98.0392156862745,4,2,1,70,0,0
80664,-98.0392156862745,4,2,1,80,0,0
81302,-98.0392156862745,4,2,1,60,0,0
83856,-98.0392156862745,4,2,1,70,0,0
94068,-121.951219512195,4,2,1,60,0,0
105398,-108.695652173913,4,2,1,65,0,0
119600,-98.0392156862745,4,2,1,65,0,0
124707,-121.951219512195,4,2,1,60,0,0
129813,-108.695652173913,4,2,1,70,0,0
130292,-98.0392156862745,4,2,1,70,0,0
132366,-121.951219512195,4,2,1,60,0,0
133005,-108.695652173913,4,2,1,65,0,0
133643,-98.0392156862745,4,2,1,70,0,0
134919,-89.2857142857143,4,2,1,80,0,1
150239,-98.0392156862745,4,2,1,70,0,0
168111,319.148936170213,7,2,1,60,1,0
168111,-98.0392156862745,7,2,1,60,0,0
172579,319.148936170213,4,2,1,80,1,0
172579,-98.0392156862745,4,2,1,80,0,0
187898,-121.951219512195,4,2,1,60,0,0
190451,-98.0392156862745,4,2,1,65,0,0
193004,-98.0392156862745,4,2,1,70,0,0
199387,-121.951219512195,4,2,1,60,0,0
201940,-89.2857142857143,4,2,1,80,0,1
204493,-121.951219512195,4,2,1,60,0,0
206887,-121.951219512195,4,2,1,70,0,0
209600,-89.2857142857143,4,2,1,80,0,1
221089,-192.307692307692,4,2,1,60,0,0
223004,-138.888888888889,4,2,1,60,0,0
223642,-98.0392156862745,4,2,1,70,0,0
228749,-98.0392156862745,4,2,1,55,0,0
229387,-98.0392156862745,4,2,1,63,0,0
230025,-98.0392156862745,4,2,1,70,0,0
230664,-98.0392156862745,4,2,1,80,0,0
231302,328.767123287671,4,2,1,60,1,0
233932,-312.5,4,2,1,60,0,0
236192,319.148936170213,4,2,1,70,1,0
236511,319.148936170213,4,2,1,70,1,0
236511,-98.0392156862745,4,2,1,70,0,0
246564,-833.333333333333,4,2,1,50,0,0
249276,-833.333333333333,4,2,1,35,0,0
251830,-833.333333333333,4,2,1,20,0,0
253106,-833.333333333333,4,2,1,5,0,0

[Colours]
Combo1 : 192,192,192
Combo2 : 223,223,0
Combo3 : 255,255,149
Combo4 : 128,128,255
Combo5 : 166,166,210
Combo6 : 0,223,223
Combo7 : 149,255,255
Combo8 : 128,128,128

[HitObjects]
50,18,2154,102,0,P|63:77|81:180,1,141.04,4|2,1:2|2:0,2:0:0:0:
206,224,2792,2,0,B|164:211|136:240|142:248|118:277|50:261,1,141.04,2|2,2:0|2:0,2:0:0:0:
200,321,3271,1,0,2:0:0:0:
200,321,3430,2,0,P|261:341|299:355,1,70.5200000000001,2|0,2:0|2:0,2:0:0:0:
402,219,3749,6,0,P|382:282|374:315,1,70.5200000000001,2|2,2:0|2:0,2:0:0:0:
269,139,4068,2,0,P|289:202|297:235,1,70.5200000000001,2|2,2:0|2:0,2:0:0:0:
387,110,4388,2,0,P|433:96|471:88,1,70.5200000000001,2|2,2:0|2:0,2:0:0:0:
293,33,4707,102,0,P|239:24|174:83,1,141.04,2|2,2:0|2:0,2:0:0:0:
86,163,5185,1,0,2:0:0:0:
86,163,5345,2,0,P|72:120|62:92,1,70.5200000000001,2|0,2:0|2:0,2:0:0:0:
48,275,5664,5,2,2:0:0:0:
48,275,5824,2,0,B|120:292|156:260|139:243|176:198|260:225,1,213.28,2|0,2:0|2:0,2:0:0:0:
296,364,6622,101,0,3:0:0:0:
296,364,6701,1,0,3:0:0:0:
296,364,6781,2,0,P|324:353|357:341,1,39.56,0|0,3:0|3:0,2:0:0:0:
455,275,6941,2,0,P|436:267|418:260,1,39.56,0|0,3:0|3:0,2:0:0:0:
306,106,7100,54,0,B|270:127|245:137|245:137|275:196|282:260,1,175.44,6|0,1:2|1:0,2:0:0:0:
417,133,7579,2,0,P|432:64|438:16,1,87.72,10|0,2:0|2:0,2:0:0:0:
223,126,7898,1,2,1:0:0:0:
382,234,8058,1,10,2:3:0:0:
301,28,8217,1,10,2:0:0:0:
243,251,8377,6,0,B|191:232|155:257|164:278|117:298|66:269,1,175.44,2|0,1:2|1:0,2:0:0:0:
11,126,8856,2,0,P|75:139|115:149,1,87.72,10|2,2:0|2:0,2:0:0:0:
266,55,9175,1,2,1:0:0:0:
175,225,9334,1,10,2:3:0:0:
149,11,9494,1,10,2:0:0:0:
324,157,9654,101,6,1:2:0:0:
75,244,9973,1,4,1:2:0:0:
250,58,10292,1,4,1:2:0:0:
186,324,10611,1,4,1:2:0:0:
22,156,10930,6,0,B|65:123|118:137|118:137|139:202|202:203,1,175.44,4|0,1:2|1:0,2:0:0:0:
371,55,11409,1,8,2:0:0:0:
209,113,11568,1,8,2:0:0:0:
409,187,11728,1,8,2:3:0:0:
270,19,11888,1,8,2:0:0:0:
255,248,12047,1,8,2:0:0:0:
377,50,12207,102,0,B|408:73|438:87|438:87|421:130|408:197,1,175.44,12|0,2:0|1:0,2:0:0:0:
220,155,12685,2,0,P|288:134|328:124,1,87.72,12|0,2:0|2:0,2:0:0:0:
419,275,13005,1,0,1:0:0:0:
200,148,13164,6,0,B|148:124|110:158|124:174|89:205|19:176,1,175.44,12|0,2:0|1:0,2:0:0:0:
143,356,13643,2,0,P|151:281|156:244,1,87.72,12|0,2:0|2:0,2:0:0:0:
176,44,13962,1,0,1:0:0:0:
266,237,14122,1,8,2:0:0:0:
155,32,14281,1,8,2:0:0:0:
335,142,14441,1,8,2:0:0:0:
114,188,14600,1,8,1:3:0:0:
273,41,14760,1,4,1:3:0:0:
271,275,14919,102,0,P|330:323|441:289,1,175.44,12|0,2:0|1:0,2:0:0:0:
383,131,15398,2,0,P|368:185|357:238,1,87.72,12|0,2:0|2:0,2:0:0:0:
502,106,15717,1,0,1:0:0:0:
335,23,15877,6,0,B|286:2|248:29|263:51|223:83|164:57,1,175.44,12|0,2:0|1:0,2:0:0:0:
62,215,16356,1,12,2:0:0:0:
251,159,16515,1,2,2:0:0:0:
55,82,16675,1,0,1:0:0:0:
174,300,16834,101,8,1:2:0:0:
247,51,16994,1,8,1:2:0:0:
438,318,17473,54,0,P|364:303|272:292,1,141.04,6|2,3:2|3:2,2:0:0:0:
175,242,17951,2,0,P|193:300|203:337,1,70.5200000000001,2|0,0:0|3:0,2:0:0:0:
296,143,18271,2,0,P|278:201|268:238,1,70.5200000000001,2|0,0:0|3:0,2:0:0:0:
186,91,18590,5,2,0:0:0:0:
186,91,18749,2,0,B|145:75|116:105|125:115|96:137|54:123,1,141.04,2|2,3:0|3:0,2:0:0:0:
150,259,19228,2,0,P|163:198|172:168,1,70.5200000000001,2|0,0:0|3:0,2:0:0:0:
45,277,19547,2,0,P|53:311|60:345,1,70.5200000000001,2|0,0:0|3:0,2:0:0:0:
206,356,19866,101,0,0:0:0:0:
206,356,20026,2,0,P|279:336|361:319,1,141.04,2|0,3:0|3:0,2:0:0:0:
466,246,20505,2,0,P|414:235|383:227,1,70.5200000000001,2|0,0:0|3:0,2:0:0:0:
282,156,20824,2,0,P|300:217|308:249,1,70.5200000000001,2|0,0:0|3:0,2:0:0:0:
350,68,21143,5,2,0:0:0:0:
350,68,21302,2,0,P|318:46|216:66,1,141.04,0|0,3:0|3:0,2:0:0:0:
94,28,21781,2,0,P|112:83|126:121,1,70.5200000000001,0|2,0:0|3:0,2:0:0:0:
161,253,22100,1,2,0:0:0:0:
219,85,22260,1,2,3:0:0:0:
153,276,22419,1,2,0:0:0:0:
54,145,22579,102,0,B|95:127|134:144|117:166|160:178|203:159,1,141.04,2|0,3:0|3:0,2:0:0:0:
314,80,23058,2,0,P|287:198|282:240,1,141.04,2|0,0:0|0:0,2:0:0:0:
431,311,23536,1,2,3:0:0:0:
389,172,23696,1,2,0:0:0:0:
322,319,23856,6,0,P|267:328|189:258,1,141.04,2|2,3:0|3:0,2:0:0:0:
102,197,24334,2,0,P|93:231|84:265,1,70.5200000000001,2|0,0:0|3:0,2:0:0:0:
203,172,24654,2,0,P|194:137|185:103,1,70.5200000000001,2|0,0:0|3:0,2:0:0:0:
158,0,24973,1,2,0:0:0:0:
287,109,25132,102,0,B|315:80|361:75|361:75|391:114|432:112,1,141.04,2|2,3:0|3:0,2:0:0:0:
511,1,25611,2,0,P|461:16|418:31,1,70.5200000000001,2|0,0:0|3:0,2:0:0:0:
492,173,25930,2,0,P|507:123|522:80,1,70.5200000000001,2|0,0:0|3:0,2:0:0:0:
381,190,26249,5,2,0:0:0:0:
381,190,26409,2,0,P|401:252|411:288,1,70.5200000000001,0|0,3:0|0:0,2:0:0:0:
280,345,26728,2,0,P|290:311|301:277,1,70.5200000000001,0|0,3:0|0:0,2:0:0:0:
388,371,27047,1,0,3:0:0:0:
218,242,27207,1,0,3:0:0:0:
218,242,27286,1,0,3:0:0:0:
218,242,27366,2,0,P|160:226|121:219,1,70.5200000000001,2|2,3:0|0:0,2:0:0:0:
49,153,27685,38,0,B|21:180|-6:197|-6:197|20:247|28:288,1,158.24,4|2,1:2|1:0,2:0:0:0:
120,384,28164,2,0,P|134:319|144:284,1,79.12,2|0,2:0|1:0,2:0:0:0:
228,185,28483,2,0,P|242:250|252:285,1,79.12,2|0,2:0|1:0,2:0:0:0:
350,108,28802,6,0,P|298:93|260:82,1,79.12,2|0,2:0|1:0,2:0:0:0:
407,196,29122,1,2,2:0:0:0:
384,7,29281,1,2,1:0:0:0:
263,186,29441,2,0,P|210:226|114:191,1,158.24,2|0,2:0|2:0,2:0:0:0:
33,47,29919,1,2,1:0:0:0:
183,130,30079,1,2,2:0:0:0:
52,311,30239,102,0,P|45:272|37:233,1,79.12,2|0,1:0|2:0,2:0:0:0:
5,64,30558,1,0,1:0:0:0:
129,230,30717,2,0,P|136:191|143:152,1,79.12,2|0,2:0|1:0,2:0:0:0:
194,19,31036,2,0,P|121:39|85:51,1,79.12,2|0,2:0|1:0,2:0:0:0:
276,173,31356,6,0,P|288:101|295:67,1,79.12,2|0,2:0|1:0,2:0:0:0:
431,222,31675,2,0,P|362:247|329:258,1,79.12,2|0,2:0|1:0,2:0:0:0:
403,55,31994,2,0,P|459:101|485:124,1,79.12,2|0,2:0|1:0,2:0:0:0:
371,148,32313,1,0,2:0:0:0:
274,10,32473,2,0,P|220:31|171:54,1,79.12,2|0,1:0|2:0,2:0:0:0:
49,136,32792,102,0,B|93:111|134:141|116:156|154:186|198:162,1,158.24,6|2,1:2|1:0,2:0:0:0:
307,94,33271,2,0,P|297:159|291:197,1,79.12,2|0,2:0|1:0,2:0:0:0:
208,280,33590,2,0,P|201:240|195:201,1,79.12,2|0,2:0|1:0,2:0:0:0:
319,304,33909,1,0,2:0:0:0:
152,361,34068,6,0,P|90:374|53:380,1,79.12,2|0,1:0|2:0,2:0:0:0:
0,244,34388,2,0,P|38:251|77:259,1,79.12,2|0,1:0|2:0,2:0:0:0:
235,312,34707,1,2,1:0:0:0:
121,175,34866,1,0,2:0:0:0:
143,341,35026,2,0,P|157:283|171:239,1,79.12,0|0,1:0|2:0,2:0:0:0:
275,172,35345,102,0,P|285:210|294:248,1,79.12,2|0,1:0|2:0,2:0:0:0:
419,111,35664,2,0,P|409:149|400:187,1,79.12,2|0,1:0|2:0,2:0:0:0:
291,68,35983,2,0,P|245:58|196:53,1,79.12,2|0,1:0|2:0,2:0:0:0:
398,13,36302,2,0,P|444:3|493:-2,1,79.12,2|2,1:0|2:0,2:0:0:0:
407,216,36622,5,0,1:0:0:0:
310,43,36781,1,2,2:0:0:0:
458,114,36941,1,2,1:0:0:0:
272,142,37100,1,2,2:0:0:0:
478,99,37260,1,2,1:0:0:0:
339,241,37419,1,0,3:0:0:0:
339,241,37499,1,0,3:0:0:0:
339,241,37579,2,0,P|350:301|356:337,1,79.12,2|2,1:0|2:0,2:0:0:0:
259,139,37898,101,8,2:0:0:0:
442,243,38058,1,8,2:0:0:0:
442,243,38217,2,0,P|452:193|462:154,1,79.12,2|2,1:0|2:0,2:0:0:0:
512,40,38536,2,0,B|463:23|429:54|443:70|402:93|339:65,1,158.24,2|2,1:0|1:0,2:0:0:0:
197,6,39015,1,2,2:0:0:0:
333,202,39175,5,8,2:0:0:0:
302,6,39334,1,8,2:0:0:0:
302,6,39494,2,0,P|283:67|274:98,1,79.12,2|2,1:0|2:0,2:0:0:0:
254,242,39813,2,0,P|209:181|116:217,1,158.24,2|2,1:0|1:0,2:0:0:0:
11,297,40292,1,2,2:0:0:0:
44,134,40451,101,8,2:0:0:0:
102,315,40611,1,8,2:0:0:0:
102,315,40771,2,0,P|162:300|210:291,1,79.12,2|2,1:0|0:0,2:0:0:0:
287,177,41090,2,0,B|314:199|344:216|344:216|320:263|311:321,1,158.24,0|2,1:0|1:0,2:0:0:0:
186,195,41568,1,2,2:0:0:0:
265,365,41728,5,8,2:0:0:0:
369,214,41888,1,8,2:0:0:0:
369,214,42047,2,0,P|418:202|481:192,1,79.12,2|2,1:0|2:0,2:0:0:0:
307,103,42366,2,0,P|258:91|195:81,1,79.12,0|0,1:0|2:0,2:0:0:0:
393,30,42685,1,2,1:0:0:0:
283,198,42845,1,0,3:0:0:0:
199,0,43005,38,0,P|133:7|104:56,1,106.64,4|2,1:2|2:0,2:0:0:0:
0,16,43483,2,0,P|31:92|44:134,1,106.64,2|2,2:0|2:0,2:0:0:0:
3,306,44122,6,0,B|46:277|90:303|74:328|115:352|167:313,1,159.96,2|2,2:0|2:0,2:0:0:0:
287,241,44919,2,0,P|264:322|254:364,1,106.64,2|2,3:0|2:0,2:0:0:0:
213,163,45558,102,0,P|250:135|357:158,1,159.96,2|2,2:0|2:0,2:0:0:0:
477,116,46196,2,0,P|455:196|445:239,1,106.64,2|2,2:0|2:0,2:0:0:0:
373,313,46675,1,2,2:0:0:0:
373,313,46834,2,0,P|360:270|349:239,1,53.3200000000001,0|0,3:0|2:0,2:0:0:0:
320,157,47154,1,0,3:0:0:0:
258,278,47313,6,0,L|219:268,2,26.66,0|0|2,2:0|3:0|2:0,2:0:0:0:
140,197,47632,1,0,1:0:0:0:
140,197,47712,1,0,1:0:0:0:
140,197,47792,1,8,2:0:0:0:
203,369,47951,1,8,2:0:0:0:
257,156,48111,37,4,1:2:0:0:
84,292,48271,1,0,1:0:0:0:
127,112,48430,2,0,P|142:169|151:210,1,79.12,10|2,2:0|2:0,2:0:0:0:
283,14,48749,1,2,1:0:0:0:
234,180,48909,1,0,1:0:0:0:
165,0,49068,1,10,2:0:0:0:
240,203,49228,1,10,2:0:0:0:
353,62,49388,5,0,1:0:0:0:
137,118,49547,1,0,1:0:0:0:
251,230,49707,2,0,P|266:169|273:131,1,79.12,10|2,2:0|2:0,2:0:0:0:
306,319,50026,1,2,1:0:0:0:
136,232,50185,1,0,1:0:0:0:
329,331,50345,1,10,2:0:0:0:
152,381,50505,1,2,2:0:0:0:
277,182,50664,101,0,1:0:0:0:
389,384,50824,1,0,1:0:0:0:
456,243,50983,1,10,2:0:0:0:
456,243,51143,2,0,P|406:257|366:271,1,79.12,2|0,2:0|1:0,2:0:0:0:
227,297,51462,1,0,1:0:0:0:
363,183,51622,1,10,2:0:0:0:
310,346,51781,1,2,2:0:0:0:
174,175,51941,5,0,1:0:0:0:
231,384,52100,1,0,1:0:0:0:
93,273,52260,1,10,2:0:0:0:
93,273,52419,2,0,P|151:284|197:295,1,79.12,2|0,2:0|1:0,2:0:0:0:
309,186,52739,1,0,1:0:0:0:
159,377,52898,2,0,P|197:368|236:361,1,79.12,8|2,2:0|2:0,2:0:0:0:
392,165,53217,102,0,B|420:198|442:213|442:213|409:272|397:333,1,175.44,12|0,2:0|1:0,2:0:0:0:
263,172,53696,1,12,2:0:0:0:
507,285,53856,1,0,1:0:0:0:
299,347,54015,1,0,1:0:0:0:
420,140,54175,5,12,2:0:0:0:
468,366,54334,1,0,1:0:0:0:
414,113,54494,1,0,1:0:0:0:
270,357,54654,102,0,B|226:376|187:353|199:334|154:304|106:334,1,175.44,12|0,2:0|1:0,2:0:0:0:
86,357,55052,1,0,1:0:0:0:
86,357,55132,1,12,2:0:0:0:
294,227,55292,1,8,2:0:0:0:
69,142,55451,1,8,2:0:0:0:
319,239,55611,1,8,2:0:0:0:
171,30,55771,5,4,1:2:0:0:
171,30,56090,1,8,1:2:0:0:
207,273,56249,1,8,1:2:0:0:
337,80,56409,1,8,1:2:0:0:
81,161,56568,1,8,1:2:0:0:
349,274,56728,1,8,1:2:0:0:
258,10,56888,1,8,1:2:0:0:
102,294,57047,1,4,1:2:0:0:
449,82,57685,101,0,3:0:0:0:
449,82,57765,1,0,3:0:0:0:
449,82,57845,2,0,P|411:73|375:67,1,43.86,0|0,3:0|3:0,2:0:0:0:
286,183,58005,1,2,3:0:0:0:
286,183,58084,1,2,3:0:0:0:
286,183,58164,2,0,P|324:174|360:168,1,43.86,2|2,3:0|3:0,2:0:0:0:
191,64,58324,86,0,B|152:90|119:103|119:103|148:159|160:219,1,192.64,6|8,1:2|2:0,2:0:0:0:
204,378,58802,1,0,2:0:0:0:
266,179,58962,1,0,1:0:0:0:
103,321,59122,1,8,2:3:0:0:
329,311,59281,2,0,P|256:285|214:273,1,96.32,10|2,2:0|2:0,2:0:0:0:
58,171,59600,6,0,P|122:107|221:144,1,192.64,0|8,1:0|2:0,2:0:0:0:
351,287,60079,1,2,2:0:0:0:
149,216,60239,1,2,1:0:0:0:
332,126,60398,1,8,2:3:0:0:
253,359,60558,2,0,P|237:291|227:236,1,96.32,10|0,2:0|2:0,2:0:0:0:
402,40,60877,102,0,B|434:70|462:90|462:90|437:141|422:211,1,192.64,6|8,1:2|2:0,2:0:0:0:
238,155,61356,2,0,P|309:133|360:116,1,96.32,2|0,2:0|1:0,2:0:0:0:
446,323,61675,2,0,P|375:301|324:284,1,96.32,10|8,2:3|2:0,2:0:0:0:
135,212,61994,1,2,1:0:0:0:
279,368,62154,5,2,2:0:0:0:
225,133,62313,1,0,1:3:0:0:
111,305,62473,2,0,P|197:286|230:279,1,96.32,8|2,2:0|2:0,2:0:0:0:
328,85,62792,1,2,1:0:0:0:
124,183,62951,1,8,2:3:0:0:
330,246,63111,1,10,2:0:0:0:
172,54,63271,101,2,1:0:0:0:
172,54,63350,1,0,1:0:0:0:
172,54,63430,2,0,B|121:31|73:67|96:87|41:130|-19:101,1,192.64,4|10,1:2|2:0,2:0:0:0:
103,303,63909,2,0,P|118:213|126:174,1,96.32,2|0,2:0|1:0,2:0:0:0:
193,22,64228,1,10,2:3:0:0:
249,241,64388,1,8,2:0:0:0:
80,100,64547,1,2,2:0:0:0:
271,264,64707,6,0,P|336:270|409:160,1,192.64,4|10,1:2|2:0,2:0:0:0:
322,9,65185,2,0,P|305:83|300:120,1,96.32,2|0,2:0|1:0,2:0:0:0:
387,285,65505,1,8,2:3:0:0:
194,79,65664,2,0,P|211:153|216:190,1,96.32,10|4,2:0|2:3,2:0:0:0:
74,344,65983,102,0,P|141:324|189:312,1,96.32,12|0,2:0|1:0,2:0:0:0:
338,112,66302,5,8,2:0:0:0:
253,384,66462,1,0,1:0:0:0:
210,79,66622,101,12,2:0:0:0:
366,340,66781,1,0,1:0:0:0:
114,222,66941,5,8,2:0:0:0:
424,137,67100,1,0,1:0:0:0:
424,137,67180,1,0,1:0:0:0:
424,137,67260,2,0,P|409:65|401:18,1,96.32,12|0,2:0|2:0,2:0:0:0:
248,301,67579,101,8,2:0:0:0:
306,51,67739,1,0,1:0:0:0:
453,235,67898,2,0,P|373:218|329:212,1,96.32,12|0,2:0|1:0,2:0:0:0:
131,276,68217,1,8,2:0:0:0:
209,45,68377,5,8,2:0:0:0:
209,45,68457,1,8,2:0:0:0:
209,45,68536,2,0,B|239:72|270:93|270:93|240:149|227:222,1,192.64,4|8,1:2|2:0,2:0:0:0:
120,372,69015,1,2,2:0:0:0:
66,152,69175,1,2,1:0:0:0:
220,308,69334,1,10,2:3:0:0:
3,288,69494,2,0,P|69:266|117:253,1,96.32,10|2,2:0|2:0,2:0:0:0:
318,174,69813,102,0,P|244:191|194:70,1,192.64,0|8,1:0|2:0,2:0:0:0:
398,102,70292,1,2,2:0:0:0:
277,281,70451,1,2,1:0:0:0:
270,49,70611,1,8,2:3:0:0:
400,238,70771,2,0,P|419:312|425:351,1,96.32,10|0,2:0|1:0,2:0:0:0:
407,360,71010,5,0,1:0:0:0:
407,360,71090,2,0,B|356:381|313:357|330:335|276:304|216:346,1,192.64,14|2,2:0|1:0,2:0:0:0:
55,174,71568,2,0,B|87:203|124:213|124:213|97:272|95:327,1,192.64,14|2,2:0|1:0,2:0:0:0:
187,122,72047,1,10,2:0:0:0:
227,342,72207,1,10,2:0:0:0:
41,167,72366,102,0,P|57:87|66:53,1,96.32,4|0,1:2|2:0,2:0:0:0:
207,247,72685,2,0,P|217:293|226:341,1,96.32,8|2,2:0|2:0,2:0:0:0:
85,247,73005,1,10,1:3:0:0:
240,167,73164,1,8,2:3:0:0:
129,337,73324,1,6,1:3:0:0:
146,167,73483,1,6,2:3:0:0:
316,287,73643,86,0,P|410:284|442:186,1,175.44,4|2,1:2|2:0,2:0:0:0:
327,112,74122,1,2,1:0:0:0:
327,112,74281,2,0,P|344:180|352:212,1,87.72,8|0,2:0|2:0,2:0:0:0:
398,25,74600,1,10,2:3:0:0:
221,132,74760,1,10,2:0:0:0:
431,254,74919,6,0,P|435:236|452:168,1,87.72,4|0,1:2|2:0,2:0:0:0:
511,30,75239,2,0,P|459:45|403:62,1,87.72,2|2,1:0|1:0,2:0:0:0:
208,125,75558,2,0,P|264:89|361:155,1,175.44,8|8,2:0|2:3,2:0:0:0:
236,253,76036,1,8,2:0:0:0:
137,50,76196,102,0,B|107:77|78:96|78:96|108:165|112:207,1,175.44,4|0,1:2|2:0,2:0:0:0:
146,376,76675,1,0,1:0:0:0:
247,259,76834,2,0,B|201:238|160:268|175:282|124:307|74:280,1,175.44,8|8,2:0|2:3,2:0:0:0:
0,124,77313,1,8,2:0:0:0:
115,204,77473,6,0,P|127:148|144:101,1,87.72,4|0,1:2|2:0,2:0:0:0:
0,11,77792,2,0,P|12:52|21:96,1,87.72,0|0,1:0|1:3,2:0:0:0:
232,208,78111,2,0,B|275:164|331:175|331:175|363:225|412:220,1,175.44,8|8,2:0|2:3,2:0:0:0:
512,95,78590,1,8,2:0:0:0:
452,287,78749,101,4,1:2:0:0:
352,91,79068,1,0,1:0:0:0:
287,347,79388,1,8,1:3:0:0:
484,169,79707,1,8,1:3:0:0:
231,36,80026,5,8,1:2:0:0:
385,344,80345,1,8,1:2:0:0:
414,1,80664,1,8,1:2:0:0:
269,336,80983,1,12,1:2:0:0:
330,75,81302,101,4,1:2:0:0:
309,161,82579,1,4,1:2:0:0:
286,251,83536,1,2,3:0:0:0:
286,251,83616,1,2,3:0:0:0:
286,251,83696,2,0,P|295:282|305:309,1,43.86,2|2,3:0|3:0,2:0:0:0:
401,325,83856,54,0,B|352:299|308:326|321:348|280:371|226:345,1,175.44,6|8,1:2|2:0,2:0:0:0:
115,233,84334,2,0,P|140:314|148:346,1,87.72,2|0,1:0|2:0,2:0:0:0:
175,131,84654,1,0,1:0:0:0:
0,264,84813,2,0,P|13:222|25:180,1,87.72,10|0,2:0|2:0,2:0:0:0:
77,2,85132,5,2,1:0:0:0:
175,178,85292,1,2,1:0:0:0:
0,87,85451,1,8,2:0:0:0:
187,9,85611,1,2,3:0:0:0:
187,9,85691,1,0,3:0:0:0:
187,9,85771,2,0,P|165:71|155:107,1,87.72,2|0,1:0|1:0,2:0:0:0:
293,255,86090,1,10,2:0:0:0:
272,62,86249,1,2,1:0:0:0:
147,196,86409,102,0,B|189:212|235:189|224:173|262:139|332:168,1,175.44,6|8,1:2|2:0,2:0:0:0:
482,294,86888,1,0,1:0:0:0:
324,368,87047,2,0,P|309:298|305:271,1,87.7200005354004,2|0,0:0|1:0,0:0:0:0:
494,106,87366,2,0,P|486:149|475:191,1,87.72,8|2,2:0|3:0,2:0:0:0:
504,325,87685,6,0,P|461:317|419:306,1,87.72,2|0,1:0|1:0,2:0:0:0:
326,77,88005,1,8,2:0:0:0:
408,267,88164,1,2,1:0:0:0:
434,53,88324,1,2,2:0:0:0:
288,200,88483,1,2,1:0:0:0:
452,33,88643,1,10,2:0:0:0:
259,112,88802,101,0,3:0:0:0:
259,112,88882,1,0,3:0:0:0:
259,112,88962,2,0,P|178:62|83:101,1,175.44,6|8,1:2|2:0,2:0:0:0:
1,258,89441,2,0,P|86:234|111:230,1,87.72,2|0,1:0|2:0,2:0:0:0:
0,126,89760,1,0,1:0:0:0:
96,340,89919,6,0,P|138:350|180:363,1,87.72,10|0,2:0|2:0,2:0:0:0:
335,230,90239,1,2,1:0:0:0:
171,165,90398,2,0,B|184:240|192:278,1,87.72,2|8,1:0|2:0,2:0:0:0:
325,383,90717,1,2,1:0:0:0:
379,163,90877,1,2,2:0:0:0:
253,325,91036,1,2,1:0:0:0:
232,100,91196,1,10,2:0:0:0:
431,263,91356,101,0,1:0:0:0:
431,263,91435,1,0,1:0:0:0:
431,263,91515,2,0,P|377:276|324:296,1,87.72,12|0,2:0|2:0,2:0:0:0:
87,135,91834,5,8,2:0:0:0:
365,193,91994,1,0,1:0:0:0:
85,260,92154,101,8,2:0:0:0:
321,83,92313,1,0,1:0:0:0:
284,346,92473,5,8,2:0:0:0:
182,72,92632,1,0,1:0:0:0:
182,72,92712,1,0,1:0:0:0:
182,72,92792,1,8,2:0:0:0:
103,345,92951,101,8,1:2:0:0:
283,132,93111,1,8,1:2:0:0:
85,366,93271,1,8,1:2:0:0:
9,174,93430,6,0,P|60:188|107:206,1,87.72,2|0,3:0|1:0,2:0:0:0:
184,237,93669,1,0,1:0:0:0:
184,237,93749,2,0,P|173:176|165:130,1,87.72,14|2,2:0|2:0,2:0:0:0:
269,28,94068,38,0,B|311:12|348:32|337:47|369:71|422:45,1,141.04,6|2,1:2|1:0,2:0:0:0:
511,5,94547,2,0,P|495:69|490:100,1,70.5200000000001,2|0,2:0|1:0,2:0:0:0:
451,213,94866,2,0,P|443:178|434:144,1,70.5200000000001,2|0,2:0|1:0,2:0:0:0:
383,283,95185,5,2,2:0:0:0:
383,283,95345,2,0,P|339:263|271:317,1,141.04,0|2,1:0|1:0,2:0:0:0:
124,344,95824,2,0,P|167:361|203:379,1,70.5200000000001,2|0,2:0|1:0,2:0:0:0:
83,235,96143,2,0,P|51:249|18:262,1,70.5200000000001,2|0,2:0|1:0,2:0:0:0:
189,250,96462,101,2,2:0:0:0:
189,250,96622,2,0,P|203:171|219:103,1,141.04,2|2,1:0|1:0,2:0:0:0:
91,21,97100,2,0,P|102:77|109:118,1,70.5200000000001,2|0,2:0|1:0,2:0:0:0:
278,7,97419,2,0,P|231:14|196:23,1,70.5200000000001,2|0,2:0|1:0,2:0:0:0:
32,103,97739,5,2,2:0:0:0:
32,103,97898,2,0,P|74:115|113:126,1,70.5200000000001,0|0,1:0|2:0,2:0:0:0:
221,206,98217,2,0,P|209:157|199:105,1,70.5200000000001,0|2,1:0|2:0,2:0:0:0:
148,278,98536,1,2,1:0:0:0:
311,192,98696,1,2,2:0:0:0:
127,294,98856,1,2,1:0:0:0:
266,337,99015,1,2,2:0:0:0:
173,180,99175,102,0,P|127:172|43:229,1,141.04,6|2,2:0|1:0,2:0:0:0:
0,343,99654,2,0,P|62:345|145:364,1,141.04,2|0,2:0|2:0,2:0:0:0:
265,225,100132,1,2,1:0:0:0:
131,268,100292,1,2,2:0:0:0:
251,378,100451,6,0,P|237:323|230:290,1,70.5200000000001,2|0,1:0|2:0,2:0:0:0:
356,214,100771,1,2,1:0:0:0:
356,214,100930,2,0,P|342:269|335:302,1,70.5200000000001,2|0,2:0|1:0,2:0:0:0:
184,207,101249,2,0,P|221:216|255:226,1,70.5200000000001,2|0,2:0|1:0,2:0:0:0:
414,133,101568,101,2,2:0:0:0:
414,133,101728,2,0,P|371:107|286:147,1,141.04,2|2,1:0|1:0,2:0:0:0:
186,21,102207,2,0,P|235:32|274:43,1,70.5200000000001,2|0,2:0|1:0,2:0:0:0:
204,194,102526,2,0,P|192:148|177:107,1,70.5200000000001,2|0,2:0|1:0,2:0:0:0:
173,305,102845,5,2,2:0:0:0:
173,305,103005,2,0,P|234:291|271:286,1,70.5200000000001,0|0,1:0|2:0,2:0:0:0:
96,208,103324,2,0,P|35:194|-2:189,1,70.5200000000001,0|0,1:0|2:0,2:0:0:0:
195,132,103643,1,0,1:0:0:0:
89,31,103802,1,0,3:0:0:0:
89,31,103882,1,0,3:0:0:0:
89,31,103962,2,0,P|99:86|105:121,1,70.5200000000001,2|10,1:0|2:0,2:0:0:0:
226,221,104281,102,0,B|276:179|337:210|315:243|376:269|439:221,1,211.56,6|0,1:2|2:0,2:0:0:0:
420,232,105079,2,0,P|429:181|434:142,1,70.5200000000001,2|0,1:2|3:0,2:0:0:0:
359,0,105398,54,0,B|329:19|304:31|304:31|331:81|336:143,1,158.24,6|10,1:2|2:3,2:0:0:0:
501,100,105877,2,0,P|450:80|418:70,1,79.12,10|2,2:0|2:0,2:0:0:0:
323,231,106196,2,0,P|374:211|406:201,1,79.12,0|0,1:0|2:0,2:0:0:0:
237,175,106515,1,10,2:0:0:0:
336,330,106675,1,2,2:0:0:0:
324,127,106834,6,0,P|282:88|181:103,1,158.24,2|10,1:0|2:0,2:0:0:0:
216,273,107313,2,0,P|235:207|246:172,1,79.12,2|0,2:0|1:0,2:0:0:0:
79,84,107632,2,0,P|91:126|99:164,1,79.12,2|8,2:0|2:0,2:0:0:0:
33,289,107951,102,0,P|96:273|127:267,1,79.12,2|0,2:0|1:0,2:0:0:0:
253,384,108271,1,2,2:0:0:0:
105,364,108430,1,10,2:0:0:0:
228,208,108590,2,0,P|216:245|205:283,1,79.12,2|0,2:0|1:0,2:0:0:0:
342,364,108909,1,0,3:0:0:0:
342,364,108989,1,0,3:0:0:0:
342,364,109068,2,0,P|321:307|310:267,1,79.12,10|0,2:0|2:0,2:0:0:0:
422,124,109388,6,0,P|458:170|412:261,1,158.24,2|10,1:0|2:0,2:0:0:0:
320,91,109866,2,0,P|334:35|344:-2,1,79.12,2|0,2:0|1:0,2:0:0:0:
361,189,110185,2,0,P|316:200|271:212,1,79.12,2|8,2:0|2:0,2:0:0:0:
150,110,110505,1,2,2:0:0:0:
289,304,110664,102,0,P|244:293|199:281,1,79.12,0|0,1:0|2:0,2:0:0:0:
44,214,110983,2,0,P|82:203|120:194,1,79.12,8|0,2:0|2:0,2:0:0:0:
294,194,111302,1,2,1:0:0:0:
120,91,111462,1,0,2:0:0:0:
183,286,111622,1,8,2:0:0:0:
107,70,111781,1,2,2:0:0:0:
41,250,111941,5,2,1:0:0:0:
201,132,112100,1,2,2:0:0:0:
201,132,112260,2,0,P|246:120|306:108,1,79.12,8|0,2:0|2:0,2:0:0:0:
417,269,112579,1,0,1:0:0:0:
263,224,112739,1,0,2:0:0:0:
382,91,112898,2,0,P|364:171|359:194,1,79.12,8|0,2:0|2:0,2:0:0:0:
491,334,113217,101,0,1:0:0:0:
463,157,113377,1,0,1:0:0:0:
330,285,113536,2,0,P|393:272|432:267,1,79.12,8|0,2:0|2:0,2:0:0:0:
268,186,113856,1,0,1:0:0:0:
238,374,114015,1,0,1:0:0:0:
279,165,114175,1,8,2:0:0:0:
125,296,114334,1,0,2:0:0:0:
345,294,114494,5,4,1:2:0:0:
173,163,114654,1,0,1:0:0:0:
173,163,114813,2,0,P|187:214|197:259,1,79.12,10|2,2:0|1:0,2:0:0:0:
264,81,115132,2,0,P|212:42|111:65,1,158.24,2|10,1:0|2:0,2:0:0:0:
0,171,115611,102,0,P|60:189|92:201,1,79.12,2|0,2:0|2:0,2:0:0:0:
220,307,115930,1,0,1:0:0:0:
161,126,116090,1,10,2:0:0:0:
127,351,116249,1,2,1:0:0:0:
247,196,116409,2,0,B|289:172|330:202|316:224|354:251|402:228,1,158.24,2|10,1:0|2:0,2:0:0:0:
512,120,116888,1,2,2:0:0:0:
367,52,117047,6,0,P|383:121|390:154,1,79.12,0|0,1:0|1:0,2:0:0:0:
483,270,117366,1,10,2:0:0:0:
304,191,117526,1,2,1:0:0:0:
492,95,117685,2,0,P|476:164|469:197,1,79.12,0|0,1:0|2:0,2:0:0:0:
511,362,118005,1,10,2:0:0:0:
335,275,118164,102,0,P|393:260|432:248,1,79.12,10|0,2:0|2:3,2:0:0:0:
231,173,118483,1,0,1:0:0:0:
281,370,118643,1,8,0:0:0:0:
281,370,118802,2,0,P|242:359|204:349,1,79.12,2|0,2:0|1:3,2:0:0:0:
43,319,119122,1,0,1:0:0:0:
181,176,119281,2,0,P|160:240|149:273,1,79.12,10|0,2:0|2:0,2:0:0:0:
78,100,119600,6,0,P|128:57|247:82,1,175.44,14|10,2:0|2:0,2:0:0:0:
300,230,120079,2,0,P|228:207|188:199,1,87.72,2|0,2:0|1:0,2:0:0:0:
372,151,120398,1,10,2:0:0:0:
281,338,120558,1,0,1:0:0:0:
383,130,120717,1,2,1:0:0:0:
425,345,120877,102,0,P|467:334|510:326,1,87.72,8|0,2:0|2:0,2:0:0:0:
394,109,121196,1,2,1:0:0:0:
336,290,121356,1,8,2:0:0:0:
512,147,121515,2,0,P|499:79|489:37,1,87.72,2|0,1:0|1:0,2:0:0:0:
381,209,121834,2,0,P|371:251|363:295,1,87.72,10|0,2:0|1:0,2:0:0:0:
260,33,122154,5,2,1:0:0:0:
290,223,122313,1,8,2:0:0:0:
415,38,122473,1,8,2:0:0:0:
280,251,122632,1,2,1:0:0:0:
144,105,122792,101,2,1:0:0:0:
373,177,122951,1,8,2:0:0:0:
177,285,123111,1,2,1:0:0:0:
314,100,123271,1,2,1:0:0:0:
395,265,123430,6,0,B|348:281|312:249|326:235|279:202|225:226,1,175.44,12|0,2:0|1:0,2:0:0:0:
79,364,123909,1,8,2:0:0:0:
252,315,124068,1,4,1:2:0:0:
67,224,124228,1,0,1:0:0:0:
206,378,124388,1,8,2:0:0:0:
166,140,124547,1,8,2:0:0:0:
9,328,124707,38,0,P|100:305|173:293,1,141.04,4|2,1:2|1:0,2:0:0:0:
314,338,125185,1,2,2:0:0:0:
155,186,125345,2,0,P|189:193|223:201,1,70.5200000000001,2|0,1:0|3:0,2:0:0:0:
314,235,125584,1,0,3:0:0:0:
314,235,125664,2,0,P|298:169|293:142,1,70.5200000000001,2|2,1:0|2:0,2:0:0:0:
369,9,125983,6,0,B|390:28|416:45|416:45|400:90|394:128,1,141.04,0|2,1:0|1:0,2:0:0:0:
242,96,126462,1,2,2:0:0:0:
242,96,126622,2,0,P|305:79|334:74,1,70.5200000000001,2|0,1:0|3:0,2:0:0:0:
396,217,126941,2,0,P|361:209|327:198,1,70.5200000000001,2|2,1:0|2:0,2:0:0:0:
141,167,127260,102,0,P|184:170|204:269,1,141.04,0|2,1:0|1:0,2:0:0:0:
146,354,127739,1,2,2:0:0:0:
146,354,127898,2,0,P|132:306|119:273,1,70.5200000000001,0|0,1:0|3:0,2:0:0:0:
69,221,128138,1,0,3:0:0:0:
69,221,128217,2,0,P|28:245|0:262,1,70.5200000000001,2|2,1:0|2:0,2:0:0:0:
86,95,128536,6,0,B|127:79|166:98|151:117|187:138|238:121,1,141.04,0|2,1:0|1:2,2:0:0:0:
335,7,129015,2,0,P|282:-10|217:58,1,141.04,2|0,2:0|1:0,2:0:0:0:
329,177,129494,2,0,P|319:123|311:82,1,70.5200000000001,8|2,2:0|2:0,2:0:0:0:
212,232,129813,38,0,P|205:266|197:315,1,79.12,6|2,1:2|2:0,2:0:0:0:
329,365,130132,1,8,1:2:0:0:
329,365,130212,1,8,2:0:0:0:
329,365,130292,2,0,P|362:353|392:344,1,43.86,8|8,2:0|2:0,2:0:0:0:
486,269,130451,2,0,P|424:255|380:248,1,87.72,8|8,1:2|2:0,2:0:0:0:
250,217,130771,1,8,1:2:0:0:
344,115,130930,2,0,P|332:156|324:184,1,43.86,8|8,2:0|2:0,2:0:0:0:
183,295,131090,5,8,1:2:0:0:
183,295,131169,1,8,2:0:0:0:
183,295,131249,2,0,P|165:263|152:240,1,43.86,8|8,2:0|2:0,2:0:0:0:
48,174,131409,2,0,P|80:183|115:194,1,43.86,8|8,1:2|2:0,2:0:0:0:
236,132,131568,102,0,P|210:148|192:161,3,43.86,8|8|8|8,2:0|2:0|1:2|2:0,2:0:0:0:
92,45,131888,1,8,2:0:0:0:
92,45,131967,1,8,2:0:0:0:
92,45,132047,2,0,P|118:61|136:74,3,43.86,8|8|8|8,1:2|2:0|2:0|2:0,2:0:0:0:
216,28,132366,6,0,P|265:13|350:143,1,211.56,4|2,1:2|2:0,2:0:0:0:
511,227,133005,102,0,B|445:192|394:238|424:271|352:318|283:263,1,237.36,12|0,1:2|2:0,2:0:0:0:
206,121,133643,6,0,B|157:149|111:165|111:165|147:236|168:331,1,263.16,4|0,1:2|2:0,2:0:0:0:
323,255,134281,102,0,P|259:228|226:216,1,87.72,6|0,1:2|2:0,2:0:0:0:
31,182,134600,1,2,2:0:0:0:
31,182,134680,1,2,2:0:0:0:
31,182,134760,2,0,P|68:172|91:163,1,43.86,2|2,2:0|2:0,2:0:0:0:
163,35,134919,86,0,B|210:9|269:41|243:69|294:104|356:65,1,192.64,6|8,1:2|2:0,2:0:0:0:
483,31,135398,1,0,2:0:0:0:
321,197,135558,1,0,1:0:0:0:
494,7,135717,1,8,2:3:0:0:
511,196,135877,2,0,P|452:179|395:167,1,96.32,10|2,2:0|2:0,2:0:0:0:
245,312,136196,6,0,P|341:339|413:265,1,192.64,0|8,1:0|2:0,2:0:0:0:
304,85,136675,1,2,2:0:0:0:
512,217,136834,1,2,1:0:0:0:
316,246,136994,1,8,2:3:0:0:
440,58,137154,2,0,P|424:136|417:176,1,96.32,10|0,2:0|2:0,2:0:0:0:
226,296,137473,102,0,B|197:266|170:248|170:248|193:197|209:129,1,192.64,2|10,1:0|2:0,2:0:0:0:
57,24,137951,2,0,P|80:104|92:152,1,96.32,2|0,2:0|1:0,2:0:0:0:
295,37,138271,2,0,P|231:11|187:-2,1,96.32,10|8,2:3|2:0,2:0:0:0:
32,201,138590,1,2,1:0:0:0:
229,117,138749,5,0,1:0:0:0:
26,12,138909,1,0,1:0:0:0:
151,238,139068,2,0,P|217:222|270:211,1,96.32,8|2,2:0|2:0,2:0:0:0:
403,71,139388,1,2,1:0:0:0:
336,297,139547,1,8,2:3:0:0:
266,96,139707,1,10,2:0:0:0:
456,243,139866,101,8,2:0:0:0:
456,243,139946,1,8,2:0:0:0:
456,243,140026,2,0,B|401:223|359:259|384:287|337:322|276:301,1,192.64,4|10,1:2|2:0,2:0:0:0:
151,157,140505,2,0,P|174:238|182:277,1,96.32,2|0,2:0|1:0,2:0:0:0:
217,66,140824,1,10,2:3:0:0:
49,210,140983,1,8,2:0:0:0:
288,209,141143,1,2,2:0:0:0:
140,26,141302,6,0,P|79:10|2:120,1,192.64,2|10,1:0|2:0,2:0:0:0:
139,288,141781,1,2,2:0:0:0:
228,75,141941,1,0,1:0:0:0:
132,316,142100,1,8,2:3:0:0:
4,124,142260,2,0,P|70:139|119:155,1,96.32,10|4,2:0|2:3,2:0:0:0:
308,290,142579,102,0,P|242:305|193:321,1,96.32,12|0,2:0|1:0,2:0:0:0:
344,100,142898,5,8,2:0:0:0:
444,357,143058,1,0,1:0:0:0:
480,57,143217,101,12,2:0:0:0:
339,300,143377,1,0,1:0:0:0:
294,4,143536,5,8,2:0:0:0:
446,244,143696,1,0,1:0:0:0:
446,244,143776,1,0,1:0:0:0:
446,244,143856,2,0,P|461:174|470:141,1,96.32,12|0,2:0|1:0,2:0:0:0:
284,272,144175,101,8,2:0:0:0:
505,342,144334,1,0,1:0:0:0:
345,120,144494,2,0,P|290:134|234:152,1,96.32,12|0,2:0|1:0,2:0:0:0:
159,343,144813,1,8,2:0:0:0:
106,89,144973,5,8,2:0:0:0:
106,89,145052,1,8,2:0:0:0:
106,89,145132,2,0,P|200:117|192:212,1,192.64,4|8,1:2|2:0,2:0:0:0:
58,337,145611,1,0,2:0:0:0:
275,281,145771,1,0,1:0:0:0:
66,181,145930,1,8,2:3:0:0:
211,364,146090,2,0,P|279:376|320:378,1,96.32,10|2,2:0|2:0,2:0:0:0:
415,141,146409,102,0,B|387:165|344:182|344:182|366:230|385:316,1,192.64,0|8,1:0|2:0,2:0:0:0:
511,127,146888,1,2,2:0:0:0:
304,74,147047,1,2,1:0:0:0:
480,230,147207,1,8,2:3:0:0:
384,2,147366,1,10,2:0:0:0:
287,243,147526,5,0,1:0:0:0:
287,243,147606,1,0,1:0:0:0:
287,243,147685,2,0,B|247:199|187:211|187:211|159:265|100:265,1,192.64,12|10,2:0|2:3,2:0:0:0:
0,73,148164,2,0,P|49:60|100:171,1,192.64,14|2,2:0|1:0,2:0:0:0:
241,338,148643,1,10,2:0:0:0:
215,116,148802,1,10,2:0:0:0:
48,274,148962,102,0,P|120:262|170:257,1,96.32,4|0,1:2|2:0,2:0:0:0:
328,139,149281,2,0,P|280:132|232:124,1,96.32,8|2,2:0|2:0,2:0:0:0:
406,215,149600,1,10,1:3:0:0:
326,33,149760,1,8,2:3:0:0:
294,250,149919,1,6,1:3:0:0:
414,113,150079,1,6,2:3:0:0:
442,333,150239,86,0,B|396:308|356:337|374:365|319:384|265:357,1,175.44,6|2,1:2|1:0,2:0:0:0:
74,293,150717,1,10,2:3:0:0:
236,206,150877,2,0,P|199:307|179:373,1,175.44,8|2,2:0|1:0,2:0:0:0:
152,133,151356,1,10,2:0:0:0:
320,273,151515,5,0,1:0:0:0:
96,281,151675,1,8,2:0:0:0:
264,161,151834,1,10,2:0:0:0:
65,300,151994,1,2,1:0:0:0:
289,377,152154,2,0,P|279:348|267:313,1,43.8600002677002,10|2,0:2|0:2,0:0:0:0:
162,159,152313,2,0,P|154:179|147:200,1,43.8600002677002,10|2,0:0|0:0,0:0:0:0:
78,382,152473,1,2,1:0:0:0:
315,138,152632,69,8,2:0:0:0:
315,138,152712,1,8,2:0:0:0:
315,138,152792,2,0,P|352:89|474:119,2,175.44,6|8|2,1:2|2:0|1:0,2:0:0:0:
253,329,153590,1,10,2:3:0:0:
163,138,153749,1,10,2:0:0:0:
328,245,153909,6,0,P|249:228|211:219,1,87.72,2|0,1:0|1:0,2:0:0:0:
109,343,154228,1,2,2:0:0:0:
222,127,154388,2,0,P|179:136|136:145,1,87.72,10|0,2:0|2:0,2:0:0:0:
25,298,154707,1,0,1:0:0:0:
212,239,154866,1,8,2:3:0:0:
35,125,155026,1,10,2:0:0:0:
132,330,155185,102,0,P|119:265|106:214,1,87.72,2|0,2:0|1:0,2:0:0:0:
258,75,155505,1,2,2:0:0:0:
58,134,155664,2,0,P|128:149|176:164,1,87.72,8|0,2:0|2:0,2:0:0:0:
331,235,155983,1,2,1:0:0:0:
191,47,156143,1,10,2:3:0:0:
217,274,156302,1,8,2:0:0:0:
352,91,156462,6,0,B|406:65|446:104|434:119|463:154|529:133,1,175.44,2|0,1:0|1:0,2:0:0:0:
391,320,156941,2,0,P|378:247|370:211,1,87.72,8|2,2:0|2:0,2:0:0:0:
272,58,157260,1,2,1:0:0:0:
234,270,157419,1,10,2:3:0:0:
402,126,157579,1,10,2:0:0:0:
161,189,157739,101,10,2:0:0:0:
161,189,157818,1,8,2:0:0:0:
161,189,157898,2,0,P|91:192|51:99,1,175.44,6|8,1:2|2:0,2:0:0:0:
251,26,158377,2,0,P|240:89|234:138,1,87.72,2|0,2:0|1:0,2:0:0:0:
313,282,158696,1,2,1:0:0:0:
143,114,158856,2,0,P|154:177|160:226,1,87.72,8|0,2:0|2:0,2:0:0:0:
300,361,159175,6,0,B|325:339|362:322|362:322|341:269|332:208,1,175.44,2|8,1:0|2:0,2:0:0:0:
467,116,159654,2,0,P|451:178|444:222,1,87.72,2|0,2:0|1:0,2:0:0:0:
253,161,159973,1,8,2:3:0:0:
353,17,160132,2,0,P|369:79|376:123,1,87.72,10|2,2:0|2:0,2:0:0:0:
243,290,160451,102,0,B|198:310|154:288|167:265|123:237|67:270,1,175.44,4|0,1:2|1:0,2:0:0:0:
16,68,160930,2,0,P|65:45|133:138,1,175.44,12|8,2:0|2:0,2:0:0:0:
112,350,161409,5,4,1:2:0:0:
229,179,161568,1,2,2:0:0:0:
95,372,161728,1,0,1:0:0:0:
318,272,161888,101,12,2:0:0:0:
102,154,162047,1,2,2:0:0:0:
206,384,162207,1,8,2:0:0:0:
282,87,162366,5,4,1:2:0:0:
139,277,162526,1,8,2:0:0:0:
369,208,162685,1,8,2:0:0:0:
108,120,162845,1,0,1:0:0:0:
269,325,163005,102,0,P|327:314|386:307,1,87.72,4|0,1:2|2:0,2:0:0:0:
471,132,163324,2,0,P|424:111|343:198,1,175.44,10|0,2:0|1:0,2:0:0:0:
452,330,163802,1,10,2:3:0:0:
234,161,163962,2,0,P|259:222|274:260,1,87.72,8|0,2:0|1:0,2:0:0:0:
307,29,164281,6,0,B|256:6|215:33|229:60|178:82|127:48,1,175.44,2|8,1:2|2:0,2:0:0:0:
34,237,164760,1,2,2:0:0:0:
221,155,164919,1,0,1:0:0:0:
30,76,165079,1,8,2:3:0:0:
137,264,165239,2,0,P|129:203|122:161,1,87.72,10|0,2:0|2:0,2:0:0:0:
307,29,165558,102,0,B|328:57|359:78|359:78|337:115|322:188,1,175.44,6|10,1:2|2:0,2:0:0:0:
282,348,166036,1,8,2:0:0:0:
282,348,166116,1,8,2:0:0:0:
282,348,166196,1,2,1:0:0:0:
201,151,166356,1,10,2:0:0:0:
400,271,166515,1,8,2:0:0:0:
137,286,166675,6,0,P|268:239|318:223,1,175.44,6|0,1:2|1:0,2:0:0:0:
345,223,167074,1,0,3:0:0:0:
345,223,167154,1,10,3:2:0:0:
512,135,167313,1,8,2:0:0:0:
384,317,167473,1,10,2:3:0:0:
339,92,167632,1,4,2:3:0:0:
490,265,167792,1,8,2:0:0:0:
426,26,167951,5,8,2:0:0:0:
426,26,168031,1,8,2:0:0:0:
426,26,168111,2,0,B|450:47|484:62|484:62|461:105|443:190,1,175.44,4|0,1:2|1:0,2:0:0:0:
369,303,168589,2,0,P|431:292|466:288,1,87.7200005354004,0|0,3:0|1:0,0:0:0:0:
263,207,168908,5,0,3:0:0:0:
263,207,168988,1,0,3:0:0:0:
263,207,169068,2,0,P|202:189|169:179,1,87.72,0|0,1:0|3:0,2:0:0:0:
360,127,169387,1,0,1:0:0:0:
193,290,169547,2,0,P|93:312|14:333,1,175.44,0|0,3:0|3:0,2:0:0:0:
1,351,169946,1,0,3:0:0:0:
1,351,170025,1,8,1:2:0:0:
186,384,170185,1,8,1:2:0:0:
66,157,170345,102,0,B|122:134|163:163|153:176|191:202|263:168,1,175.44,4|0,1:2|1:0,2:0:0:0:
300,27,170823,2,0,P|243:44|203:59,1,87.7200005354004,0|0,3:0|1:0,0:0:0:0:
397,94,171142,5,0,3:0:0:0:
397,94,171222,1,0,3:0:0:0:
397,94,171302,2,0,P|414:24|420:-14,1,87.72,0|0,1:0|3:0,2:0:0:0:
314,158,171621,1,0,1:0:0:0:
486,96,171781,2,0,P|503:204|514:280,1,175.44,0|0,3:0|3:0,2:0:0:0:
509,299,172180,1,0,3:0:0:0:
509,299,172259,1,8,1:2:0:0:
334,173,172419,1,8,1:2:0:0:
508,379,172579,70,0,P|427:355|396:347,1,87.72,4|8,1:2|2:0,2:0:0:0:
174,291,172898,1,8,2:0:0:0:
379,124,173057,5,4,1:2:0:0:
291,343,173217,1,8,2:0:0:0:
192,94,173376,1,8,2:0:0:0:
474,243,173536,102,0,P|411:263|369:278,1,87.72,4|8,1:2|2:0,2:0:0:0:
197,381,173855,1,8,2:0:0:0:
296,130,174015,5,4,1:2:0:0:
386,368,174174,1,8,2:0:0:0:
286,103,174334,1,8,2:0:0:0:
108,301,174493,101,4,1:2:0:0:
351,198,174653,1,8,2:0:0:0:
351,198,174733,1,8,2:0:0:0:
351,198,174813,1,8,2:0:0:0:
146,55,174972,2,0,P|162:115|175:177,1,87.72,4|0,1:2|2:0,2:0:0:0:
203,353,175291,5,8,1:2:0:0:
261,195,175451,1,8,1:2:0:0:
102,305,175610,1,8,1:2:0:0:
330,270,175770,1,8,1:2:0:0:
124,178,175930,1,8,1:2:0:0:
288,362,176089,1,8,1:2:0:0:
235,103,176249,1,8,1:2:0:0:
197,382,176408,101,8,1:2:0:0:
325,141,176568,1,8,1:2:0:0:
393,375,176727,1,8,1:2:0:0:
235,88,176887,1,8,1:2:0:0:
295,358,177047,1,8,1:2:0:0:
365,40,177206,1,8,1:2:0:0:
371,288,177366,1,8,1:2:0:0:
283,8,177525,1,8,1:2:0:0:
247,248,177685,5,4,1:2:0:0:
160,72,187898,6,0,P|175:121|185:158,1,70.5200000000001,6|2,1:2|2:0,2:0:0:0:
263,238,188217,2,0,P|272:204|283:170,1,70.5200000000001,2|0,1:2|2:0,2:0:0:0:
358,65,188536,1,2,1:0:0:0:
400,203,188696,1,2,2:0:0:0:
348,41,188855,1,2,1:0:0:0:
479,232,189015,6,0,P|439:218|377:304,1,141.04,2|2,2:0|2:0,2:0:0:0:
222,188,189493,1,2,1:0:0:0:
261,346,189653,2,0,P|275:294|287:261,1,70.5200000000001,2|0,2:0|1:0,2:0:0:0:
153,130,189972,1,2,2:0:0:0:
339,198,190132,1,2,1:0:0:0:
159,261,190291,1,8,2:0:0:0:
284,81,190451,102,0,P|355:62|387:56,1,87.72,6|0,1:2|2:0,2:0:0:0:
151,227,190770,2,0,P|80:208|48:202,1,87.72,10|0,2:0|2:0,2:0:0:0:
314,218,191089,2,0,P|336:300|349:335,1,87.72,6|0,1:2|2:0,2:0:0:0:
209,134,191408,1,10,2:0:0:0:
416,210,191568,1,10,2:0:0:0:
235,339,191727,2,0,P|174:326|121:319,1,87.72,4|0,1:2|2:0,2:0:0:0:
28,151,192047,5,8,2:0:0:0:
213,221,192206,1,8,2:0:0:0:
27,294,192366,1,8,2:0:0:0:
234,214,192525,1,8,2:0:0:0:
120,341,192685,1,8,1:3:0:0:
157,144,192844,1,8,2:3:0:0:
268,316,193004,38,0,P|343:299|381:293,1,87.72,6|0,1:2|1:0,2:0:0:0:
505,361,193323,1,10,2:0:0:0:
324,189,193483,2,0,P|367:197|409:207,1,87.72,2|0,1:0|1:0,2:0:0:0:
511,67,193802,2,0,P|467:75|425:85,1,87.72,2|8,2:0|2:0,2:0:0:0:
222,218,194121,6,0,P|277:204|274:74,1,175.44,10|0,2:0|1:0,2:0:0:0:
147,9,194600,2,0,P|173:78|185:108,1,87.72,8|0,2:0|1:0,2:0:0:0:
30,206,194919,2,0,P|45:165|61:124,1,87.72,2|0,2:0|1:0,2:0:0:0:
184,298,195238,2,0,P|122:308|78:321,1,87.72,10|0,2:0|2:0,2:0:0:0:
247,140,195557,102,0,B|266:207|277:245,1,87.72,12|0,2:0|1:0,2:0:0:0:
406,362,195876,5,8,2:0:0:0:
171,262,196036,1,0,1:0:0:0:
451,195,196196,101,8,2:0:0:0:
232,367,196355,1,0,1:0:0:0:
322,87,196515,5,8,2:0:0:0:
471,310,196674,1,8,2:0:0:0:
236,194,196834,101,12,1:2:0:0:
501,137,196993,1,8,1:2:0:0:
318,325,197153,1,8,1:2:0:0:
318,69,197313,1,8,1:2:0:0:
495,285,197472,1,8,1:2:0:0:
217,269,197632,1,8,1:2:0:0:
422,62,197791,1,8,1:2:0:0:
408,357,197951,1,8,1:2:0:0:
283,183,198110,5,2,2:0:0:0:
0,288,199387,38,0,B|88:191|219:283|155:364|276:438|377:329,1,423.12,4|2,1:2|3:0,2:0:0:0:
332,0,200664,6,0,B|278:40|171:68|171:68|253:157|279:293,1,423.12,4|2,1:2|3:0,2:0:0:0:
493,154,201940,6,0,P|456:105|361:121,1,144.48,14|0,1:2|2:0,2:0:0:0:
352,129,202259,1,2,1:0:0:0:
266,291,202419,2,0,P|344:267|452:241,1,192.64,14|2,1:2|1:0,2:0:0:0:
252,175,202898,1,8,2:0:0:0:
375,357,203057,1,2,1:0:0:0:
361,125,203217,6,0,P|373:72|390:18,1,96.32,4|0,1:2|1:0,2:0:0:0:
236,189,203536,2,0,P|249:235|260:282,1,96.32,8|2,2:0|2:0,2:0:0:0:
263,65,203855,2,0,P|191:46|145:40,1,96.32,2|0,1:0|1:0,2:0:0:0:
4,204,204174,1,10,2:0:0:0:
51,12,204334,69,10,2:0:0:0:
51,12,204414,1,8,2:0:0:0:
51,12,204493,2,0,P|70:84|73:97,1,70.5200000000001,4|0,1:2|2:0,2:0:0:0:
164,132,204813,2,0,P|145:204|142:217,1,70.5200000000001,2|2,1:2|2:0,2:0:0:0:
73,338,205132,2,0,P|64:303|54:269,1,70.5200000000001,0|2,1:2|2:0,2:0:0:0:
199,304,205451,2,0,P|251:317|290:329,1,70.5200000000001,0|2,1:2|2:0,2:0:0:0:
350,348,205690,5,0,2:0:0:0:
350,348,205770,2,0,P|342:292|338:255,1,70.5200000000001,6|0,1:2|2:0,2:0:0:0:
462,196,206089,2,0,P|457:230|452:265,1,70.5200000000001,2|2,1:2|2:0,2:0:0:0:
342,155,206408,2,0,P|336:120|332:85,1,70.5200000000001,0|0,1:2|2:0,2:0:0:0:
437,17,206727,1,10,2:0:0:0:
242,134,206887,37,8,2:0:0:0:
242,134,206967,1,8,2:0:0:0:
242,134,207047,2,0,P|191:118|150:111,1,70.5200000000001,12|0,1:2|2:0,2:0:0:0:
74,240,207366,5,8,1:2:0:0:
303,185,207525,1,8,1:2:0:0:
26,108,207685,1,8,1:2:0:0:
311,279,207844,1,8,1:2:0:0:
26,348,208004,1,8,1:2:0:0:
310,153,208164,1,8,1:2:0:0:
461,278,209600,70,0,P|381:211|279:259,1,192.64,6|8,1:2|2:0,2:0:0:0:
153,369,210079,1,0,2:0:0:0:
356,323,210238,1,0,1:0:0:0:
159,192,210398,1,8,2:3:0:0:
252,380,210557,2,0,P|243:310|238:264,1,96.32,10|2,2:0|2:0,2:0:0:0:
101,113,210876,6,0,B|67:130|29:144|29:144|60:208|67:254,1,192.64,0|8,1:2|2:0,2:0:0:0:
225,103,211355,1,2,2:0:0:0:
28,38,211515,1,2,1:0:0:0:
151,209,211674,1,8,2:3:0:0:
13,14,211834,1,10,2:0:0:0:
253,177,211993,101,0,1:0:0:0:
253,177,212073,1,0,1:0:0:0:
253,177,212153,2,0,B|303:197|353:166|326:135|368:99|433:125,1,192.64,12|10,2:0|2:3,2:0:0:0:
500,339,212632,2,0,P|444:364|360:271,1,192.64,14|4,2:0|2:3,2:0:0:0:
495,67,213110,1,10,2:0:0:0:
448,269,213270,1,10,2:0:0:0:
308,102,213430,6,0,P|384:114|420:123,1,96.32,4|0,1:2|2:0,2:0:0:0:
242,267,213749,2,0,P|194:276|147:283,1,96.32,10|2,2:0|1:0,2:0:0:0:
13,123,214068,1,8,1:3:0:0:
174,185,214227,1,8,2:3:0:0:
6,262,214387,1,4,1:3:0:0:
117,101,214547,1,4,2:3:0:0:
201,313,214706,102,0,P|289:338|356:242,1,192.64,6|10,1:2|2:0,2:0:0:0:
217,110,215185,2,0,P|239:171|254:225,1,96.32,2|0,2:0|1:0,2:0:0:0:
176,343,215504,1,10,2:3:0:0:
372,188,215664,2,0,P|350:249|335:303,1,96.32,8|2,2:0|2:0,2:0:0:0:
331,59,215983,2,0,P|405:49|451:45,1,96.32,4|0,1:2|2:0,2:0:0:0:
512,21,216222,5,8,2:0:0:0:
512,21,216302,2,0,P|498:89|487:140,1,96.32,8|8,1:2|2:0,2:0:0:0:
430,167,216541,1,8,2:0:0:0:
430,167,216621,2,0,P|444:235|455:286,1,96.32,8|8,1:2|2:0,2:0:0:0:
466,350,216860,101,8,2:0:0:0:
466,350,216940,2,0,P|499:339|526:330,1,48.16,8|8,1:2|2:0,2:0:0:0:
360,232,217100,2,0,P|327:221|300:212,1,48.16,8|8,2:0|2:0,2:0:0:0:
216,130,217259,6,0,B|184:153|152:167|152:167|176:221|191:279,1,192.64,6|8,1:2|2:0,2:0:0:0:
365,143,217738,1,0,2:0:0:0:
291,329,217898,1,0,1:0:0:0:
224,120,218057,1,8,2:3:0:0:
417,259,218217,2,0,P|350:244|307:235,1,96.32,10|2,2:0|2:0,2:0:0:0:
120,99,218536,102,0,P|142:52|286:52,1,192.64,0|8,1:2|2:0,2:0:0:0:
414,221,219015,1,2,2:0:0:0:
214,135,219174,1,2,1:0:0:0:
426,76,219334,1,8,2:3:0:0:
256,248,219493,2,0,P|187:259|140:265,1,96.32,10|0,2:0|1:0,2:0:0:0:
97,219,219733,5,0,1:0:0:0:
97,219,219813,2,0,B|160:203|190:244|179:266|222:301|285:277,1,192.64,12|0,2:0|1:0,2:0:0:0:
427,154,220291,1,0,1:0:0:0:
251,55,220451,2,0,P|271:119|283:167,1,96.32,12|0,2:0|1:0,2:0:0:0:
383,333,220770,1,8,2:0:0:0:
432,127,220930,1,8,2:0:0:0:
369,353,221089,70,0,B|263:433|159:347|211:263|98:154|-4:261,1,447.200000000001,4|0,1:2|2:0,2:0:0:0:
202,50,223004,6,0,B|230:80|261:101|261:101|229:149|224:209,1,185.76,6|0,3:0|2:0,2:0:0:0:
348,318,223642,102,0,P|449:299|444:212,1,175.44,6|2,1:2|2:0,2:0:0:0:
295,105,224121,1,0,1:0:0:0:
457,145,224281,2,0,B|409:133|369:171|386:196|349:232|291:210,1,175.44,10|2,2:0|1:0,2:0:0:0:
159,92,224759,1,10,2:0:0:0:
194,269,224919,6,0,P|211:210|228:164,1,87.72,0|0,1:0|2:0,2:0:0:0:
57,86,225238,2,0,P|71:127|82:169,1,87.72,2|2,1:0|2:0,2:0:0:0:
330,112,225557,2,0,P|263:81|156:49,1,175.44,8|2,2:0|1:0,2:0:0:0:
217,249,226036,1,10,2:0:0:0:
22,204,226196,102,0,P|76:147|176:184,1,175.44,4|0,1:2|1:0,2:0:0:0:
247,357,226674,1,8,2:3:0:0:
89,303,226834,2,0,P|199:267|268:250,1,175.44,8|0,2:0|1:0,2:0:0:0:
453,263,227313,1,8,2:0:0:0:
319,127,227472,2,0,P|340:186|356:237,1,87.72,0|0,1:0|2:0,2:0:0:0:
436,363,227791,2,0,P|449:321|464:280,1,87.72,0|8,1:0|2:3,2:0:0:0:
376,47,228110,6,0,B|340:6|282:27|282:27|253:81|201:89,1,175.44,8|0,2:0|1:0,2:0:0:0:
346,219,228589,1,8,2:0:0:0:
137,89,228749,101,4,1:2:0:0:
364,33,229068,1,0,1:0:0:0:
204,244,229387,1,8,1:3:0:0:
251,10,229706,1,8,1:3:0:0:
383,292,230025,5,8,1:2:0:0:
47,217,230344,1,8,1:2:0:0:
373,85,230664,1,8,1:2:0:0:
167,371,230983,1,12,1:2:0:0:
198,150,231302,101,2,2:0:0:0:
216,242,232617,1,2,2:0:0:0:
238,327,233932,6,0,B|325:383|413:293|343:250|416:168|509:216,1,330.24,2|0,2:0|2:0,2:0:0:0:
296,21,236192,1,10,2:0:0:0:
296,21,236271,1,2,2:0:0:0:
296,21,236351,2,0,P|305:60|309:81,1,43,2|2,2:0|2:0,2:0:0:0:
368,137,236511,38,0,P|336:97|211:117,1,175.44,4|8,1:2|2:0,2:0:0:0:
128,259,236989,2,0,P|209:234|241:226,1,87.72,2|0,1:0|2:0,2:0:0:0:
36,183,237308,1,2,1:0:0:0:
216,354,237468,2,0,P|258:367|300:379,1,87.72,10|0,2:0|2:0,2:0:0:0:
461,151,237787,5,2,1:0:0:0:
280,264,237947,1,2,1:0:0:0:
472,287,238106,1,8,2:0:0:0:
354,146,238266,1,2,3:0:0:0:
354,146,238346,1,0,3:0:0:0:
354,146,238425,2,0,P|366:187|382:229,1,87.72,2|0,1:0|2:0,2:0:0:0:
512,52,238745,1,10,2:0:0:0:
471,253,238904,1,2,1:0:0:0:
370,31,239064,102,0,B|328:15|282:38|293:54|255:88|185:59,1,175.44,6|8,1:2|2:0,2:0:0:0:
42,197,239542,1,0,0:0:0:0:
256,246,239702,1,2,1:0:0:0:
113,68,239862,1,2,1:0:0:0:
164,286,240021,2,0,P|150:225|143:181,1,87.72,10|2,2:0|3:0,2:0:0:0:
345,114,240340,6,0,P|337:157|326:199,1,87.72,2|0,1:0|1:0,2:0:0:0:
236,364,240659,1,8,2:0:0:0:
228,148,240819,1,2,1:0:0:0:
393,306,240979,1,2,1:0:0:0:
169,253,241138,1,2,1:0:0:0:
421,318,241298,1,10,2:0:0:0:
264,90,241457,101,0,3:0:0:0:
264,90,241537,1,0,3:0:0:0:
264,90,241617,2,0,B|229:106|199:115|199:115|224:167|234:221,1,175.44,6|8,1:2|2:0,2:0:0:0:
335,376,242096,2,0,P|345:333|358:291,1,87.72,2|0,1:0|2:0,2:0:0:0:
264,90,242415,1,0,1:0:0:0:
468,303,242574,6,0,P|454:261|444:218,1,87.72,10|0,2:0|2:0,2:0:0:0:
480,8,242893,1,2,1:0:0:0:
314,158,243053,2,0,B|387:142|427:137,1,87.72,2|8,1:0|2:0,2:0:0:0:
217,67,243372,1,2,1:0:0:0:
353,251,243532,1,2,2:0:0:0:
361,18,243691,1,2,1:0:0:0:
212,207,243851,1,10,2:0:0:0:
166,0,244011,101,0,2:0:0:0:
166,0,244090,1,0,2:0:0:0:
166,0,244170,2,0,P|112:13|59:33,1,87.72,14|0,2:0|2:0,2:0:0:0:
106,282,244489,5,8,2:0:0:0:
265,60,244649,1,0,1:0:0:0:
224,369,244808,101,8,2:0:0:0:
145,103,244968,1,0,1:0:0:0:
117,384,245128,5,8,2:0:0:0:
326,177,245287,1,0,1:0:0:0:
326,177,245367,1,0,1:0:0:0:
326,177,245447,1,8,2:0:0:0:
35,154,245606,101,8,1:2:0:0:
269,277,245766,1,8,1:2:0:0:
11,135,245925,1,8,1:2:0:0:
238,60,246085,5,0,3:0:0:0:
167,218,246245,1,0,3:0:0:0:
130,22,246404,1,8,2:0:0:0:
56,270,246564,102,0,B|161:333|266:250|171:157|292:71|393:147,1,423.12,4|0,1:2|2:0,2:0:0:0:
