osu file format v14

[General]
AudioFilename: audio.mp3
AudioLeadIn: 0
PreviewTime: 198350
Countdown: 0
SampleSet: Soft
StackLeniency: 0.7
Mode: 0
LetterboxInBreaks: 0
WidescreenStoryboard: 1

[Editor]
Bookmarks: 2154,7100,17473,27685,37898,43005,48111,53217,58324,68536,73643,78749,83856,94068,104281,114494,119600,124707,129813,134919,145132,150239,152792,168111,177685,187898,199387,201940,204493,209600,217259,221089,228749
DistanceSpacing: 1
BeatDivisor: 4
GridSize: 32
TimelineZoom: 2.7

[Metadata]
Title:Dear Brave
TitleUnicode:ディアブレイブ
Artist:Kano
ArtistUnicode:鹿乃
Creator:Kowari
Version:Easy
Source:ヘヴィーオブジェクト
Tags:heavy object ed ending nowhere japanese j-pop jpop pop female vocal singer utaite anime
BeatmapID:2684028
BeatmapSetID:1293358

[Difficulty]
HPDrainRate:2
CircleSize:2.8
OverallDifficulty:2
ApproachRate:3
SliderMultiplier:0.8
SliderTickRate:1

[Events]
//Background and Video events
0,0,"bg.jpg",0,0
//Break Periods
2,17034,26245
2,177885,186458
//Storyboard Layer 0 (Background)
//Storyboard Layer 1 (Fail)
//Storyboard Layer 2 (Pass)
//Storyboard Layer 3 (Foreground)
//Storyboard Layer 4 (Overlay)
//Storyboard Sound Samples

[TimingPoints]
2154,319.148936170213,4,2,1,60,1,0
7100,-100,4,2,1,70,0,0
27685,-100,4,2,1,60,0,0
37898,-100,4,2,1,65,0,0
43005,-100,4,2,1,55,0,0
48111,-100,4,2,1,65,0,0
53217,-100,4,2,1,70,0,0
58324,-100,4,2,1,80,0,1
73643,-100,4,2,1,70,0,0
78749,-100,4,2,1,55,0,0
79387,-100,4,2,1,63,0,0
80026,-100,4,2,1,70,0,0
80664,-100,4,2,1,80,0,0
81302,-100,4,2,1,60,0,0
83856,-100,4,2,1,70,0,0
94068,-100,4,2,1,60,0,0
105398,-100,4,2,1,65,0,0
124707,-100,4,2,1,60,0,0
129813,-100,4,2,1,70,0,0
132366,-100,4,2,1,60,0,0
133005,-100,4,2,1,65,0,0
133643,-100,4,2,1,70,0,0
134919,-100,4,2,1,80,0,1
150239,-100,4,2,1,70,0,0
168111,319.148936170213,7,2,1,60,1,0
172579,319.148936170213,4,2,1,80,1,0
187898,-100,4,2,1,60,0,0
190451,-100,4,2,1,65,0,0
193004,-100,4,2,1,70,0,0
199387,-100,4,2,1,60,0,0
201940,-100,4,2,1,80,0,1
204493,-100,4,2,1,60,0,0
207047,-100,4,2,1,70,0,0
209600,-100,4,2,1,80,0,1
221089,-100,4,2,1,60,0,0
223642,-100,4,2,1,70,0,0
228749,-100,4,2,1,55,0,0
229387,-100,4,2,1,63,0,0
230025,-100,4,2,1,70,0,0
230664,-100,4,2,1,80,0,0
231302,328.767123287671,4,2,1,60,1,0
236192,319.148936170213,4,2,1,70,1,0
236511,319.148936170213,4,2,1,70,1,0
246563,-100,4,2,1,50,0,0
249276,-100,4,2,1,35,0,0
251830,-100,4,2,1,20,0,0
253106,-100,4,2,1,5,0,0

[Colours]
Combo1 : 192,192,192
Combo2 : 223,223,0
Combo3 : 255,255,149
Combo4 : 128,128,255
Combo5 : 166,166,210
Combo6 : 0,223,223
Combo7 : 149,255,255
Combo8 : 128,128,128

[HitObjects]
454,31,7100,38,0,L|443:157,1,120,6|10,1:2|2:0,2:0:0:0:
437,230,7898,1,2,1:0:0:0:
425,349,8377,2,0,P|398:361|310:325,1,120,2|10,1:2|2:0,2:0:0:0:
287,259,9175,1,2,1:0:0:0:
349,156,9654,6,0,B|360:116|360:116|358:66,1,80,6|4,1:2|1:2,2:0:0:0:
279,68,10292,2,0,B|268:108|268:108|270:158,1,80,4|4,1:2|1:2,2:0:0:0:
221,210,10930,2,0,P|169:225|86:183,1,120,4|8,1:2|2:0,2:0:0:0:
60,140,11728,1,8,2:3:0:0:
78,21,12207,102,0,L|203:35,1,120,12|12,2:0|2:0,2:0:0:0:
316,23,13164,2,0,L|302:148,1,120,12|12,2:0|2:0,2:0:0:0:
244,197,13962,2,0,L|258:287,1,80,0|8,1:0|2:0,2:0:0:0:
274,353,14600,1,8,1:3:0:0:
353,351,14919,6,0,P|398:312|402:233,1,120,12|12,2:0|2:0,2:0:0:0:
494,171,15877,2,0,P|455:126|376:122,1,120,12|12,2:0|2:0,2:0:0:0:
295,177,16834,1,8,1:2:0:0:
29,21,27685,102,0,L|48:157,1,120,4|2,1:2|2:0,2:0:0:0:
62,218,28483,1,2,2:0:0:0:
79,295,28802,2,0,P|127:298|175:274,1,80,2|2,2:0|2:0,2:0:0:0:
195,217,29441,2,0,P|251:200|328:232,1,120,2|2,2:0|1:0,2:0:0:0:
363,275,30239,5,2,1:0:0:0:
471,224,30717,2,0,L|465:122,1,80,2|2,2:0|2:0,2:0:0:0:
465,63,31356,2,0,P|414:78|389:102,1,80,2|2,2:0|2:0,2:0:0:0:
356,165,31994,1,2,2:0:0:0:
237,184,32473,1,2,1:0:0:0:
168,142,32792,102,0,P|155:84|178:29,1,120,6|2,1:2|2:0,2:0:0:0:
255,7,33590,1,2,2:0:0:0:
350,79,34068,2,0,L|338:190,1,80,2|2,1:0|1:0,2:0:0:0:
274,202,34707,2,0,L|286:313,1,80,2|0,1:0|1:0,2:0:0:0:
232,343,35345,6,0,P|188:358|71:312,1,160,2|2,1:0|1:0,2:0:0:0:
41,256,36302,1,2,1:0:0:0:
91,193,36622,2,0,L|104:82,1,80,0|2,1:0|1:0,2:0:0:0:
114,34,37260,2,0,L|193:43,1,80,2|2,1:0|1:0,2:0:0:0:
258,89,37898,102,0,L|387:69,2,120,8|2|2,0:0|0:0|1:0,0:0:0:0:
217,158,39176,2,0,L|83:136,2,120,8|2|8,0:0|0:0|0:0,2:0:0:0:
249,230,40451,5,8,2:0:0:0:
264,308,40771,2,0,P|321:319|360:303,1,80,2|0,1:0|1:0,2:0:0:0:
412,278,41409,1,2,1:0:0:0:
408,198,41728,2,0,L|385:63,1,120,8|2,2:0|2:0,2:0:0:0:
280,26,42685,1,2,1:0:0:0:
233,90,43005,38,0,B|146:112|163:49|58:83,2,160,4|2|2,1:2|2:0|2:0,2:0:0:0:
297,136,44600,1,2,2:0:0:0:
287,215,44919,2,0,L|274:300,1,80,2|2,3:0|2:0,2:0:0:0:
206,336,45558,6,0,P|156:320|122:212,2,160,2|2|0,2:0|2:0|3:0,2:0:0:0:
273,379,47154,1,0,3:0:0:0:
342,338,47473,2,0,L|434:325,1,80,2|8,2:0|2:0,2:0:0:0:
484,277,48111,37,4,1:2:0:0:
459,200,48430,2,0,P|425:168|317:180,1,160,10|10,2:0|0:0,2:0:0:0:
276,246,49388,1,0,1:0:0:0:
197,261,49707,2,0,P|150:245|101:143,1,160,10|10,2:0|0:0,2:0:0:0:
131,79,50664,6,0,L|239:68,1,80,0|10,1:0|2:0,2:0:0:0:
278,29,51302,2,0,L|447:43,1,160,0|2,1:0|1:0,2:0:0:0:
467,117,52260,1,10,2:0:0:0:
397,157,52579,2,0,P|375:199|376:246,1,80,0|8,1:0|2:0,2:0:0:0:
391,308,53217,102,0,L|520:297,2,120,12|12|12,2:0|2:0|2:0,0:0:0:0:
322,349,54494,1,0,1:0:0:0:
256,302,54813,1,0,1:0:0:0:
301,236,55132,2,0,P|312:192|296:147,1,80,12|8,2:0|2:0,0:0:0:0:
225,143,55771,6,0,L|137:154,1,80,4|8,1:2|1:2,0:0:0:0:
105,222,56409,1,8,1:2:0:0:
78,297,56728,1,8,1:2:0:0:
127,359,57047,1,4,1:2:0:0:
42,52,58324,70,0,L|140:42,1,80,6|8,1:2|2:0,2:0:0:0:
201,38,58962,1,0,1:0:0:0:
259,92,59281,1,10,2:0:0:0:
203,149,59600,2,0,P|188:200|195:236,1,80,0|8,1:0|2:0,2:0:0:0:
254,274,60239,2,0,L|346:261,1,80,2|10,1:0|2:0,2:0:0:0:
412,251,60877,6,0,B|425:191|425:191|391:138,1,120,6|2,1:2|2:0,2:0:0:0:
345,77,61675,1,10,2:3:0:0:
287,21,61994,2,0,L|156:46,1,120,2|8,1:0|2:0,2:0:0:0:
91,23,62792,2,0,P|91:71|118:109,1,80,2|10,1:0|2:0,2:0:0:0:
170,145,63430,102,0,L|160:278,1,120,4|2,1:2|2:0,2:0:0:0:
155,344,64228,1,10,2:3:0:0:
35,350,64707,2,0,P|4:303|24:223,1,120,4|2,1:2|2:0,2:0:0:0:
86,149,65664,1,10,2:0:0:0:
163,170,65983,6,0,L|264:192,1,80,12|8,2:0|2:0,2:0:0:0:
284,254,66622,2,0,L|362:236,1,80,12|8,2:0|2:0,2:0:0:0:
440,221,67260,1,12,2:0:0:0:
480,152,67579,2,0,P|486:108|467:63,2,80,8|12|8,2:0|2:0|2:0,2:0:0:0:
400,143,68536,102,0,L|305:132,1,80,4|8,1:2|2:0,2:0:0:0:
260,80,69175,1,2,1:0:0:0:
189,42,69494,1,10,2:0:0:0:
120,83,69813,2,0,B|101:120|101:120|110:168,1,80,0|8,1:0|2:0,2:0:0:0:
178,196,70451,2,0,B|185:233|185:233|166:270,1,80,2|10,1:0|2:0,2:0:0:0:
142,347,71090,6,0,P|191:373|280:349,2,120,14|14|10,2:0|2:0|2:0,2:0:0:0:
91,284,72366,1,4,1:2:0:0:
125,211,72685,1,8,2:0:0:0:
97,135,73005,2,0,L|86:52,1,80,10|6,1:3|1:3,2:0:0:0:
156,16,73643,70,0,P|220:22|260:123,1,160,4|8,1:2|2:0,2:0:0:0:
235,173,74600,1,10,2:3:0:0:
214,250,74919,2,0,P|246:319|322:333,1,160,4|8,1:2|2:0,2:0:0:0:
391,292,75877,1,8,2:3:0:0:
440,229,76196,6,0,L|422:123,1,80,4|0,1:2|2:0,2:0:0:0:
408,72,76834,2,0,P|367:77|318:108,1,80,8|8,2:0|2:3,2:0:0:0:
302,168,77473,1,4,1:2:0:0:
240,219,77792,1,0,1:0:0:0:
160,216,78111,2,0,P|124:189|102:134,1,80,8|8,2:0|2:3,2:0:0:0:
124,80,78749,102,0,L|298:62,1,160,4|8,1:2|1:3,2:0:0:0:
442,54,80026,2,0,P|452:105|447:142,1,80,8|8,1:2|1:2,2:0:0:0:
374,161,80664,2,0,P|371:200|381:239,1,80,8|12,1:2|1:2,2:0:0:0:
443,289,81302,1,4,1:2:0:0:
124,321,82579,1,4,1:2:0:0:
255,28,83856,54,0,L|271:156,1,120,6|2,1:2|1:0,2:0:0:0:
290,265,84813,1,10,2:0:0:0:
359,305,85132,2,0,P|416:299|453:276,1,80,2|8,1:0|2:0,2:0:0:0:
476,220,85771,2,0,L|456:117,1,80,2|10,1:0|2:0,2:0:0:0:
444,63,86409,6,0,P|395:63|342:98,1,80,6|8,1:2|2:0,2:0:0:0:
321,140,87047,1,2,2:0:0:0:
244,164,87366,1,8,2:0:0:0:
177,119,87685,2,0,L|187:32,1,80,2|8,1:0|2:0,2:0:0:0:
110,14,88324,2,0,P|70:37|51:75,1,80,2|10,2:0|2:0,2:0:0:0:
74,142,88962,102,0,B|94:198|94:198|73:284,1,120,6|2,1:2|1:0,2:0:0:0:
15,358,89919,2,0,L|134:350,1,120,10|2,2:0|1:0,2:0:0:0:
228,274,90877,2,0,L|307:280,1,80,2|10,2:0|2:0,2:0:0:0:
372,327,91515,6,0,P|387:284|369:232,1,80,12|8,2:0|2:0,2:0:0:0:
330,188,92154,2,0,P|324:148|338:112,1,80,8|8,2:0|2:0,2:0:0:0:
396,57,92792,1,8,2:0:0:0:
475,57,93111,1,8,1:2:0:0:
481,216,93749,1,14,2:0:0:0:
476,295,94068,38,0,P|408:308|346:282,1,120,6|2,1:2|2:0,2:0:0:0:
293,248,94866,1,2,2:0:0:0:
302,168,95185,1,2,2:0:0:0:
302,47,95664,2,0,P|245:30|170:55,1,120,2|2,1:0|2:0,2:0:0:0:
106,133,96622,5,2,1:0:0:0:
127,250,97100,2,0,L|229:244,1,80,2|2,2:0|2:0,2:0:0:0:
258,306,97739,2,0,L|337:310,1,80,2|0,2:0|2:0,2:0:0:0:
417,318,98377,1,2,2:0:0:0:
502,233,98856,1,2,1:0:0:0:
467,160,99175,102,0,B|413:137|413:137|345:157,1,120,6|2,2:0|2:0,2:0:0:0:
252,218,100132,1,2,1:0:0:0:
196,160,100451,2,0,L|211:32,1,120,2|2,1:0|2:0,2:0:0:0:
139,2,101249,1,2,2:0:0:0:
47,79,101728,6,0,B|14:130|14:130|27:217,1,120,2|2,1:0|2:0,2:0:0:0:
39,267,102526,1,2,2:0:0:0:
116,246,102845,2,0,B|185:233|169:275|251:264,1,120,2|0,2:0|1:0,2:0:0:0:
303,302,103643,2,0,P|312:258|297:215,1,80,0|2,1:0|1:0,2:0:0:0:
241,173,104281,101,6,1:2:0:0:
382,31,105079,1,2,1:2:0:0:
452,68,105398,54,0,L|434:201,1,120,6|10,1:2|2:0,2:0:0:0:
426,266,106196,1,0,1:0:0:0:
354,302,106515,1,10,2:0:0:0:
299,243,106834,6,0,P|277:196|305:113,1,120,2|2,1:0|2:0,2:0:0:0:
353,82,107632,1,2,2:0:0:0:
309,15,107951,2,0,L|214:8,1,80,2|2,2:0|2:0,2:0:0:0:
162,53,108590,2,0,L|33:64,1,120,2|10,2:0|2:0,2:0:0:0:
4,133,109388,102,0,P|0:196|43:250,1,120,2|2,1:0|2:0,2:0:0:0:
106,265,110185,1,2,2:0:0:0:
176,228,110505,2,0,L|312:208,1,120,2|8,2:0|2:0,2:0:0:0:
357,160,111302,2,0,P|374:203|369:245,1,80,2|8,1:0|2:0,2:0:0:0:
323,299,111941,5,2,1:0:0:0:
372,362,112260,2,0,B|466:377,2,80,8|0|8,2:0|1:0|2:0,2:0:0:0:
294,379,113217,2,0,P|250:379|208:361,1,80,0|8,1:0|2:0,2:0:0:0:
185,292,113856,2,0,P|147:278|107:279,1,80,0|8,1:0|2:0,2:0:0:0:
40,322,114494,101,4,1:2:0:0:
15,245,114813,1,10,2:0:0:0:
64,182,115132,2,0,L|81:55,1,120,2|2,1:0|2:0,2:0:0:0:
187,9,116090,1,10,2:0:0:0:
237,71,116409,2,0,P|297:100|360:85,1,120,2|2,1:0|2:0,2:0:0:0:
443,18,117366,5,10,2:0:0:0:
491,81,117685,2,0,L|471:202,1,120,0|10,1:0|2:0,2:0:0:0:
447,317,118643,1,10,2:0:0:0:
376,353,118962,2,0,P|321:355|288:335,1,80,0|10,1:0|2:0,2:0:0:0:
268,270,119600,102,0,L|296:130,1,120,14|2,2:0|2:0,2:0:0:0:
306,73,120398,1,10,2:0:0:0:
244,22,120717,2,0,P|191:3|105:44,1,120,2|2,1:0|1:0,2:0:0:0:
87,86,121515,2,0,L|95:195,1,80,2|10,1:0|2:0,2:0:0:0:
107,244,122154,6,0,B|198:242|164:194|265:191,1,160,2|2,1:0|1:0,2:0:0:0:
331,211,123111,1,2,1:0:0:0:
399,252,123430,2,0,L|384:379,2,120,12|8|8,2:0|2:0|2:0,2:0:0:0:
462,203,124707,38,0,P|474:156|456:104,1,80,4|2,1:2|1:0,2:0:0:0:
412,68,125345,2,0,P|365:56|313:77,1,80,2|2,1:0|1:0,2:0:0:0:
260,92,125983,2,0,L|265:186,1,80,0|2,1:0|1:0,2:0:0:0:
330,217,126622,2,0,L|325:311,1,80,2|2,1:0|1:0,2:0:0:0:
267,351,127260,6,0,P|215:356|151:307,1,120,0|2,1:0|2:0,2:0:0:0:
103,214,128217,1,2,1:0:0:0:
165,163,128536,2,0,L|184:26,2,120,0|2|8,1:0|2:0|2:0,2:0:0:0:
207,230,129813,38,0,P|259:244|299:237,1,80,6|8,1:2|1:2,2:0:0:0:
345,189,130451,2,0,L|340:86,2,80,8|8|8,1:2|1:2|1:2,2:0:0:0:
455,235,131568,2,0,L|441:313,1,80,8|8,2:0|2:0,2:0:0:0:
334,368,132366,5,4,1:2:0:0:
183,311,133005,1,12,1:2:0:0:
320,229,133643,1,4,1:2:0:0:
171,169,134281,1,6,1:2:0:0:
310,87,134919,70,0,P|320:43|300:-11,1,80,6|8,1:2|2:0,2:0:0:0:
233,3,135558,1,0,1:0:0:0:
166,47,135877,1,10,2:0:0:0:
193,122,136196,2,0,L|185:201,1,80,0|8,1:0|2:0,2:0:0:0:
113,236,136834,2,0,B|108:279|108:279|126:328,1,80,2|10,1:0|2:0,2:0:0:0:
188,355,137473,6,0,B|253:363|230:325|317:330,1,120,2|2,1:0|2:0,2:0:0:0:
375,363,138271,1,10,2:3:0:0:
420,297,138590,2,0,P|431:239|395:166,1,120,2|8,1:0|2:0,2:0:0:0:
348,132,139388,2,0,L|255:150,1,80,2|10,1:0|2:0,2:0:0:0:
224,80,140026,102,0,B|171:54|171:54|91:70,1,120,4|2,1:2|2:0,2:0:0:0:
36,95,140824,1,10,2:3:0:0:
39,215,141302,2,0,L|166:226,1,120,2|2,1:0|2:0,2:0:0:0:
238,314,142260,1,10,2:0:0:0:
313,288,142579,6,0,P|326:250|323:209,1,80,12|8,2:0|2:0,2:0:0:0:
254,170,143217,2,0,P|251:130|264:92,1,80,12|8,2:0|2:0,2:0:0:0:
331,48,143856,1,12,2:0:0:0:
409,61,144175,2,0,L|495:54,2,80,8|12|8,2:0|2:0|2:0,2:0:0:0:
410,140,145132,102,0,B|401:182|401:182|419:232,1,80,4|8,1:2|2:0,2:0:0:0:
455,285,145771,1,0,1:0:0:0:
406,348,146090,1,10,2:0:0:0:
326,345,146409,2,0,B|234:325,1,80,0|8,1:0|2:0,2:0:0:0:
212,255,147047,2,0,B|133:271,1,80,2|10,1:0|2:0,2:0:0:0:
55,287,147685,6,0,B|22:235|22:235|36:168,2,120,12|14|10,2:0|2:0|2:0,2:0:0:0:
106,347,148962,1,4,1:2:0:0:
183,367,149281,1,8,2:0:0:0:
249,321,149600,2,0,P|264:285|259:241,1,80,10|6,1:3|1:3,2:0:0:0:
191,204,150239,70,0,L|213:31,1,160,6|8,1:2|2:0,2:0:0:0:
283,10,151196,1,2,1:0:0:0:
354,46,151515,2,0,P|377:87|373:132,1,80,0|10,1:0|2:0,2:0:0:0:
457,121,152154,2,0,P|444:166|409:195,1,80,10|2,0:2|1:0,2:0:0:0:
345,226,152792,85,6,1:2:0:0:
282,175,153111,1,8,2:0:0:0:
203,158,153430,2,0,P|157:172|117:244,1,120,2|2,1:0|1:0,2:0:0:0:
151,345,154388,1,10,2:0:0:0:
230,338,154707,2,0,L|321:327,1,80,0|10,1:0|2:0,2:0:0:0:
388,314,155345,5,0,1:0:0:0:
428,244,155664,1,8,2:0:0:0:
369,190,155983,2,0,B|350:133|350:133|366:70,2,120,2|2|8,1:0|1:0|2:0,2:0:0:0:
309,244,157260,2,0,L|219:248,1,80,2|10,1:0|2:0,2:0:0:0:
149,254,157898,102,0,P|117:191|137:128,1,120,6|2,1:2|2:0,2:0:0:0:
179,85,158696,1,2,1:0:0:0:
298,80,159175,2,0,L|431:96,1,120,2|2,1:0|2:0,2:0:0:0:
492,187,160132,1,10,2:0:0:0:
473,264,160451,6,0,B|427:302|427:302|342:289,1,120,4|12,1:2|2:0,2:0:0:0:
296,195,161409,2,0,B|236:185|236:185|190:223,1,120,4|12,1:2|2:0,2:0:0:0:
127,326,162366,1,4,1:2:0:0:
58,284,162685,1,8,2:0:0:0:
88,209,163005,101,4,1:2:0:0:
67,131,163324,2,0,L|50:-1,1,120,10|10,2:0|2:3,2:0:0:0:
171,2,164281,2,0,L|186:121,1,120,2|2,1:2|2:0,2:0:0:0:
200,240,165239,1,10,2:0:0:0:
264,287,165558,6,0,P|327:267|362:215,1,120,6|8,1:2|2:0,2:0:0:0:
339,147,166356,1,10,2:0:0:0:
360,70,166675,1,6,1:2:0:0:
472,29,167154,2,0,L|484:114,1,80,10|10,3:2|2:3,2:0:0:0:
502,185,167792,1,8,2:0:0:0:
441,237,168111,6,0,B|379:243|398:204|304:216,1,120,4|0,1:2|3:0,2:0:0:0:
286,100,169068,2,0,B|224:94|243:133|149:121,1,120,0|0,1:0|3:0,2:0:0:0:
86,37,170025,1,8,1:2:0:0:
20,83,170345,6,0,B|-2:141|-2:141|19:203,1,120,4|0,1:2|3:0,2:0:0:0:
136,207,171302,2,0,B|158:265|158:265|137:327,1,120,0|0,1:0|3:0,2:0:0:0:
244,377,172259,1,8,1:2:0:0:
310,331,172579,69,4,1:2:0:0:
253,225,173057,2,0,P|255:157|293:104,1,120,4|4,1:2|1:2,2:0:0:0:
390,62,174015,1,4,1:2:0:0:
480,140,174493,1,4,1:2:0:0:
455,257,174972,1,4,1:2:0:0:
428,374,175451,6,0,P|386:377|338:356,1,80,8|8,1:2|1:2,2:0:0:0:
314,293,176089,2,0,P|276:280|236:283,1,80,8|8,1:2|1:2,2:0:0:0:
179,340,176727,1,8,1:2:0:0:
108,302,177047,1,8,1:2:0:0:
116,222,177366,1,8,1:2:0:0:
51,175,177685,1,4,1:2:0:0:
25,42,187898,6,0,P|67:23|126:31,1,80,6|2,1:2|1:2,2:0:0:0:
166,67,188536,1,2,1:0:0:0:
88,158,189015,2,0,P|66:195|80:250,1,80,2|2,2:0|2:0,2:0:0:0:
127,284,189653,1,2,2:0:0:0:
225,216,190132,1,2,1:0:0:0:
304,226,190451,6,0,L|397:231,1,80,6|10,1:2|2:0,2:0:0:0:
463,233,191089,2,0,L|468:140,1,80,6|10,1:2|2:0,2:0:0:0:
469,73,191727,1,4,1:2:0:0:
395,40,192047,2,0,P|336:47|303:80,1,80,8|8,2:0|2:0,2:0:0:0:
286,130,192685,1,8,1:3:0:0:
286,209,193004,38,0,B|228:232|228:232|159:214,1,120,6|2,1:2|1:0,2:0:0:0:
99,183,193802,1,2,2:0:0:0:
99,103,194121,2,0,P|122:60|209:36,1,120,10|8,2:0|2:0,2:0:0:0:
264,45,194919,2,0,L|254:138,1,80,2|10,2:0|2:0,2:0:0:0:
196,179,195557,6,0,B|188:221|188:221|203:273,1,80,12|8,2:0|2:0,2:0:0:0:
248,319,196196,2,0,B|290:327|290:327|342:312,1,80,8|8,2:0|2:0,2:0:0:0:
378,256,196834,2,0,L|374:169,1,80,12|8,1:2|1:2,2:0:0:0:
420,110,197472,1,8,1:2:0:0:
392,34,197791,1,8,1:2:0:0:
312,37,198110,1,2,2:0:0:0:
28,185,199387,37,4,1:2:0:0:
308,339,200664,1,4,1:2:0:0:
235,27,201940,22,0,L|207:158,1,120,14|14,1:2|1:2,2:0:0:0:
187,221,202738,1,2,1:0:0:0:
251,268,203057,2,0,P|308:270|364:233,1,120,2|8,1:0|2:0,2:0:0:0:
370,158,203855,1,2,1:0:0:0:
430,105,204174,1,10,2:0:0:0:
477,169,204493,86,0,L|457:306,2,120,4|2|0,1:2|2:0|1:2,2:0:0:0:
415,117,205770,2,0,L|395:-20,2,120,6|2|10,1:2|2:0|2:0,2:0:0:0:
358,173,207047,1,12,1:2:0:0:
290,215,207366,2,0,L|209:198,1,80,8|8,1:2|1:2,2:0:0:0:
136,172,208004,1,8,1:2:0:0:
487,362,209600,22,0,L|489:276,1,80,6|8,1:2|2:0,2:0:0:0:
442,216,210238,1,0,1:0:0:0:
362,221,210557,1,10,2:0:0:0:
312,284,210876,2,0,P|275:298|227:294,1,80,0|8,1:2|2:0,2:0:0:0:
201,223,211515,2,0,P|164:209|116:213,1,80,2|10,1:0|2:0,2:0:0:0:
57,255,212153,6,0,L|59:393,2,120,12|14|10,2:0|2:0|2:0,2:0:0:0:
8,191,213430,1,4,1:2:0:0:
8,111,213749,1,10,2:0:0:0:
82,81,214068,2,0,L|165:92,1,80,8|4,1:3|1:3,2:0:0:0:
233,58,214706,102,0,L|323:52,1,80,6|10,1:2|2:0,2:0:0:0:
392,41,215344,1,0,1:0:0:0:
466,71,215664,2,0,P|482:115|475:158,1,80,8|4,2:0|1:2,2:0:0:0:
408,185,216302,2,0,L|327:170,2,80,8|8|8,1:2|1:2|1:2,2:0:0:0:
451,252,217259,6,0,B|463:293|463:293|444:334,1,80,6|8,1:2|2:0,2:0:0:0:
375,363,217898,1,0,1:0:0:0:
298,338,218217,1,10,2:0:0:0:
266,264,218536,2,0,L|279:183,1,80,0|8,1:2|2:0,2:0:0:0:
352,154,219174,2,0,L|339:73,1,80,2|10,1:0|2:0,2:0:0:0:
284,16,219813,102,0,P|235:15|164:102,1,160,12|12,2:0|2:0,2:0:0:0:
183,170,220770,1,8,2:0:0:0:
123,223,221089,1,4,1:2:0:0:
512,193,223004,1,6,3:0:0:0:
418,63,223642,86,0,L|398:224,1,160,6|10,1:2|2:0,2:0:0:0:
333,268,224600,1,2,1:0:0:0:
264,226,224919,2,0,L|284:65,1,160,0|8,1:0|2:0,2:0:0:0:
220,18,225876,1,2,1:0:0:0:
142,37,226196,6,0,P|111:74|101:109,1,80,4|0,1:2|1:0,2:0:0:0:
38,152,226834,2,0,L|42:241,1,80,8|0,2:0|1:0,2:0:0:0:
75,304,227472,1,0,1:0:0:0:
153,319,227791,1,0,1:0:0:0:
218,272,228110,2,0,L|222:192,1,80,8|0,2:0|1:0,2:0:0:0:
235,113,228749,102,0,P|313:93|392:127,1,160,4|8,1:2|1:3,2:0:0:0:
469,256,230025,2,0,L|457:352,1,80,8|8,1:2|1:2,2:0:0:0:
379,330,230664,2,0,L|391:234,1,80,8|12,1:2|1:2,2:0:0:0:
398,171,231302,5,2,2:0:0:0:
143,364,232617,1,2,2:0:0:0:
60,54,233932,1,2,2:0:0:0:
447,375,236192,1,10,2:0:0:0:
482,303,236511,38,0,P|499:245|487:174,1,120,4|2,1:2|1:0,2:0:0:0:
384,133,237468,1,10,2:0:0:0:
319,180,237787,2,0,L|242:156,1,80,2|8,1:0|2:0,2:0:0:0:
180,105,238425,2,0,L|101:120,1,80,2|10,1:0|2:0,2:0:0:0:
27,151,239064,6,0,P|12:188|14:227,1,80,6|8,1:2|2:0,2:0:0:0:
58,294,239702,1,2,1:0:0:0:
136,277,240021,1,10,2:0:0:0:
181,211,240340,2,0,L|268:201,1,80,2|8,1:0|2:0,2:0:0:0:
327,245,240979,2,0,L|414:255,1,80,2|10,1:0|2:0,2:0:0:0:
483,276,241617,102,0,P|505:217|482:134,1,120,6|2,1:2|1:0,2:0:0:0:
427,64,242574,2,0,B|373:45|373:45|308:56,1,120,10|2,2:0|1:0,2:0:0:0:
230,144,243532,2,0,L|151:150,1,80,2|10,2:0|2:0,2:0:0:0:
73,127,244170,6,0,B|64:169|64:169|75:204,1,80,14|8,2:0|2:0,2:0:0:0:
145,241,244808,2,0,B|156:276|156:276|147:318,1,80,8|8,2:0|2:0,2:0:0:0:
202,375,245447,1,8,2:0:0:0:
281,377,245766,1,8,1:2:0:0:
324,309,246085,2,0,B|323:268|323:268|306:236|306:236|305:181,1,120,0|4,3:0|1:2,2:0:0:0:
256,192,246723,12,0,253106,2:0:0:0:
