osu file format v14

[General]
AudioFilename: Dear brave.mp3
AudioLeadIn: 0
PreviewTime: 198112
Countdown: 0
SampleSet: Soft
StackLeniency: 0.7
Mode: 0
LetterboxInBreaks: 0
WidescreenStoryboard: 1

[Editor]
DistanceSpacing: 2.6
BeatDivisor: 4
GridSize: 4
TimelineZoom: 2.699999

[Metadata]
Title:Dear Brave
TitleUnicode:ディアブレイブ
Artist:Kano
ArtistUnicode:鹿乃
Creator:Fycho
Version:Special
Source:ヘヴィーオブジェクト
Tags:Heavy Object ending full ver thzz cah-m
BeatmapID:932432
BeatmapSetID:390668

[Difficulty]
HPDrainRate:7
CircleSize:4.2
OverallDifficulty:9
ApproachRate:9.3
SliderMultiplier:1.8
SliderTickRate:1

[Events]
//Background and Video events
Video,-400,"3178815.avi"
0,0,"DB2.png",0,0
//Break Periods
//Storyboard Layer 0 (Background)
//Storyboard Layer 1 (Fail)
//Storyboard Layer 2 (Pass)
//Storyboard Layer 3 (Foreground)
//Storyboard Sound Samples

[TimingPoints]
2235,319.148936170213,4,2,1,40,1,0
3511,-133.333333333333,4,2,1,40,0,0
7181,-100,4,2,1,70,0,0
17554,-133.333333333333,4,2,1,50,0,0
37979,-133.333333333333,4,2,1,60,0,0
43086,-133.333333333333,4,2,1,50,0,0
48192,-100,4,2,1,70,0,0
55852,-100,4,2,1,50,0,0
56171,-100,4,2,1,55,0,0
56490,-100,4,2,1,60,0,0
56809,-100,4,2,1,65,0,0
57128,-100,4,2,1,70,0,0
58405,-100,4,2,1,80,0,1
73724,-100,4,2,1,70,0,1
81383,-100,4,2,1,50,0,0
83937,-100,4,2,1,70,0,0
92873,-66.6666666666667,4,2,1,70,0,0
93511,-66.6666666666667,4,2,1,30,0,0
93830,-66.6666666666667,4,2,1,50,0,0
94149,-133.333333333333,4,2,1,50,0,0
113219,-100,4,2,1,50,0,0
114575,-100,4,2,1,70,0,0
124788,-133.333333333333,4,2,1,50,0,0
129894,-100,4,2,1,50,0,0
135000,-100,4,2,1,90,0,1
152873,-100,4,2,1,80,0,0
168192,319.148936170213,7,2,1,50,1,0
170106,-100,7,2,1,60,0,0
172340,-100,7,2,1,70,0,0
172660,319.148936170213,4,2,1,80,1,0
175372,-100,4,2,1,50,0,0
176170,-100,4,2,1,60,0,0
176489,-100,4,2,1,70,0,0
177128,-100,4,2,1,75,0,0
177447,-100,4,2,1,80,0,0
177925,-133.333333333333,4,2,1,30,0,0
187979,-133.333333333333,4,2,1,50,0,0
190532,-100,4,2,1,70,0,0
199468,-166.666666666667,4,2,1,50,0,0
202021,-100,4,2,1,70,0,0
204574,-133.333333333333,4,2,1,50,0,0
205851,-133.333333333333,4,2,1,65,0,0
207128,-100,4,2,1,75,0,0
208404,-100,4,2,1,55,0,0
208723,-100,4,2,1,40,0,0
209042,-133.333333333333,4,2,1,50,0,0
209681,-100,4,2,1,90,0,1
221250,-100,4,2,1,45,0,1
223085,-100,4,2,1,70,0,1
231383,328.767123287671,4,2,1,50,1,0
236274,319.148936170213,4,2,1,50,1,0
236593,319.148936170213,4,2,1,70,1,0
246725,-100,4,2,1,60,0,0
248082,-100,4,2,1,45,0,0
249358,-100,4,2,1,30,0,0
250635,-100,4,2,1,15,0,0
251912,-100,4,2,1,5,0,0

[Colours]
Combo1 : 68,64,145
Combo2 : 254,73,132
Combo3 : 151,198,255
Combo4 : 52,221,38

[HitObjects]
256,192,958,12,0,2075,0:0:0:0:
416,184,2235,5,4,0:0:0:0:
210,236,2554,1,2,0:0:0:0:
323,86,2873,1,2,0:0:0:0:
111,231,3192,1,2,0:0:0:0:
167,153,3352,1,2,0:0:0:0:
342,254,3511,5,2,0:0:0:0:
342,254,3830,2,0,L|351:332,1,67.5000025749208,2|2,0:0|0:0,0:0:0:0:
415,192,4149,2,0,L|406:114,1,67.5000025749208,2|2,0:0|0:0,0:0:0:0:
319,93,4469,2,0,L|328:179,1,67.5000025749208,2|2,0:0|0:0,0:0:0:0:
396,31,4788,5,2,0:0:0:0:
495,247,5107,1,2,0:0:0:0:
407,285,5266,1,2,0:0:0:0:
415,192,5426,1,2,0:0:0:0:
209,310,5745,5,2,0:0:0:0:
265,169,5905,1,2,0:0:0:0:
85,221,6703,5,2,0:0:0:0:
85,221,6782,1,0,0:0:0:0:
85,221,6862,1,0,0:0:0:0:
85,221,6942,1,0,0:0:0:0:
85,221,7022,1,0,0:0:0:0:
85,221,7102,1,0,0:0:0:0:
85,221,7181,6,0,B|127:255|171:235|171:235|217:217|262:242,1,180,4|0,0:0|0:0,0:0:0:0:
355,322,7660,2,0,P|378:284|379:239,1,90,8|0,0:0|0:0,0:0:0:0:
281,121,7979,1,2,0:0:0:0:
256,239,8139,1,0,0:0:0:0:
384,88,8298,1,8,0:0:0:0:
189,41,8458,6,0,P|117:98|104:196,1,180,2|0,0:0|0:0,0:0:0:0:
296,7,8937,1,8,0:0:0:0:
204,148,9096,1,0,0:0:0:0:
426,146,9256,1,2,0:0:0:0:
312,92,9415,1,2,0:0:0:0:
263,288,9575,1,8,0:0:0:0:
22,310,9735,5,4,0:0:0:0:
343,172,10054,1,10,0:0:0:0:
120,193,10373,1,10,0:0:0:0:
433,266,10692,1,10,0:0:0:0:
72,276,11011,6,0,B|52:350|73:381|73:381|115:369|144:376,1,180,4|0,0:0|0:0,0:0:0:0:
376,280,11490,1,8,0:0:0:0:
264,320,11649,1,8,0:0:0:0:
476,317,11809,1,4,0:3:0:0:
320,216,11969,1,8,0:0:0:0:
461,128,12128,1,8,0:0:0:0:
297,42,12288,6,0,P|236:31|120:89,1,180,4|0,0:0|0:0,0:0:0:0:
226,258,12766,2,0,P|240:213|226:154,1,90,12|0,0:0|0:0,0:0:0:0:
124,332,13086,1,0,0:0:0:0:
267,360,13245,2,0,L|363:339,1,90,12|0,0:0|0:0,0:0:0:0:
124,332,13564,1,0,0:0:0:0:
138,134,13724,6,0,P|114:166|118:232,1,90,12|0,0:0|0:0,0:0:0:0:
256,48,14043,1,0,0:0:0:0:
386,123,14203,1,8,0:0:0:0:
204,177,14362,1,8,0:0:0:0:
343,45,14522,1,8,0:0:0:0:
397,242,14681,1,8,0:3:0:0:
299,124,14841,1,4,0:3:0:0:
466,28,15000,6,0,L|443:124,1,90,12|0,0:0|0:0,0:0:0:0:
315,4,15320,1,0,0:0:0:0:
227,177,15479,2,0,L|261:269,1,90,12|0,0:0|0:0,0:0:0:0:
97,148,15798,1,0,0:0:0:0:
313,374,15958,6,0,L|348:280,1,90,12|0,0:0|0:0,0:0:0:0:
182,316,16277,1,0,0:0:0:0:
335,96,16437,1,12,0:0:0:0:
389,208,16596,1,0,0:0:0:0:
216,64,16756,1,0,0:0:0:0:
91,196,16915,5,10,0:0:0:0:
366,80,17075,1,10,0:0:0:0:
366,80,17394,1,0,0:0:0:0:
280,39,17554,6,0,P|219:36|142:85,1,135.000005149842,4|0,0:0|0:0,0:0:0:0:
206,194,18032,2,0,P|230:147|230:128,1,67.5000025749208,2|0,0:0|0:0,0:0:0:0:
318,124,18352,2,0,L|456:153,1,135.000005149842,2|2,0:0|0:0,0:0:0:0:
489,230,18830,6,0,P|446:281|382:298,1,135.000005149842,2|2,0:0|0:0,0:0:0:0:
296,282,19309,2,0,P|229:284|174:322,1,135.000005149842,2|2,0:0|0:0,0:0:0:0:
174,322,20107,6,0,L|212:189,1,135.000005149842,2|0,0:0|0:0,0:0:0:0:
276,133,20586,2,0,P|342:135|397:173,1,135.000005149842,2|2,0:0|0:0,0:0:0:0:
397,173,21224,6,0,L|377:10,1,135.000005149842,2|0,0:0|0:0,0:0:0:0:
293,24,21703,1,0,0:0:0:0:
205,31,21862,2,0,P|133:42|85:87,1,135.000005149842,2|0,0:0|0:0,0:0:0:0:
87,198,22341,1,2,0:0:0:0:
175,126,22500,1,0,0:0:0:0:
186,251,22660,6,0,P|231:317|313:334,1,135.000005149842,2|0,0:0|0:0,0:0:0:0:
280,335,23139,2,0,L|70:346,1,202.500007724762,2|2,0:0|0:0,0:0:0:0:
51,260,23937,6,0,L|185:251,1,135.000005149842,2|0,0:0|0:0,0:0:0:0:
266,227,24415,2,0,P|296:155|266:90,1,135.000005149842,2|2,0:0|0:0,0:0:0:0:
278,104,25054,1,2,0:0:0:0:
334,37,25213,6,0,P|394:5|459:10,1,135.000005149842,2|2,0:0|0:0,0:0:0:0:
453,148,25692,2,0,P|419:108|411:76,1,67.5000025749208,2|0,0:0|0:0,0:0:0:0:
350,155,26011,2,0,L|328:305,1,135.000005149842,2|2,0:0|0:0,0:0:0:0:
267,350,26490,6,0,P|202:364|136:329,1,135.000005149842,0|0,0:0|0:0,0:0:0:0:
92,263,26969,1,0,0:0:0:0:
157,130,27128,2,0,L|167:206,1,67.5000025749208,0|0,0:0|0:0,0:0:0:0:
4,227,27447,2,0,L|22:157,1,67.5000025749208,2|0,0:0|0:0,0:0:0:0:
186,37,27766,6,0,P|231:70|249:154,1,135.000005149842,6|2,0:0|0:0,0:0:0:0:
147,264,28245,2,0,L|157:120,2,135.000005149842,2|2|2,0:0|0:0|0:0,0:0:0:0:
147,264,29203,5,2,0:0:0:0:
232,245,29362,1,2,0:0:0:0:
318,226,29522,1,2,0:0:0:0:
318,226,30000,1,2,0:0:0:0:
232,245,30160,1,2,0:0:0:0:
157,197,30320,6,0,P|89:184|8:220,1,135.000005149842,2|2,0:0|0:0,0:0:0:0:
28,204,30798,2,0,L|60:63,2,135.000005149842,2|2|2,0:0|0:0|0:0,0:0:0:0:
28,204,31756,5,2,0:0:0:0:
111,176,31915,1,0,0:0:0:0:
156,251,32075,2,0,P|209:286|283:288,1,135.000005149842,2|0,0:0|0:0,0:0:0:0:
325,214,32554,2,0,L|480:186,1,135.000005149842,2|6,0:0|0:0,0:0:0:0:
486,16,33192,5,2,0:0:0:0:
486,16,33352,2,0,L|351:42,1,135.000005149842,2|2,0:0|0:0,0:0:0:0:
466,304,34149,6,0,P|461:195|466:153,1,135.000005149842,2|0,0:0|0:0,0:0:0:0:
409,98,34628,1,0,0:0:0:0:
409,98,34788,2,0,P|344:125|266:94,1,135.000005149842,2|0,0:0|0:0,0:0:0:0:
204,67,35266,1,0,0:0:0:0:
80,188,35426,5,2,0:0:0:0:
175,169,35586,1,0,0:0:0:0:
111,19,35745,1,2,0:0:0:0:
38,99,35905,1,0,0:0:0:0:
204,67,36064,1,2,0:0:0:0:
38,99,36224,1,0,0:0:0:0:
175,169,36383,1,2,0:0:0:0:
111,19,36543,1,0,0:0:0:0:
80,188,36703,5,2,0:0:0:0:
80,188,36862,1,0,0:0:0:0:
204,67,37022,1,2,0:0:0:0:
204,67,37181,1,0,0:0:0:0:
133,127,37341,1,2,0:0:0:0:
287,46,37500,1,0,0:0:0:0:
351,152,37660,1,2,0:0:0:0:
204,67,37820,1,0,0:0:0:0:
69,234,37979,5,8,0:0:0:0:
208,76,38139,1,8,0:0:0:0:
181,195,38298,6,0,L|157:276,1,67.5000025749208
284,138,38617,2,0,P|302:83|295:54,1,67.5000025749208,2|0,0:0|0:0,0:0:0:0:
105,88,38937,2,0,L|182:99,1,67.5000025749208
400,132,39256,5,8,0:0:0:0:
246,12,39415,1,8,0:0:0:0:
237,205,39575,6,0,P|272:219|306:217,1,67.5000025749208
148,181,39894,2,0,L|123:265,1,67.5000025749208,2|0,0:0|0:0,0:0:0:0:
219,110,40213,2,0,L|238:27,1,67.5000025749208,0|0,0:0|0:0,0:0:0:0:
104,49,40532,5,8,0:0:0:0:
284,186,40692,1,8,0:0:0:0:
405,40,40852,6,0,P|418:67|415:114,1,67.5000025749208,0|0,0:0|0:0,0:0:0:0:
279,210,41171,2,0,P|308:194|342:189,1,67.5000025749208,2|0,0:0|0:0,0:0:0:0:
418,313,41490,2,0,P|429:281|427:248,1,67.5000025749208
354,372,41809,5,8,0:0:0:0:
143,221,41969,1,8,0:0:0:0:
102,307,42128,1,0,0:0:0:0:
97,319,42447,1,2,0:0:0:0:
93,332,42766,5,2,0:0:0:0:
245,265,42926,1,0,0:0:0:0:
211,158,43086,6,0,P|76:141|68:142,1,135.000005149842,4|0,0:0|0:0,0:0:0:0:
281,76,43564,2,0,P|346:59|413:59,1,135.000005149842,2|0,0:0|0:0,0:0:0:0:
354,307,44203,6,0,P|320:242|421:193,1,202.500007724762,0|0,0:0|0:0,0:0:0:0:
235,315,45000,2,0,L|219:222,1,67.5000025749208,2|0,0:0|0:0,0:0:0:0:
115,275,45320,2,0,L|99:349,1,67.5000025749208,0|2,0:0|0:0,0:0:0:0:
100,340,45559,1,2,0:0:0:0:
100,340,45639,5,2,0:0:0:0:
289,120,46277,1,2,0:0:0:0:
343,288,46915,1,2,0:0:0:0:
178,141,47235,1,2,0:0:0:0:
137,222,47394,1,0,0:0:0:0:
147,55,47554,5,2,0:0:0:0:
292,185,47713,1,0,0:0:0:0:
260,18,47873,1,8,0:0:0:0:
119,183,48032,1,8,0:0:0:0:
361,140,48192,5,4,0:0:0:0:
287,335,48352,1,2,0:0:0:0:
149,277,48511,2,0,P|128:323|148:381,1,90,8|0,0:0|0:0,0:0:0:0:
361,140,48830,2,0,L|175:162,1,180,2|8,0:0|0:0,0:0:0:0:
205,44,49309,1,0,0:0:0:0:
257,235,49469,5,2,0:0:0:0:
386,28,49628,1,2,0:0:0:0:
450,220,49788,2,0,P|465:281|443:327,1,90,8|0,0:0|0:0,0:0:0:0:
236,378,50107,2,0,L|258:278,1,90,2|0,0:0|0:0,0:0:0:0:
218,133,50426,1,8,0:0:0:0:
385,272,50586,1,0,0:0:0:0:
141,270,50745,5,2,0:0:0:0:
338,118,50905,1,2,0:0:0:0:
99,50,51064,2,0,P|68:89|65:139,1,90,8|0,0:0|0:0,0:0:0:0:
335,242,51383,1,2,0:0:0:0:
159,114,51543,1,0,0:0:0:0:
375,12,51703,2,0,P|397:61|385:105,1,90,8|2,0:0|0:0,0:0:0:0:
137,270,52022,5,0,0:0:0:0:
232,113,52181,1,2,0:0:0:0:
422,230,52341,2,0,P|380:246|336:243,1,90,8|2,0:0|0:0,0:0:0:0:
145,103,52660,2,0,P|189:97|231:112,1,90,0|2,0:0|0:0,0:0:0:0:
427,98,52979,1,8,0:0:0:0:
427,98,53298,5,12,0:0:0:0:
230,60,53458,1,0,0:0:0:0:
299,243,53617,1,0,0:0:0:0:
338,22,53777,1,12,0:0:0:0:
107,52,53937,5,0,0:0:0:0:
314,138,54097,1,0,0:0:0:0:
230,60,54256,1,12,0:0:0:0:
135,269,54416,1,0,0:0:0:0:
217,176,54575,5,2,0:0:0:0:
17,70,54735,1,12,0:0:0:0:
15,320,54894,6,0,L|45:208,1,90,0|0,0:0|0:0,0:0:0:0:
223,372,55213,1,12,0:0:0:0:
153,116,55373,1,8,0:0:0:0:
153,116,55453,1,8,0:0:0:0:
153,116,55532,1,8,0:0:0:0:
104,275,55692,1,0,0:0:0:0:
350,196,55852,5,12,0:0:0:0:
104,275,56011,1,0,0:0:0:0:
260,319,56171,1,8,0:0:0:0:
253,57,56330,1,8,0:0:0:0:
96,115,56490,5,8,0:0:0:0:
350,196,56649,1,8,0:0:0:0:
192,236,56809,1,8,0:0:0:0:
336,39,56968,1,8,0:0:0:0:
471,291,57128,5,12,0:0:0:0:
109,145,57447,1,2,0:0:0:0:
405,57,57766,1,2,0:0:0:0:
434,84,57846,1,0,0:0:0:0:
449,121,57926,1,2,0:0:0:0:
442,161,58006,1,0,0:0:0:0:
430,200,58086,1,2,0:0:0:0:
415,237,58165,1,0,0:0:0:0:
423,276,58245,1,2,0:0:0:0:
446,308,58325,1,0,0:0:0:0:
474,336,58405,6,0,B|402:304|365:351|281:318,1,180,6|8,0:0|0:0,0:0:0:0:
297,148,58883,1,0,0:0:0:0:
297,148,58963,1,2,0:0:0:0:
297,148,59043,1,2,0:0:0:0:
146,238,59203,1,0,0:0:0:0:
191,153,59362,1,8,0:0:0:0:
296,323,59522,1,0,0:0:0:0:
61,296,59681,6,0,P|28:195|71:122,1,180,2|8,0:0|0:0,0:0:0:0:
272,249,60160,1,0,0:0:0:0:
109,213,60320,1,2,0:0:0:0:
206,89,60479,1,0,0:0:0:0:
197,187,60639,1,8,0:0:0:0:
116,54,60798,1,0,0:0:0:0:
317,14,60958,6,0,P|351:62|349:113,1,90,2|0,0:0|0:0,0:0:0:0:
278,224,61277,1,8,0:0:0:0:
142,185,61437,1,2,0:0:0:0:
142,185,61516,1,8,0:0:0:0:
142,185,61596,1,0,0:0:0:0:
277,133,61756,1,2,0:0:0:0:
195,47,61915,1,8,0:0:0:0:
172,271,62075,1,2,0:0:0:0:
366,136,62235,6,0,L|267:132,1,90,0|2,0:0|0:0,0:0:0:0:
67,284,62554,2,0,L|187:271,1,90,8|2,0:0|0:0,0:0:0:0:
160,91,62873,1,2,0:0:0:0:
337,194,63032,1,0,0:0:0:0:
117,193,63192,1,8,0:0:0:0:
265,58,63352,2,0,L|250:106,1,45,8|8,0:0|0:0,0:0:0:0:
224,226,63511,6,0,P|234:299|334:298,1,180,4|8,0:0|0:0,0:0:0:0:
440,133,63990,2,0,P|372:142|343:173,1,90,2|0,0:0|0:0,0:0:0:0:
464,357,64309,2,0,P|492:300|483:256,1,90,2|8,0:0|0:0,0:0:0:0:
276,279,64628,1,2,0:0:0:0:
276,279,64708,1,8,0:0:0:0:
276,279,64788,6,0,L|383:293,1,90,2|0,0:0|0:0,0:0:0:0:
224,112,65107,1,8,0:0:0:0:
111,215,65266,2,0,P|85:251|89:295,1,90,2|0,0:0|0:0,0:0:0:0:
184,33,65586,1,2,0:0:0:0:
232,204,65745,1,8,0:0:0:0:
119,113,65905,1,0,0:0:0:0:
38,315,66064,5,12,0:0:0:0:
234,106,66224,1,2,0:0:0:0:
350,286,66383,1,8,0:0:0:0:
111,199,66543,1,2,0:0:0:0:
210,291,66703,1,8,0:0:0:0:
170,26,66862,1,2,0:0:0:0:
111,199,67022,1,8,0:0:0:0:
320,64,67181,1,8,0:0:0:0:
320,64,67261,1,8,0:0:0:0:
320,63,67341,6,0,P|352:106|348:152,1,90,12|0,0:0|0:0,0:0:0:0:
139,207,67660,2,0,P|160:158|203:142,1,90,12|0,0:0|0:0,0:0:0:0:
360,299,67979,2,0,P|308:305|265:278,1,90,12|0,0:0|0:0,0:0:0:0:
281,30,68298,1,8,0:0:0:0:
157,110,68458,1,8,0:0:0:0:
157,110,68538,1,8,0:0:0:0:
157,110,68617,6,0,L|101:310,1,180,6|8,0:0|0:0,0:0:0:0:
68,68,69096,1,2,0:0:0:0:
68,68,69176,1,2,0:0:0:0:
68,68,69256,1,2,0:0:0:0:
20,184,69415,1,0,0:0:0:0:
189,32,69575,1,8,0:0:0:0:
222,169,69735,1,2,0:0:0:0:
387,177,69894,6,0,P|402:218|390:260,1,90,2|0,0:0|0:0,0:0:0:0:
321,43,70213,1,8,0:0:0:0:
228,118,70373,1,2,0:0:0:0:
387,177,70532,2,0,L|490:203,1,90,2|0,0:0|0:0,0:0:0:0:
172,283,70852,2,0,L|274:310,1,90,8|8,0:0|0:0,0:0:0:0:
305,328,71091,1,8,0:0:0:0:
305,328,71171,6,0,P|321:251|332:221,1,90,4|0,0:0|0:0,0:0:0:0:
397,150,71490,1,10,0:0:0:0:
187,330,71649,2,0,P|188:212|201:168,1,135,12|0,0:0|0:0,0:0:0:0:
208,166,71969,1,2,0:0:0:0:
324,240,72128,1,8,0:0:0:0:
78,299,72288,6,0,P|34:233|84:137,1,180,8|0,0:0|0:0,0:0:0:0:
163,222,72766,1,8,0:0:0:0:
274,72,72926,1,0,0:0:0:0:
420,201,73086,5,8,0:3:0:0:
208,146,73245,1,8,0:3:0:0:
165,332,73405,1,4,0:3:0:0:
334,123,73564,1,4,0:3:0:0:
186,220,73724,6,0,P|170:167|143:116,1,90,4|0,0:0|0:0,0:0:0:0:
66,283,74043,1,2,0:0:0:0:
155,135,74203,1,0,0:0:0:0:
165,332,74362,2,0,B|235:349|279:313|346:337,1,180,8|2,0:0|0:0,0:0:0:0:
436,384,74841,1,8,0:0:0:0:
350,231,75000,6,0,P|324:182|359:57,1,180,2|2,0:0|0:0,0:0:0:0:
241,116,75479,1,0,0:0:0:0:
201,217,75639,2,0,L|165:318,1,90,8|0,0:0|0:0,0:0:0:0:
353,200,75958,2,0,P|377:119|362:98,1,90,2|8,0:0|0:0,0:0:0:0:
211,18,76277,6,0,P|149:76|148:175,1,180,4|2,0:0|0:0,0:0:0:0:
307,45,76756,1,0,0:0:0:0:
41,109,76915,2,0,L|223:107,1,180,8|2,0:0|0:0,0:0:0:0:
291,206,77394,1,8,0:0:0:0:
126,302,77554,6,0,P|132:234|130:187,1,90,2|0,0:0|0:0,0:0:0:0:
381,146,77873,2,0,P|376:204|377:248,1,90,2|0,0:0|0:0,0:0:0:0:
244,147,78192,1,8,0:0:0:0:
244,147,78511,1,2,0:0:0:0:
276,247,78671,1,8,0:0:0:0:
14,117,78830,5,4,0:0:0:0:
166,285,79149,1,8,0:0:0:0:
213,90,79469,1,10,0:0:0:0:
70,174,79788,1,8,0:0:0:0:
407,99,80107,5,8,0:0:0:0:
96,49,80426,1,8,0:0:0:0:
369,0,80745,1,8,0:0:0:0:
64,136,81064,1,8,0:0:0:0:
483,307,81383,5,4,0:0:0:0:
492,317,82660,1,4,0:0:0:0:
504,336,83617,1,2,0:0:0:0:
469,314,83697,1,0,0:0:0:0:
429,323,83777,1,2,0:0:0:0:
398,349,83857,1,0,0:0:0:0:
381,381,83937,6,0,P|331:366|205:342,1,180,4|8,0:0|0:0,0:0:0:0:
139,246,84415,2,0,P|154:187|156:137,1,90,2|0,0:0|0:0,0:0:0:0:
41,301,84735,1,2,0:0:0:0:
74,101,84894,1,8,0:0:0:0:
139,246,85054,1,0,0:0:0:0:
247,133,85213,6,8,L|356:115,1,90,2|0,0:0|0:0,0:0:0:0:
435,100,85532,1,8,0:0:0:0:
289,218,85692,1,2,0:0:0:0:
289,218,85772,1,2,0:0:0:0:
289,218,85852,1,2,0:0:0:0:
290,35,86011,1,0,0:0:0:0:
405,271,86171,1,8,0:0:0:0:
335,118,86330,1,0,0:0:0:0:
192,221,86490,6,0,P|172:247|164:314,1,90,2|0,0:0|0:0,0:0:0:0:
266,366,86809,1,8,0:0:0:0:
192,221,86969,1,0,0:0:0:0:
42,263,87128,2,0,P|53:213|44:175,1,90,2|0,0:0|0:0,0:0:0:0:
192,221,87447,1,8,0:0:0:0:
133,65,87607,1,0,0:0:0:0:
133,65,87687,1,0,0:0:0:0:
133,65,87766,6,0,P|232:44|326:31,1,180,2|8,0:0|0:0,0:0:0:0:
437,105,88245,1,0,0:0:0:0:
329,234,88405,2,0,P|311:181|310:144,1,90,2|0,0:0|0:0,0:0:0:0:
81,240,88724,1,8,0:0:0:0:
112,214,88804,1,0,0:0:0:0:
152,211,88883,1,0,0:0:0:0:
187,230,88963,1,0,0:0:0:0:
201,267,89043,6,0,L|182:372,1,90,2|0,0:0|0:0,0:0:0:0:
100,134,89362,1,8,0:0:0:0:
277,172,89522,2,0,B|340:197|395:148|455:175,1,180,2|2,0:0|0:0,0:0:0:0:
405,371,90000,2,0,P|389:324|406:274,1,90,8|0,0:0|0:0,0:0:0:0:
486,144,90320,5,2,0:0:0:0:
278,81,90479,1,2,0:0:0:0:
310,176,90639,1,8,0:0:0:0:
379,5,90798,1,2,0:0:0:0:
118,18,90958,5,2,0:0:0:0:
358,99,91117,1,0,0:0:0:0:
295,2,91277,1,8,0:0:0:0:
226,240,91437,1,2,0:0:0:0:
358,99,91596,5,12,0:0:0:0:
246,77,91756,1,0,0:0:0:0:
415,216,91915,1,12,0:0:0:0:
174,173,92075,1,0,0:0:0:0:
176,313,92235,5,10,0:0:0:0:
206,286,92314,1,0,0:0:0:0:
246,279,92394,1,0,0:0:0:0:
283,294,92474,1,0,0:0:0:0:
314,319,92554,1,10,0:0:0:0:
351,332,92633,1,0,0:0:0:0:
391,327,92713,1,0,0:0:0:0:
423,302,92793,1,0,0:0:0:0:
445,268,92873,6,0,L|422:195,1,67.5000025749208,8|0,0:0|0:0,0:0:0:0:
303,94,93032,2,0,L|278:178,1,67.5000025749208,8|0,0:0|0:0,0:0:0:0:
169,230,93192,2,0,L|84:201,1,67.5000025749208,8|0,0:0|0:0,0:0:0:0:
289,311,93352,2,0,L|301:377,1,67.5000025749208,8|0,0:0|0:0,0:0:0:0:
360,211,93511,5,10,0:0:0:0:
360,211,93591,1,8,0:0:0:0:
360,211,93671,1,8,0:0:0:0:
360,211,93750,1,8,0:0:0:0:
360,211,93830,2,0,L|493:190,1,135.000005149842,4|0,0:0|0:0,0:0:0:0:
226,115,94149,6,0,P|201:137|192:169,1,67.5000025749208,6|0,0:0|0:0,0:0:0:0:
157,300,94469,2,0,P|146:262|121:235,1,67.5000025749208,0|2,0:0|0:0,0:0:0:0:
36,132,94788,2,0,P|68:148|110:147,1,67.5000025749208,0|2,0:0|0:0,0:0:0:0:
290,94,95107,2,0,L|218:117,1,67.5000025749208,0|2,0:0|0:0,0:0:0:0:
311,180,95426,6,0,L|375:159,1,67.5000025749208,0|2,0:0|0:0,0:0:0:0:
463,210,95745,2,0,L|501:139,1,67.5000025749208,0|2,0:0|0:0,0:0:0:0:
379,249,96064,2,0,L|402:329,1,67.5000025749208,0|2,0:0|0:0,0:0:0:0:
463,210,96383,2,0,L|441:126,1,67.5000025749208,0|2,0:0|0:0,0:0:0:0:
445,144,96623,1,0,0:0:0:0:
445,144,96703,5,2,0:0:0:0:
512,79,96862,1,0,0:0:0:0:
445,144,97022,2,0,L|378:130,1,67.5000025749208,2|2,0:0|0:0,0:0:0:0:
201,84,97341,1,0,0:0:0:0:
278,32,97500,1,2,0:0:0:0:
296,126,97660,2,0,L|270:207,1,67.5000025749208,0|2,0:0|0:0,0:0:0:0:
329,338,97979,6,0,P|371:265|344:217,1,135.000005149842,2|0,0:0|0:0,0:0:0:0:
243,246,98458,2,0,L|219:326,1,67.5000025749208,2|0,0:0|0:0,0:0:0:0:
176,174,98777,2,0,L|100:183,1,67.5000025749208,2|0,0:0|0:0,0:0:0:0:
280,160,99096,1,2,0:0:0:0:
60,249,99256,6,0,P|25:189|66:112,1,135.000005149842,4|2,0:0|0:0,0:0:0:0:
156,265,99735,2,0,L|126:337,2,67.5000025749208,0|2|0,0:0|0:0|0:0,0:0:0:0:
243,246,100213,2,0,L|298:286,1,67.5000025749208,2|0,0:0|0:0,0:0:0:0:
464,287,100532,6,0,L|351:210,1,135.000005149842,2|2,0:0|0:0,0:0:0:0:
271,104,101011,2,0,P|336:87|403:91,1,135.000005149842,2|2,0:0|0:0,0:0:0:0:
403,91,101490,1,0,0:0:0:0:
273,13,101649,1,2,0:0:0:0:
209,181,101809,6,0,P|183:236|168:330,1,135.000005149842,2|0,0:0|0:0,0:0:0:0:
322,293,102288,2,0,P|297:270|265:261,1,67.5000025749208,2|0,0:0|0:0,0:0:0:0:
49,327,102607,2,0,P|70:352|101:365,1,67.5000025749208,2|0,0:0|0:0,0:0:0:0:
99,219,102926,1,2,0:0:0:0:
228,133,103086,6,0,P|255:189|264:273,1,135.000005149842,2|2,0:0|0:0,0:0:0:0:
360,200,103564,1,0,0:0:0:0:
381,357,103724,2,0,P|394:302|412:276,1,67.5000025749208,2|0,0:0|0:0,0:0:0:0:
399,292,103963,1,0,0:0:0:0:
399,292,104043,1,2,0:0:0:0:
492,149,104203,1,8,0:0:0:0:
492,149,104282,1,8,0:0:0:0:
492,149,104362,6,0,L|358:179,1,135.000005149842,4|0,0:0|0:0,0:0:0:0:
360,178,104841,1,2,0:0:0:0:
61,104,105160,2,0,L|193:75,1,135.000005149842,2|4,0:0|0:0,0:0:0:0:
336,102,105639,5,0,0:0:0:0:
193,75,105798,1,8,0:0:0:0:
320,188,105958,1,8,0:0:0:0:
277,35,106117,1,2,0:0:0:0:
181,162,106277,1,2,0:0:0:0:
336,102,106437,1,0,0:0:0:0:
241,230,106596,1,8,0:0:0:0:
193,75,106756,1,0,0:0:0:0:
394,38,106915,6,0,P|426:93|408:166,1,135.000005149842,2|8,0:0|0:0,0:0:0:0:
309,206,107394,2,0,L|292:135,1,67.5000025749208,2|0,0:0|0:0,0:0:0:0:
218,269,107713,2,0,L|199:340,1,67.5000025749208,2|8,0:0|0:0,0:0:0:0:
192,130,108032,1,2,0:0:0:0:
192,130,108112,1,2,0:0:0:0:
192,130,108192,1,0,0:0:0:0:
295,177,108352,5,2,0:0:0:0:
102,89,108511,1,8,0:0:0:0:
238,250,108671,1,2,0:0:0:0:
113,181,108830,1,0,0:0:0:0:
110,324,108990,1,2,0:0:0:0:
25,137,109149,1,8,0:0:0:0:
0,258,109309,1,0,0:0:0:0:
114,347,109469,6,0,P|164:369|242:342,1,135.000005149842,2|8,0:0|0:0,0:0:0:0:
257,150,109947,2,0,P|228:184|218:223,1,67.5000025749208,2|0,0:0|0:0,0:0:0:0:
348,98,110266,1,2,0:0:0:0:
440,178,110426,2,0,P|456:222|455:257,1,67.5000025749208,8|2,0:0|0:0,0:0:0:0:
321,319,110745,6,0,L|335:253,1,67.5000025749208,0|0,0:0|0:0,0:0:0:0:
410,74,111064,2,0,P|351:97|336:97,1,67.5000025749208,8|0,0:0|0:0,0:0:0:0:
193,118,111383,2,0,P|130:113|107:96,1,67.5000025749208,2|0,0:0|0:0,0:0:0:0:
29,42,111703,1,8,0:0:0:0:
29,42,111862,1,2,0:0:0:0:
142,26,112022,5,2,0:0:0:0:
45,138,112181,2,0,P|33:202|32:272,1,135.000005149842,2|0,0:0|0:0,0:0:0:0:
144,233,112660,1,2,0:0:0:0:
121,331,112820,1,0,0:0:0:0:
248,180,112979,1,8,0:0:0:0:
282,276,113139,1,0,0:0:0:0:
386,214,113298,6,0,L|419:118,1,90,2|0,0:0|0:0,0:0:0:0:
169,251,113617,2,0,L|139:336,1,90,10|0,0:0|0:0,0:0:0:0:
212,152,113937,1,2,0:0:0:0:
387,289,114096,1,0,0:0:0:0:
169,251,114256,1,10,0:0:0:0:
337,140,114415,1,0,0:0:0:0:
258,355,114575,5,6,0:0:0:0:
430,161,114735,1,0,0:0:0:0:
495,309,114894,1,8,0:0:0:0:
270,219,115054,1,0,0:0:0:0:
336,38,115213,2,0,L|524:78,1,180,2|8,0:0|0:0,0:0:0:0:
454,262,115692,1,2,0:0:0:0:
454,262,115772,1,2,0:0:0:0:
454,262,115852,6,0,P|426:206|438:158,1,90,2|0,0:0|0:0,0:0:0:0:
215,253,116171,1,8,0:0:0:0:
298,140,116330,1,0,0:0:0:0:
169,55,116490,2,0,P|128:125|140:162,1,90,2|0,0:0|0:0,0:0:0:0:
254,354,116809,2,0,P|300:302|304:196,1,180,8|2,0:0|0:0,0:0:0:0:
44,200,117288,5,0,0:0:0:0:
243,106,117447,1,8,0:0:0:0:
176,225,117607,1,2,0:0:0:0:
67,21,117766,2,0,L|42:212,1,180,2|8,0:0|0:0,0:0:0:0:
251,23,118245,1,8,0:0:0:0:
318,174,118405,6,0,P|313:233|284:267,1,90,0|2,0:0|0:0,0:0:0:0:
118,356,118724,2,0,L|308:331,1,180,8|0,0:0|0:0,0:0:0:0:
436,226,119203,1,2,0:0:0:0:
227,106,119362,2,0,P|216:149|227:193,1,90,8|0,0:0|0:0,0:0:0:0:
459,319,119681,6,0,L|357:304,1,90,12|0,0:0|0:0,0:0:0:0:
138,210,120000,2,0,L|250:188,1,90,12|0,0:0|0:0,0:0:0:0:
212,304,120320,1,2,0:0:0:0:
330,106,120479,1,8,0:0:0:0:
355,213,120639,1,2,0:0:0:0:
233,26,120798,1,0,0:0:0:0:
82,137,120958,6,0,P|53:168|46:215,1,90,12|0,0:0|0:0,0:0:0:0:
330,106,121277,1,2,0:0:0:0:
204,344,121437,2,0,L|229:126,1,180,12|0,0:0|0:0,0:0:0:0:
415,45,121915,2,0,P|437:115|426:143,1,90,12|0,0:0|0:0,0:0:0:0:
408,244,122235,5,2,0:0:0:0:
157,125,122394,1,8,0:0:0:0:
314,124,122554,1,8,0:0:0:0:
221,46,122713,1,0,0:0:0:0:
306,217,122873,1,2,0:0:0:0:
101,213,123032,2,0,P|65:186|57:143,1,90,8|2,0:0|0:0,0:0:0:0:
314,124,123352,1,0,0:0:0:0:
100,52,123511,6,0,L|17:236,1,180,4|2,0:0|0:0,0:0:0:0:
199,368,123990,2,0,L|273:203,1,180,12|0,0:0|0:0,0:0:0:0:
92,330,124469,1,8,0:0:0:0:
334,272,124628,1,8,0:0:0:0:
190,132,124788,6,0,P|295:93|321:99,1,135.000005149842,6|0,0:0|0:0,0:0:0:0:
399,132,125266,1,2,0:0:0:0:
284,317,125426,2,0,L|329:159,1,135.000005149842,2|2,0:0|0:0,0:0:0:0:
491,293,125905,6,0,P|463:337|369:358,1,135.000005149842,2|0,0:0|0:0,0:0:0:0:
284,317,126383,2,0,P|268:370|273:398,1,67.5000025749208,2|2,0:0|0:0,0:0:0:0:
182,299,126703,2,0,P|195:248|190:213,1,67.5000025749208,2|0,0:0|0:0,0:0:0:0:
123,165,127022,1,0,0:0:0:0:
49,325,127181,6,0,L|200:295,1,135.000005149842,2|0,0:0|0:0,0:0:0:0:
297,219,127660,1,2,0:0:0:0:
297,371,127820,2,0,P|279:342|278:308,1,67.5000025749208,2|0,0:0|0:0,0:0:0:0:
393,214,128139,1,0,0:0:0:0:
393,214,128219,1,0,0:0:0:0:
393,214,128298,1,2,0:0:0:0:
195,224,128458,6,0,L|241:66,1,135.000005149842,2|0,0:0|0:0,0:0:0:0:
121,107,128937,1,2,0:0:0:0:
293,10,129096,2,0,P|339:77|327:133,1,135.000005149842,2|0,0:0|0:0,0:0:0:0:
330,126,129575,1,8,0:0:0:0:
232,218,129735,1,0,0:0:0:0:
232,218,129814,1,8,0:0:0:0:
232,218,129894,6,0,L|206:174,1,45,4|0,1:2|0:0,0:0:0:0:
403,222,130054,2,0,L|429:265,1,45,0|0,0:0|0:0,0:0:0:0:
310,291,130213,2,0,L|268:309,1,45,2|0,3:2|3:0,0:0:0:0:
331,144,130373,2,0,L|407:108,1,45,0|0,3:0|3:0,0:0:0:0:
447,37,130532,5,8,0:2:0:0:
410,19,130612,1,8,0:0:0:0:
369,16,130692,1,8,0:0:0:0:
330,29,130772,1,8,0:0:0:0:
292,44,130852,1,8,0:2:0:0:
252,49,130931,1,8,0:0:0:0:
211,48,131011,1,8,0:0:0:0:
171,37,131091,1,8,0:0:0:0:
131,26,131171,6,0,L|93:97,1,45,2|0,1:2|1:0,0:0:0:0:
112,222,131330,2,0,L|132:181,1,45,0|8,1:0|0:0,0:0:0:0:
279,118,131490,2,0,L|241:189,1,45,8|8,0:2|0:0,0:0:0:0:
260,314,131649,2,0,L|280:273,1,45,8|8,0:0|0:0,0:0:0:0:
363,208,131809,5,2,0:2:0:0:
363,208,131889,1,8,0:0:0:0:
363,208,131969,1,2,0:0:0:0:
363,208,132048,1,0,0:0:0:0:
363,208,132128,2,0,L|407:195,1,45,2|0,0:2|0:0,0:0:0:0:
477,321,132288,2,0,L|419:310,1,45,0|0,0:0|0:0,0:0:0:0:
195,258,132447,5,4,0:0:0:0:
186,255,133086,1,4,0:0:0:0:
173,252,133724,6,0,P|180:115|190:69,1,180,4|2,0:0|0:0,0:0:0:0:
76,268,134203,1,0,0:0:0:0:
288,225,134362,2,0,P|296:267|302:330,1,90,6|0,0:0|0:0,0:0:0:0:
505,120,134681,1,2,0:0:0:0:
505,120,134761,1,0,0:0:0:0:
505,120,134841,1,0,0:0:0:0:
505,120,134921,1,0,0:0:0:0:
505,120,135000,6,0,B|312:138,1,180,6|8,0:0|0:0,0:0:0:0:
427,248,135478,1,0,0:0:0:0:
427,248,135558,1,2,0:0:0:0:
427,248,135638,1,2,0:0:0:0:
210,108,135798,1,0,0:0:0:0:
191,231,135957,1,8,0:0:0:0:
295,41,136117,1,2,0:0:0:0:
61,88,136276,6,0,P|20:160|24:264,1,180,2|8,0:0|0:0,0:0:0:0:
196,100,136755,1,2,0:0:0:0:
277,230,136915,1,2,0:0:0:0:
96,306,137074,1,0,0:0:0:0:
282,336,137235,1,8,0:0:0:0:
139,204,137393,1,0,0:0:0:0:
355,208,137553,6,0,P|366:250|355:293,1,90,2|0,0:0|0:0,0:0:0:0:
312,111,137872,1,8,0:0:0:0:
477,245,138032,1,2,0:0:0:0:
477,245,138111,1,8,0:0:0:0:
477,245,138191,1,0,0:0:0:0:
312,111,138351,1,2,0:0:0:0:
252,213,138510,1,8,0:0:0:0:
434,125,138670,1,2,0:0:0:0:
309,1,138830,6,0,L|200:16,1,90,0|2,0:0|0:0,0:0:0:0:
26,146,139149,2,0,L|116:156,1,90,8|2,0:0|0:0,0:0:0:0:
310,174,139468,1,2,0:0:0:0:
152,59,139627,1,0,0:0:0:0:
310,174,139787,1,8,0:0:0:0:
288,63,139947,2,0,L|354:82,1,45,10|8,0:0|0:0,0:0:0:0:
444,188,140106,6,0,P|434:261|334:260,1,180,4|8,0:0|0:0,0:0:0:0:
288,63,140585,2,0,P|305:103|301:147,1,90,2|0,0:0|0:0,0:0:0:0:
136,289,140904,2,0,P|121:248|130:205,1,90,2|8,0:0|0:0,0:0:0:0:
441,168,141223,1,2,0:0:0:0:
441,168,141303,1,0,0:0:0:0:
441,168,141383,6,0,L|320:160,1,90,2|0,0:0|0:0,0:0:0:0:
215,261,141702,1,8,0:0:0:0:
56,160,141862,2,0,P|32:196|35:253,1,90,2|0,0:0|0:0,0:0:0:0:
323,355,142181,1,0,0:0:0:0:
194,185,142340,1,8,0:0:0:0:
83,355,142500,1,0,0:0:0:0:
84,43,142659,5,12,0:0:0:0:
227,275,142819,1,2,0:0:0:0:
337,87,142978,1,8,0:0:0:0:
118,203,143138,1,2,0:0:0:0:
207,76,143298,1,8,0:0:0:0:
358,249,143457,1,2,0:0:0:0:
456,21,143617,1,8,0:0:0:0:
263,208,143776,1,8,0:0:0:0:
263,208,143856,1,8,0:0:0:0:
262,208,143936,6,0,P|261:154|291:119,1,90,12|0,0:0|0:0,0:0:0:0:
76,240,144255,2,0,P|97:289|140:305,1,90,12|0,0:0|0:0,0:0:0:0:
419,222,144575,2,0,P|460:204|504:212,1,90,12|0,0:0|0:0,0:0:0:0:
303,328,144893,1,8,0:0:0:0:
197,130,145053,1,8,0:0:0:0:
197,130,145133,1,8,0:0:0:0:
197,130,145212,6,0,L|148:321,1,180,6|8,0:0|0:0,0:0:0:0:
288,190,145691,1,2,0:0:0:0:
288,190,145771,1,2,0:0:0:0:
288,190,145851,1,2,0:0:0:0:
53,291,146010,1,0,0:0:0:0:
290,284,146170,1,8,0:0:0:0:
115,160,146330,1,2,0:0:0:0:
323,109,146489,6,0,P|372:160|364:213,1,90,2|0,0:0|0:0,0:0:0:0:
338,353,146808,1,8,0:0:0:0:
204,163,146968,1,2,0:0:0:0:
462,226,147128,2,0,L|358:255,1,90,2|0,0:0|0:0,0:0:0:0:
116,186,147447,2,0,L|218:159,1,90,8|10,0:0|0:0,0:0:0:0:
251,143,147686,1,8,0:0:0:0:
251,143,147766,6,0,P|270:184|279:228,1,90,12|0,0:0|0:0,0:0:0:0:
239,331,148085,1,2,0:0:0:0:
376,128,148245,2,0,P|379:183|362:275,1,135,12|0,0:0|0:0,0:0:0:0:
350,291,148564,1,2,0:0:0:0:
244,115,148723,1,8,0:0:0:0:
75,250,148883,6,0,P|129:335|203:337,1,180,8|0,0:0|0:0,0:0:0:0:
444,246,149361,1,8,0:0:0:0:
262,196,149521,1,2,0:0:0:0:
428,332,149681,1,8,0:3:0:0:
331,118,149840,1,8,0:3:0:0:
241,325,150000,1,4,0:3:0:0:
380,205,150159,1,4,0:3:0:0:
201,44,150320,6,0,P|141:83|137:209,1,180,4|2,0:0|0:0,0:0:0:0:
297,102,150798,1,0,0:0:0:0:
226,266,150958,2,0,L|235:176,1,90,8|0,0:0|0:0,0:0:0:0:
386,114,151277,2,0,L|374:220,1,90,2|8,0:0|0:0,0:0:0:0:
370,335,151596,5,2,0:0:0:0:
267,220,151756,1,8,0:0:0:0:
175,342,151915,1,8,0:0:0:0:
93,211,152075,1,0,0:0:0:0:
186,89,152235,6,0,L|180:115,7,22.5,8|0|0|0|8|0|0|0,0:0|0:0|0:0|0:0|0:0|0:0|0:0|0:0,0:0:0:0:
256,46,152554,1,8,0:0:0:0:
376,290,152713,1,8,0:0:0:0:
376,290,152793,1,8,0:0:0:0:
376,290,152873,6,0,P|277:280|177:273,1,180,4|8,0:0|0:0,0:0:0:0:
54,337,153352,1,0,0:0:0:0:
206,191,153511,1,2,0:0:0:0:
56,94,153671,2,0,P|43:162|66:198,1,90,2|8,0:0|0:0,0:0:0:0:
313,194,153990,6,0,P|344:104|276:31,1,180,2|2,0:0|0:0,0:0:0:0:
186,263,154469,2,0,L|156:375,1,90,8|0,0:0|0:0,0:0:0:0:
131,132,154788,1,2,0:0:0:0:
162,349,154947,1,2,0:0:0:0:
312,192,155107,1,8,0:0:0:0:
68,244,155266,1,2,0:0:0:0:
173,38,155426,6,0,L|273:14,1,90,0|2,0:0|0:0,0:0:0:0:
467,137,155745,2,0,L|357:163,1,90,8|0,0:0|0:0,0:0:0:0:
127,127,156064,1,2,0:0:0:0:
222,261,156224,2,0,P|240:207|215:158,1,90,2|8,0:0|0:0,0:0:0:0:
358,88,156543,6,0,P|381:137|385:284,1,180,2|0,0:0|0:0,0:0:0:0:
225,348,157022,2,0,P|217:274|230:244,1,90,8|2,0:0|0:0,0:0:0:0:
299,157,157341,1,2,0:0:0:0:
449,332,157500,1,2,0:0:0:0:
462,132,157660,1,8,0:0:0:0:
303,287,157820,1,2,0:0:0:0:
303,287,157899,1,8,0:0:0:0:
303,287,157979,6,0,B|247:310|178:255|96:293,1,180,4|8,0:0|0:0,0:0:0:0:
307,153,158458,2,0,P|333:75|329:57,1,90,2|0,0:0|0:0,0:0:0:0:
99,177,158777,2,0,L|189:161,1,90,2|8,0:0|0:0,0:0:0:0:
238,14,159096,1,0,0:0:0:0:
96,256,159256,6,0,P|26:197|49:118,1,180,2|8,0:0|0:0,0:0:0:0:
238,14,159735,2,0,P|260:33|276:98,1,90,2|0,0:0|0:0,0:0:0:0:
186,320,160054,2,0,P|194:267|213:236,1,90,0|8,0:0|0:0,0:0:0:0:
459,240,160373,1,2,0:0:0:0:
297,206,160532,5,4,0:0:0:0:
480,109,160692,1,0,0:0:0:0:
308,0,160852,1,2,0:0:0:0:
415,209,161011,5,12,0:0:0:0:
238,99,161171,1,0,0:0:0:0:
424,10,161330,1,8,0:0:0:0:
297,206,161490,5,4,0:0:0:0:
107,69,161649,1,0,0:0:0:0:
69,300,161809,1,0,0:0:0:0:
238,99,161969,5,12,0:0:0:0:
217,331,162128,1,0,0:0:0:0:
28,191,162288,1,8,0:0:0:0:
297,206,162447,5,2,0:0:0:0:
57,89,162607,1,8,0:0:0:0:
27,344,162766,1,8,0:0:0:0:
150,52,162926,1,8,0:0:0:0:
335,317,163086,6,0,P|381:214|359:135,1,180,4|8,0:0|0:0,0:0:0:0:
264,25,163564,1,0,0:0:0:0:
199,217,163724,1,2,0:0:0:0:
264,25,163883,2,0,L|444:72,1,180,2|0,0:0|0:0,0:0:0:0:
396,300,164362,6,0,P|328:209|378:160,1,180,2|8,0:0|0:0,0:0:0:0:
215,279,164841,2,0,P|218:354|198:384,1,90,2|0,0:0|0:0,0:0:0:0:
187,146,165160,1,2,0:0:0:0:
62,289,165320,1,8,0:0:0:0:
86,172,165479,1,2,0:0:0:0:
284,204,165639,6,0,P|302:155|286:105,1,90,2|0,0:0|0:0,0:0:0:0:
174,250,165958,1,8,0:0:0:0:
242,47,166117,1,8,0:0:0:0:
242,47,166197,1,8,0:0:0:0:
242,47,166277,1,10,0:0:0:0:
391,241,166437,1,8,0:0:0:0:
205,149,166596,1,8,0:0:0:0:
382,370,166756,6,0,P|489:336|509:264,1,180,4|0,0:0|0:0,0:0:0:0:
509,248,167155,1,8,0:0:0:0:
498,218,167235,1,8,0:0:0:0:
229,335,167394,1,8,0:0:0:0:
395,98,167554,5,2,0:0:0:0:
147,258,167713,1,0,0:0:0:0:
410,235,167873,1,8,0:0:0:0:
196,151,168032,1,8,0:0:0:0:
164,141,168112,1,8,0:0:0:0:
132,134,168192,5,4,0:2:0:0:
52,299,168351,1,0,0:0:0:0:
197,269,168510,1,8,0:0:0:0:
114,127,168670,5,2,0:2:0:0:
75,325,168829,1,0,0:0:0:0:
221,251,168988,1,8,0:0:0:0:
87,119,169149,5,2,0:2:0:0:
103,360,169308,1,0,0:0:0:0:
249,229,169467,1,8,0:0:0:0:
34,98,169628,5,2,0:2:0:0:
122,359,169787,1,0,0:0:0:0:
245,171,169946,1,8,0:0:0:0:
16,234,170106,5,8,0:2:0:0:
220,63,170266,1,8,0:0:0:0:
462,241,170426,5,4,0:2:0:0:
316,102,170585,1,0,0:0:0:0:
451,42,170745,1,8,0:0:0:0:
402,286,170904,5,2,0:2:0:0:
286,96,171063,1,0,0:0:0:0:
446,71,171223,1,8,0:0:0:0:
330,347,171383,5,2,0:2:0:0:
254,90,171542,1,0,0:0:0:0:
447,111,171702,1,8,0:0:0:0:
225,375,171862,5,2,0:2:0:0:
216,43,172021,1,0,0:0:0:0:
440,130,172181,1,8,0:0:0:0:
140,276,172340,5,8,0:2:0:0:
359,66,172500,1,8,0:2:0:0:
27,35,172660,5,4,0:0:0:0:
59,316,172819,1,8,0:0:0:0:
279,141,172979,1,8,0:0:0:0:
45,217,173138,5,4,0:0:0:0:
117,71,173298,1,8,0:0:0:0:
200,210,173457,1,8,0:0:0:0:
45,217,173617,5,4,0:0:0:0:
303,329,173777,1,8,0:0:0:0:
262,51,173936,1,8,0:0:0:0:
210,292,174096,5,4,0:0:0:0:
120,158,174255,1,8,0:0:0:0:
276,139,174415,1,8,0:0:0:0:
210,292,174574,5,4,0:0:0:0:
448,136,174734,1,8,0:0:0:0:
194,9,174894,1,8,0:0:0:0:
276,139,175053,1,4,0:0:0:0:
276,139,175372,5,0,0:0:0:0:
326,25,175532,5,10,0:0:0:0:
236,247,175691,1,8,0:0:0:0:
223,5,175851,5,10,0:0:0:0:
341,282,176011,1,8,0:0:0:0:
126,94,176170,5,10,0:0:0:0:
422,190,176330,1,8,0:0:0:0:
96,186,176489,5,10,0:0:0:0:
396,94,176649,1,8,0:0:0:0:
235,329,176808,5,10,0:0:0:0:
322,15,176968,1,8,0:0:0:0:
329,313,177128,5,10,0:0:0:0:
223,5,177287,1,10,0:0:0:0:
443,197,177447,5,10,0:0:0:0:
100,87,177606,1,10,0:0:0:0:
292,139,177766,5,4,0:0:0:0:
296,143,177925,1,0,0:0:0:0:
299,149,178085,1,2,0:0:0:0:
301,155,178245,1,0,0:0:0:0:
304,161,178404,5,0,0:0:0:0:
304,167,178564,1,0,0:0:0:0:
305,173,178724,1,2,0:0:0:0:
306,179,178883,1,0,0:0:0:0:
262,246,179042,5,0,0:0:0:0:
180,243,179202,1,0,0:0:0:0:
138,173,179362,1,2,0:0:0:0:
58,186,179521,2,0,P|41:229|56:337,1,135.000005149842,0|2,0:0|0:0,0:0:0:0:
46,316,180160,1,0,0:0:0:0:
121,344,180319,5,0,0:0:0:0:
146,266,180479,1,0,0:0:0:0:
224,248,180638,1,2,0:0:0:0:
197,324,180798,1,0,0:0:0:0:
266,364,180957,5,0,0:0:0:0:
340,331,181117,1,0,0:0:0:0:
361,252,181277,1,2,0:0:0:0:
296,204,181436,2,0,B|300:168|300:168|327:138|327:138|341:106|343:67|320:37|290:30,1,202.500007724762,0|2,0:0|0:0,0:0:0:0:
294,31,182394,5,0,0:0:0:0:
365,69,182553,1,2,0:0:0:0:
443,47,182713,1,0,0:0:0:0:
495,108,182872,2,0,P|502:195|482:244,1,135.000005149842,2|0,0:0|0:0,0:0:0:0:
485,238,183351,1,2,0:0:0:0:
340,311,183670,5,0,0:0:0:0:
340,311,183830,1,0,0:0:0:0:
275,262,183989,2,0,B|197:237|130:264|130:264|71:327,1,202.500007724762,2|0,0:0|0:0,0:0:0:0:
35,246,184628,2,0,P|10:166|36:98,1,135.000005149842,2|0,0:0|0:0,0:0:0:0:
81,62,185106,1,0,0:0:0:0:
153,97,185266,1,0,0:0:0:0:
229,69,185425,6,0,P|338:51|380:49,2,135.000005149842,2|0|2,0:0|0:0|0:0,0:0:0:0:
205,229,186383,1,0,0:0:0:0:
205,229,186542,2,0,P|288:222|321:180,1,135.000005149842,2|0,0:0|0:0,0:0:0:0:
396,133,187021,1,0,0:0:0:0:
462,190,187181,2,0,P|485:235|511:343,1,135.000005149842,2|0,0:0|0:0,0:0:0:0:
277,300,187660,1,0,0:0:0:0:
352,346,187819,1,0,0:0:0:0:
463,105,187979,5,4,0:0:0:0:
372,152,188138,1,0,0:0:0:0:
264,156,188298,2,0,L|122:142,1,135.000005149842,2|2,0:0|0:0,0:0:0:0:
306,6,188777,1,0,0:0:0:0:
306,6,188936,1,2,0:0:0:0:
372,152,189096,6,0,P|437:90|440:21,1,135.000005149842,2|0,0:0|0:0,0:0:0:0:
254,72,189574,1,2,0:0:0:0:
273,201,189734,2,0,L|249:264,1,67.5000025749208,0|2,0:0|0:0,0:0:0:0:
152,121,190053,5,0,0:0:0:0:
168,232,190213,1,2,0:0:0:0:
254,72,190372,1,0,0:0:0:0:
450,174,190532,6,0,L|419:266,1,90,4|0,0:0|0:0,0:0:0:0:
247,344,190851,2,0,L|283:250,1,90,8|0,0:0|0:0,0:0:0:0:
173,89,191170,6,8,B|220:118|220:118|278:84|340:113,1,180,4|8,0:0|0:0,0:0:0:0:
251,8,191649,1,8,0:0:0:0:
382,214,191808,6,0,P|435:155|437:106,1,90,4|0,0:0|0:0,0:0:0:0:
274,202,192128,1,8,0:0:0:0:
261,300,192287,1,8,0:0:0:0:
287,106,192447,5,8,0:0:0:0:
176,189,192606,1,8,0:0:0:0:
372,217,192766,5,8,0:3:0:0:
220,23,192925,1,8,0:3:0:0:
372,217,193085,5,4,0:0:0:0:
220,23,193245,1,0,0:0:0:0:
146,214,193404,1,8,0:0:0:0:
307,91,193564,1,0,0:0:0:0:
70,105,193723,2,0,P|40:168|28:291,1,180,2|8,0:0|0:0,0:0:0:0:
225,134,194202,1,0,0:0:0:0:
304,313,194362,5,2,0:0:0:0:
180,229,194521,1,0,0:0:0:0:
304,172,194681,1,8,0:0:0:0:
171,351,194840,1,0,0:0:0:0:
401,342,195000,2,0,P|407:266|397:240,1,90,2|0,0:0|0:0,0:0:0:0:
215,98,195319,2,0,P|208:173|218:199,1,90,8|0,0:0|0:0,0:0:0:0:
395,60,195638,5,10,0:0:0:0:
310,250,195798,1,0,0:0:0:0:
443,306,195957,1,10,0:0:0:0:
133,307,196117,1,0,0:0:0:0:
371,207,196277,5,10,0:0:0:0:
87,210,196436,1,0,0:0:0:0:
208,255,196596,1,10,0:0:0:0:
185,6,196755,1,8,0:0:0:0:
365,128,196915,5,8,0:0:0:0:
159,277,197074,1,8,0:0:0:0:
439,205,197234,1,8,0:0:0:0:
269,84,197394,1,8,0:0:0:0:
489,323,197553,5,8,0:0:0:0:
255,176,197713,1,8,0:0:0:0:
366,61,197872,1,8,0:0:0:0:
224,334,198032,1,8,0:0:0:0:
483,45,198191,5,2,0:0:0:0:
480,208,199468,6,0,B|462:234|404:248|404:248|439:307|439:307|379:357|281:307,1,323.999990112305,6|0,0:0|0:0,0:0:0:0:
237,84,200745,2,0,B|143:27|80:73|80:73|111:134|111:134|52:144|32:170,1,323.999990112305,6|0,0:0|0:0,0:0:0:0:
248,333,202022,6,0,L|264:231,1,90,12|0,0:0|0:0,0:0:0:0:
127,278,202340,1,2,0:0:0:0:
379,65,202500,2,0,L|265:156,1,135,12|0,0:0|0:0,0:0:0:0:
241,182,202819,1,2,0:0:0:0:
429,164,202979,1,8,0:0:0:0:
77,256,203138,6,0,L|276:290,1,180,4|0,0:0|0:0,0:0:0:0:
286,365,203617,2,0,P|253:310|261:269,1,90,8|0,0:0|0:0,0:0:0:0:
348,146,203936,1,2,0:0:0:0:
459,266,204096,1,0,0:0:0:0:
303,222,204255,1,8,0:0:0:0:
436,149,204415,1,8,0:0:0:0:
436,149,204495,1,8,0:0:0:0:
436,149,204574,5,4,0:0:0:0:
133,181,204894,1,2,0:0:0:0:
215,117,205053,2,0,L|221:49,1,67.5000025749208,0|2,0:0|0:0,0:0:0:0:
58,93,205373,2,0,L|48:168,1,67.5000025749208,0|2,0:0|0:0,0:0:0:0:
135,48,205691,1,0,0:0:0:0:
117,272,205851,5,4,0:0:0:0:
274,184,206011,1,0,0:0:0:0:
224,279,206170,1,2,0:0:0:0:
339,290,206330,1,0,0:0:0:0:
117,272,206489,5,2,0:0:0:0:
229,373,206649,1,0,0:0:0:0:
163,177,206808,1,2,0:0:0:0:
27,282,206968,1,0,0:0:0:0:
27,282,207048,1,0,0:0:0:0:
27,282,207128,6,0,L|50:175,1,90,12|0,0:0|0:0,0:0:0:0:
307,271,207447,1,8,0:0:0:0:
203,87,207606,1,8,0:0:0:0:
153,332,207766,1,8,0:0:0:0:
302,64,207925,1,8,0:0:0:0:
414,295,208085,1,8,0:0:0:0:
237,4,208245,1,8,0:0:0:0:
271,257,208404,1,2,0:0:0:0:
271,257,208723,5,2,0:0:0:0:
201,196,208883,1,0,0:0:0:0:
74,322,209042,6,0,L|220:325,1,135.000005149842,2|2,0:0|0:0,0:0:0:0:
208,324,209681,6,0,B|405:291,1,180,6|8,0:0|0:0,0:0:0:0:
196,197,210159,1,0,0:0:0:0:
196,197,210239,1,2,0:0:0:0:
196,197,210319,1,2,0:0:0:0:
354,104,210479,1,0,0:0:0:0:
188,75,210638,1,8,0:0:0:0:
313,187,210798,1,2,0:0:0:0:
461,82,210957,6,0,P|497:140|479:246,1,180,2|8,0:0|0:0,0:0:0:0:
311,58,211436,1,2,0:0:0:0:
344,295,211596,1,2,0:0:0:0:
296,177,211755,1,0,0:0:0:0:
204,233,211915,1,8,0:0:0:0:
384,122,212074,1,2,0:0:0:0:
168,77,212234,6,0,P|175:120|204:154,1,90,12|0,0:0|0:0,0:0:0:0:
226,0,212553,1,2,0:0:0:0:
76,168,212713,2,0,P|67:222|74:302,1,135,12|0,0:0|0:0,0:0:0:0:
80,334,213032,1,2,0:0:0:0:
5,93,213191,1,8,0:0:0:0:
193,175,213351,1,8,0:0:0:0:
0,224,213511,6,0,L|109:239,1,90,4|0,0:0|0:0,0:0:0:0:
348,298,213830,2,0,L|258:308,1,90,8|0,0:0|0:0,0:0:0:0:
83,333,214149,1,8,0:3:0:0:
348,298,214308,1,8,0:3:0:0:
196,187,214468,1,4,0:3:0:0:
298,83,214628,2,0,L|341:100,1,45,4|8,0:3|0:0,0:0:0:0:
470,134,214787,6,0,P|390:165|345:257,1,180,4|8,0:0|0:0,0:0:0:0:
209,103,215266,2,0,P|192:143|196:187,1,90,2|0,0:0|0:0,0:0:0:0:
470,134,215585,2,0,P|471:89|448:51,1,90,2|8,0:0|0:0,0:0:0:0:
329,19,215904,1,2,0:0:0:0:
276,240,216064,6,0,L|368:216,1,90,4|0,0:0|0:0,0:0:0:0:
219,336,216383,1,8,0:0:0:0:
463,273,216542,1,2,0:0:0:0:
318,311,216702,1,2,3:2:0:0:
324,118,216862,1,0,3:0:0:0:
381,323,217021,2,0,L|398:269,1,45,8|0,3:0|3:0,3:0:0:0:
336,74,217181,2,0,L|319:132,1,45,0|0,3:0|3:0,3:0:0:0:
460,187,217340,6,0,B|388:172|358:215|282:197,1,180,6|8,0:0|0:0,0:0:0:0:
309,32,217819,1,0,0:0:0:0:
309,32,217899,1,2,0:0:0:0:
309,32,217979,1,2,0:0:0:0:
93,132,218138,1,0,0:0:0:0:
208,129,218298,1,8,0:0:0:0:
146,37,218457,1,2,0:0:0:0:
314,167,218617,6,0,P|317:248|253:318,1,180,2|8,0:0|0:0,0:0:0:0:
145,191,219096,1,2,0:0:0:0:
47,269,219255,2,0,L|17:355,1,90,2|0,0:0|0:0,0:0:0:0:
220,133,219574,2,0,P|228:81|181:33,1,90,8|8,0:0|0:0,0:0:0:0:
210,50,219814,1,8,0:0:0:0:
210,50,219893,6,0,L|368:142,1,180,4|2,0:0|0:0,0:0:0:0:
329,0,220372,1,0,0:0:0:0:
135,136,220532,2,0,P|82:236|101:325,1,180,12|8,0:0|0:0,0:0:0:0:
365,140,221011,1,8,0:0:0:0:
191,380,221170,5,4,0:0:0:0:
256,192,221250,12,0,222447,0:0:0:0:
220,43,223085,6,0,L|405:68,1,180,8|0,0:3|0:0,0:0:0:0:
227,142,223564,1,0,0:0:0:0:
328,325,223723,6,0,P|401:270|392:172,1,180,4|2,0:0|0:0,0:0:0:0:
230,273,224202,2,0,L|204:382,1,90,0|8,0:0|0:0,0:0:0:0:
210,157,224521,1,0,0:0:0:0:
230,273,224681,1,2,0:0:0:0:
123,244,224840,1,8,0:0:0:0:
322,156,225001,6,0,P|382:195|364:317,1,180,2|2,0:0|0:0,0:0:0:0:
277,335,225479,1,0,0:0:0:0:
169,292,225639,2,0,L|187:203,1,90,8|0,0:0|0:0,0:0:0:0:
219,77,225958,2,0,L|116:107,1,90,2|8,0:0|0:0,0:0:0:0:
12,142,226277,5,4,0:0:0:0:
219,77,226437,1,0,0:0:0:0:
89,32,226596,1,2,0:0:0:0:
243,174,226756,1,0,0:0:0:0:
168,332,226915,2,0,P|88:351|32:265,1,180,8|2,0:0|0:0,0:0:0:0:
284,328,227394,1,8,0:0:0:0:
379,266,227553,6,0,L|395:173,1,90,2|0,0:0|0:0,0:0:0:0:
181,98,227872,2,0,P|200:185|213:194,1,90,2|0,0:0|0:0,0:0:0:0:
339,5,228191,2,0,L|225:23,1,90,8|0,0:0|0:0,0:0:0:0:
421,122,228511,2,0,P|445:64|435:18,1,90,2|8,0:0|0:0,0:0:0:0:
267,127,228830,5,4,0:0:0:0:
447,305,229149,1,8,0:0:0:0:
166,301,229468,1,8,0:0:0:0:
434,171,229787,1,8,0:0:0:0:
295,237,230106,5,8,0:0:0:0:
330,26,230425,1,8,0:0:0:0:
475,129,230745,1,8,0:0:0:0:
246,106,231064,1,8,0:0:0:0:
357,117,231383,5,2,0:0:0:0:
388,208,232698,1,2,0:0:0:0:
427,294,234013,1,2,0:0:0:0:
256,192,234095,12,0,236150,0:0:0:0:
355,317,236274,6,0,L|364:272,1,45,10|0,0:0|0:0,0:0:0:0:
417,193,236433,2,0,L|405:131,1,45,0|2,0:0|0:0,0:0:0:0:
363,58,236593,6,0,P|275:67|203:153,1,180,6|8,0:0|0:0,0:0:0:0:
400,281,237071,2,0,L|419:178,1,90,2|0,0:0|0:0,0:0:0:0:
211,273,237390,2,0,L|233:377,1,90,2|8,0:0|0:0,0:0:0:0:
313,163,237710,1,2,0:0:0:0:
131,311,237869,6,0,P|83:320|12:212,1,180,2|8,0:0|0:0,0:0:0:0:
138,82,238348,1,2,0:0:0:0:
138,82,238428,1,2,0:0:0:0:
138,82,238507,2,0,L|113:188,1,90,2|0,0:0|0:0,0:0:0:0:
258,62,238827,1,8,0:0:0:0:
322,159,238986,1,0,0:0:0:0:
117,169,239146,6,0,P|79:250|144:319,1,180,2|8,0:0|0:0,0:0:0:0:
322,159,239624,2,0,L|207:149,1,90,2|0,0:0|0:0,0:0:0:0:
364,360,239944,2,0,P|397:304|386:254,1,90,2|8,0:0|0:0,0:0:0:0:
260,286,240263,1,2,0:0:0:0:
404,101,240422,5,2,0:0:0:0:
339,194,240582,1,0,0:0:0:0:
465,198,240741,1,8,0:0:0:0:
247,192,240901,1,2,0:0:0:0:
450,282,241061,1,2,0:0:0:0:
305,111,241220,1,0,0:0:0:0:
288,275,241380,6,0,L|329:215,1,45,10|0,0:0|0:0,0:0:0:0:
141,179,241539,2,0,L|168:236,1,45,2|0,0:0|0:0,0:0:0:0:
266,371,241699,6,0,L|306:188,1,180,2|8,0:0|0:0,0:0:0:0:
179,39,242178,2,0,P|213:110|320:98,1,180,2|2,0:0|0:0,0:0:0:0:
456,18,242656,2,0,L|257:27,1,180,8|2,0:0|0:0,0:0:0:0:
126,211,243135,2,0,L|161:94,1,90,2|8,0:0|0:0,0:0:0:0:
93,42,243454,5,2,0:0:0:0:
253,199,243614,1,2,0:0:0:0:
37,146,243773,1,2,0:0:0:0:
239,6,243933,2,0,P|258:44|245:101,1,90,8|2,0:0|0:0,0:0:0:0:
50,328,244252,5,12,0:0:0:0:
146,204,244412,1,2,0:0:0:0:
177,320,244571,1,8,0:0:0:0:
226,168,244731,1,2,0:0:0:0:
321,264,244890,1,8,0:0:0:0:
294,99,245050,1,2,0:0:0:0:
442,119,245210,1,8,0:0:0:0:
265,10,245369,1,2,0:0:0:0:
445,4,245529,5,8,0:0:0:0:
194,82,245688,1,8,0:0:0:0:
473,211,245848,1,8,0:0:0:0:
168,293,246007,1,8,0:0:0:0:
442,320,246167,5,8,0:3:0:0:
261,333,246327,1,4,0:3:0:0:
351,279,246486,1,8,0:0:0:0:
56,228,246646,1,4,0:0:0:0:
256,192,246725,12,0,253188,0:0:0:0:
