osu file format v14

[General]
AudioFilename: Dear brave.mp3
AudioLeadIn: 0
PreviewTime: 198112
Countdown: 0
SampleSet: Soft
StackLeniency: 0.7
Mode: 0
LetterboxInBreaks: 0
WidescreenStoryboard: 1

[Editor]
DistanceSpacing: 0.8
BeatDivisor: 4
GridSize: 4
TimelineZoom: 2.699999

[Metadata]
Title:Dear Brave
TitleUnicode:ディアブレイブ
Artist:Kano
ArtistUnicode:鹿乃
Creator:Fycho
Version:Normal
Source:ヘヴィーオブジェクト
Tags:Heavy Object ending full ver thzz cah-m
BeatmapID:942075
BeatmapSetID:390668

[Difficulty]
HPDrainRate:4
CircleSize:3.5
OverallDifficulty:4
ApproachRate:5
SliderMultiplier:1.2
SliderTickRate:1

[Events]
//Background and Video events
0,0,"DB.jpg",0,0
Video,-400,"3178815.avi"
//Break Periods
2,86690,92949
2,155626,161886
2,177966,186779
//Storyboard Layer 0 (Background)
//Storyboard Layer 1 (Fail)
//Storyboard Layer 2 (Pass)
//Storyboard Layer 3 (Foreground)
//Storyboard Sound Samples

[TimingPoints]
2235,319.148936170213,4,2,1,50,1,0
7181,-100,4,2,1,70,0,0
17554,-100,4,2,1,50,0,0
37979,-100,4,2,1,60,0,0
43086,-100,4,2,1,50,0,0
48192,-100,4,2,1,70,0,0
55852,-100,4,2,1,50,0,0
56171,-100,4,2,1,55,0,0
56490,-100,4,2,1,60,0,0
56809,-100,4,2,1,65,0,0
57128,-100,4,2,1,70,0,0
58405,-100,4,2,1,80,0,1
73724,-100,4,2,1,70,0,1
81383,-100,4,2,1,50,0,0
83937,-100,4,2,1,70,0,0
94149,-100,4,2,1,50,0,0
113219,-100,4,2,1,50,0,0
114575,-100,4,2,1,70,0,0
124788,-100,4,2,1,50,0,0
135000,-100,4,2,1,90,0,1
152873,-100,4,2,1,80,0,0
168192,319.148936170213,7,2,1,50,1,0
170106,-100,7,2,1,60,0,0
172340,-100,7,2,1,70,0,0
172660,319.148936170213,4,2,1,80,1,0
175372,-100,4,2,1,50,0,0
176170,-100,4,2,1,60,0,0
176489,-100,4,2,1,70,0,0
177128,-100,4,2,1,75,0,0
177447,-100,4,2,1,80,0,0
177925,-100,4,2,1,30,0,0
187979,-100,4,2,1,50,0,0
190532,-100,4,2,1,70,0,0
199468,-100,4,2,1,50,0,0
202021,-100,4,2,1,70,0,0
204574,-100,4,2,1,50,0,0
205851,-100,4,2,1,65,0,0
207128,-100,4,2,1,75,0,0
208404,-100,4,2,1,55,0,0
208723,-100,4,2,1,40,0,0
209042,-100,4,2,1,50,0,0
209681,-100,4,2,1,90,0,1
221330,-100,4,2,1,45,0,1
223723,-100,4,2,1,70,0,1
231383,328.767123287671,4,2,1,50,1,0
236274,319.148936170213,4,2,1,50,1,0
236593,319.148936170213,4,2,1,70,1,0
246725,-100,4,2,1,60,0,0
248082,-100,4,2,1,45,0,0
249358,-100,4,2,1,30,0,0
250635,-100,4,2,1,15,0,0
251912,-100,4,2,1,5,0,0

[Colours]
Combo1 : 68,64,145
Combo2 : 254,73,132
Combo3 : 151,198,255
Combo4 : 52,221,38

[HitObjects]
156,117,7181,6,0,P|224:82|287:85,1,120,4|0,0:0|0:0,0:0:0:0:
313,92,7660,2,0,P|336:130|318:200,1,120,8|2,0:0|0:0,0:0:0:0:
231,240,8298,1,8,0:0:0:0:
231,240,8458,2,0,L|93:235,1,120,2|0,0:0|0:0,0:0:0:0:
65,252,8937,2,0,P|57:323|93:360,1,120,8|2,0:0|0:0,0:0:0:0:
182,360,9575,1,8,0:0:0:0:
182,360,9735,6,0,L|303:353,2,120,4|8|4,0:0|0:0|0:0,0:0:0:0:
206,267,10692,1,10,0:0:0:0:
139,197,11011,2,0,P|129:130|215:63,1,180,4|8,0:0|0:0,0:0:0:0:
302,86,11809,2,0,L|362:68,2,60,2|0|8,0:0|0:0|0:0,0:0:0:0:
282,129,12288,6,0,P|265:187|266:245,1,120,4|0,0:0|0:0,0:0:0:0:
295,284,12766,2,0,L|441:272,1,120,8|0,0:0|0:0,0:0:0:0:
451,243,13245,2,0,P|448:167|424:111,1,120,8|0,0:0|0:0,0:0:0:0:
406,86,13724,2,8,L|276:99,1,120,12|0,0:0|0:0,0:0:0:0:
243,118,14203,2,0,L|121:107,1,120,8|0,0:0|0:0,0:0:0:0:
77,94,14681,2,0,L|54:164,1,60,8|0,0:0|0:0,0:0:0:0:
49,198,15000,6,0,P|53:246|75:318,1,120,12|0,0:0|0:0,0:0:0:0:
93,358,15479,2,0,B|153:396|208:333|280:381,1,180,8|8,0:0|0:0,0:0:0:0:
353,330,16277,1,8,0:0:0:0:
353,330,16437,2,0,P|339:234|372:146,1,180,12|8,0:0|0:0,0:0:0:0:
404,129,17075,1,8,0:0:0:0:
284,49,17554,6,0,L|101:38,1,180,4|2,0:0|0:0,0:0:0:0:
44,113,18352,2,0,P|34:172|71:226,1,120,2|0,0:0|0:0,0:0:0:0:
83,264,18830,2,0,P|180:262|240:318,1,180,2|2,0:0|0:0,0:0:0:0:
308,248,19628,2,0,L|319:166,2,60
334,289,20107,6,0,P|399:293|457:317,1,120,2|0,0:0|0:0,0:0:0:0:
484,273,20586,2,0,P|501:195|477:163,1,120,2|2,0:0|0:0,0:0:0:0:
393,126,21224,2,0,B|348:109|348:109|280:154|214:109,1,180,2|0,0:0|0:0,0:0:0:0:
203,71,21862,2,0,L|74:89,1,120,2|0,0:0|0:0,0:0:0:0:
39,105,22341,1,2,0:0:0:0:
68,196,22660,6,0,L|202:191,1,120,2|0,0:0|0:0,0:0:0:0:
234,201,23139,1,2,0:0:0:0:
376,221,23617,2,0,P|383:262|392:291,1,60,2|0,0:0|0:0,0:0:0:0:
392,327,23937,2,0,B|330:344|269:320|269:320|222:369,1,180,2|2,0:0|0:0,0:0:0:0:
141,325,24735,2,0,P|112:249|131:194,1,120,2|0,0:0|0:0,0:0:0:0:
120,165,25213,6,0,B|165:175|205:154|205:154|230:120|230:120|302:115,1,180,2|2,0:0|0:0,0:0:0:0:
322,202,26011,2,0,P|302:246|287:332,1,120,2|0,0:0|0:0,0:0:0:0:
298,362,26490,2,0,P|360:342|470:390,1,180,2|0,0:0|0:0,0:0:0:0:
492,344,27128,2,0,P|495:250|483:208,1,120,2|0,0:0|0:0,0:0:0:0:
422,156,27766,6,0,P|376:135|289:124,1,120,6|2,0:0|0:0,0:0:0:0:
259,127,28245,2,0,L|223:269,1,120,2|2,0:0|0:0,0:0:0:0:
226,339,28883,2,0,P|163:342|104:366,1,120,2|2,0:0|0:0,0:0:0:0:
77,384,29362,1,2,0:0:0:0:
77,384,29522,2,0,L|111:193,1,180,2|0,0:0|0:0,0:0:0:0:
71,118,30320,6,0,L|204:91,1,120,2|2,0:0|0:0,0:0:0:0:
235,102,30798,2,0,P|256:179|244:220,1,120,2|2,0:0|0:0,0:0:0:0:
201,301,31437,2,0,P|259:292|328:315,1,120,2|2,0:0|0:0,0:0:0:0:
409,335,32075,2,0,P|397:278|408:208,1,120,2|0,0:0|0:0,0:0:0:0:
417,170,32554,1,2,0:0:0:0:
433,75,32873,6,0,L|247:63,1,180,6|2,0:0|0:0,0:0:0:0:
157,60,33671,2,0,L|148:121,1,60,2|0,0:0|0:0,0:0:0:0:
186,207,34149,2,0,P|124:209|75:181,1,120,2|0,0:0|0:0,0:0:0:0:
23,262,34788,2,0,L|10:381,1,120,2|0,0:0|0:0,0:0:0:0:
102,355,35426,5,2,0:0:0:0:
196,335,35745,2,0,P|265:344|332:376,2,120,0|2|0,0:0|0:0|0:0,0:0:0:0:
154,246,36703,1,2,0:0:0:0:
237,198,37022,1,0,0:0:0:0:
166,133,37341,1,2,0:0:0:0:
249,84,37660,1,0,0:0:0:0:
323,144,37979,6,0,L|317:219,1,60,8|8,0:0|0:0,0:0:0:0:
322,251,38298,2,0,L|343:390,2,120,0|2|0,0:0|0:0|0:0,0:0:0:0:
225,251,39256,6,0,L|219:176,1,60,8|8,0:0|0:0,0:0:0:0:
222,143,39575,2,0,L|243:4,2,120,0|2|0,0:0|0:0|0:0,0:0:0:0:
132,177,40532,6,0,L|72:181,1,60,8|8,0:0|0:0,0:0:0:0:
55,226,40852,2,0,L|36:354,2,120,0|2|0,0:0|0:0|0:0,0:0:0:0:
138,274,41809,6,0,L|155:336,1,60,8|8,0:0|0:0,0:0:0:0:
193,358,42128,2,0,L|338:338,2,120,0|2|0,0:0|0:0|0:0,0:0:0:0:
138,274,43086,6,0,L|169:143,1,120,4|0,0:0|0:0,0:0:0:0:
165,109,43564,2,0,P|114:90|47:91,2,120,2|2|2,0:0|0:0|0:0,0:0:0:0:
199,75,44362,2,0,P|245:59|319:66,1,120,2|0,0:0|0:0,0:0:0:0:
372,141,45000,1,2,0:0:0:0:
459,100,45320,1,0,0:0:0:0:
469,195,45639,6,0,B|493:262|481:313|481:313|415:310|370:356,1,240,2|2,0:0|0:0,0:0:0:0:
278,335,46596,2,0,L|290:269,2,60,0|0|2,0:0|0:0|0:0,0:0:0:0:
182,326,47235,1,0,0:0:0:0:
90,297,47554,2,0,L|110:220,1,60,2|0,0:0|0:0,0:0:0:0:
109,191,47873,2,0,L|86:134,1,60,8|8,0:0|0:0,0:0:0:0:
95,88,48192,6,0,B|181:102|181:102|233:86,1,120,4|8,0:0|0:0,0:0:0:0:
299,132,48830,2,0,B|316:189|316:189|290:260,1,120,2|8,0:0|0:0,0:0:0:0:
284,292,49309,1,0,0:0:0:0:
307,334,49469,2,0,B|350:352|350:352|438:342,1,120,2|8,0:0|0:0,0:0:0:0:
426,247,50107,2,0,B|425:169|425:169|458:131,1,120,2|8,0:0|0:0,0:0:0:0:
491,108,50586,1,0,0:0:0:0:
492,60,50745,6,0,B|409:45|409:45|358:64,1,120,2|8,0:0|0:0,0:0:0:0:
279,65,51383,1,2,0:0:0:0:
182,65,51703,2,0,B|174:95|174:95|178:138,1,60,8|2,0:0|0:0,0:0:0:0:
168,171,52022,2,0,B|95:178|95:178|44:132,1,120,2|8,0:0|0:0,0:0:0:0:
30,109,52500,1,2,0:0:0:0:
30,109,52660,2,0,L|-1:250,1,120,2|8,0:0|0:0,0:0:0:0:
57,305,53298,6,0,L|195:287,1,120,4|8,0:0|0:0,0:0:0:0:
224,286,53777,1,12,0:0:0:0:
224,286,53937,2,0,L|354:282,1,120
390,198,54575,2,0,L|262:194,1,120,12|0,0:0|0:0,0:0:0:0:
222,197,55054,1,0,0:0:0:0:
222,197,55213,2,0,P|203:124|240:68,1,120,12|8,0:0|0:0,0:0:0:0:
307,45,55852,5,12,0:0:0:0:
402,55,56171,2,0,P|430:111|423:171,1,120,8|8,0:0|0:0,0:0:0:0:
373,247,56809,1,8,0:0:0:0:
281,219,57128,1,8,0:0:0:0:
91,247,57766,2,0,P|110:170|101:122,1,120,2|0,0:0|0:0,0:0:0:0:
93,35,58405,6,0,B|228:55,1,120,4|8,0:0|0:0,0:0:0:0:
305,72,59043,1,2,0:0:0:0:
248,149,59362,2,0,P|249:186|243:219,1,60,8|0,0:0|0:0,0:0:0:0:
217,248,59681,2,0,P|251:297|315:321,1,120,2|8,0:0|0:0,0:0:0:0:
400,311,60320,1,2,0:0:0:0:
440,223,60639,1,8,0:0:0:0:
385,144,60958,6,0,L|258:143,1,120,2|8,0:0|0:0,0:0:0:0:
222,120,61437,2,0,P|148:95|54:123,1,180,2|8,0:0|0:0,0:0:0:0:
29,165,62075,2,0,P|25:218|25:293,1,120,2|0,0:0|0:0,0:0:0:0:
66,308,62554,1,8,0:0:0:0:
155,272,62873,2,0,P|246:258|287:260,1,120,2|8,0:0|0:0,0:0:0:0:
316,280,63352,1,0,0:0:0:0:
363,282,63511,6,0,L|419:145,1,120,4|8,0:0|0:0,0:0:0:0:
418,123,63990,2,0,P|308:130|287:121,1,120,2|0,0:0|0:0,0:0:0:0:
255,114,64469,1,8,0:0:0:0:
195,38,64788,2,0,L|56:22,1,120,2|8,0:0|0:0,0:0:0:0:
34,51,65266,2,0,P|72:111|33:211,1,180,2|8,0:0|0:0,0:0:0:0:
98,282,66064,5,4,0:0:0:0:
187,246,66383,1,8,0:0:0:0:
282,260,66703,1,8,0:0:0:0:
372,228,67022,1,8,0:0:0:0:
467,227,67341,2,0,P|460:183|451:96,2,120,8|8|8,0:0|0:0|0:0,0:0:0:0:
484,321,68298,1,8,0:0:0:0:
393,354,68617,6,0,P|333:348|270:351,2,120,6|8|2,0:0|0:0|0:0,0:0:0:0:
436,267,69575,2,0,L|441:193,1,60,8|0,0:0|0:0,0:0:0:0:
425,161,69894,2,0,P|346:179|306:177,1,120,2|8,0:0|0:0,0:0:0:0:
253,97,70532,1,2,0:0:0:0:
161,119,70852,1,8,0:0:0:0:
109,199,71171,6,0,P|39:202|3:103,1,180,4|12,0:0|0:0,0:0:0:0:
71,48,71969,2,0,L|140:33,1,60,0|8,0:0|0:0,0:0:0:0:
170,60,72288,2,0,B|215:70|215:70|304:47|304:47|352:57,1,180,12|8,0:0|0:0,0:0:0:0:
378,145,73086,2,0,P|371:179|374:268,1,120,8|8,0:0|0:0,0:0:0:0:
388,309,73564,1,0,0:0:0:0:
391,357,73724,6,0,B|323:339|266:366|266:366|256:340|234:318,1,180,4|0,0:0|0:0,0:0:0:0:
219,277,74362,2,0,P|228:213|234:141,1,120,8|0,0:0|0:0,0:0:0:0:
200,67,75000,1,2,0:0:0:0:
109,99,75320,1,0,0:0:0:0:
75,188,75639,2,0,P|48:262|92:358,1,180,8|10,0:0|0:0,0:0:0:0:
133,349,76277,6,0,L|325:327,1,180,4|0,0:0|0:0,0:0:0:0:
356,310,76915,2,0,P|386:249|374:200,1,120,8|2,0:0|0:0,0:0:0:0:
338,169,77394,1,8,0:0:0:0:
338,169,77554,2,0,L|350:37,2,120,2|0|8,0:0|0:0|0:0,0:0:0:0:
255,217,78511,1,2,0:0:0:0:
159,229,78830,5,4,0:0:0:0:
98,303,79149,1,8,0:0:0:0:
6,272,79469,1,8,0:0:0:0:
13,176,79788,1,8,0:0:0:0:
106,153,80107,1,8,0:0:0:0:
106,153,80426,2,0,L|131:20,2,120,8|8|8,0:0|0:0|0:0,0:0:0:0:
90,247,81383,5,4,0:0:0:0:
269,87,82660,1,4,0:0:0:0:
314,322,83937,1,4,0:0:0:0:
256,192,84096,12,2,86490,0:0:0:0:
75,331,94149,6,0,P|150:296|207:305,1,120,6|2,0:0|0:0,0:0:0:0:
280,308,94788,2,0,L|265:177,1,120,0|2,0:0|0:0,0:0:0:0:
305,101,95426,1,0,0:0:0:0:
396,130,95745,1,2,0:0:0:0:
448,210,96064,2,0,P|459:260|434:330,1,120,0|2,0:0|0:0,0:0:0:0:
342,330,96703,5,0,0:0:0:0:
246,342,97022,1,2,0:0:0:0:
177,274,97341,2,0,P|197:220|183:148,1,120,0|2,0:0|0:0,0:0:0:0:
92,161,97979,2,0,P|71:215|88:298,1,120,0|2,0:0|0:0,0:0:0:0:
122,360,98617,2,0,L|189:361,2,60,0|0|2,0:0|0:0|0:0,0:0:0:0:
159,271,99256,6,0,L|292:274,1,120,4|2,0:0|0:0,0:0:0:0:
373,288,99894,1,0,0:0:0:0:
335,199,100213,1,2,0:0:0:0:
359,106,100532,2,0,L|489:97,2,120,0|2|0,0:0|0:0|0:0,0:0:0:0:
266,79,101490,1,2,0:0:0:0:
172,56,101809,6,0,P|116:50|57:84,1,120,0|2,0:0|0:0,0:0:0:0:
53,174,102447,2,0,L|77:300,1,120,0|2,0:0|0:0,0:0:0:0:
155,344,103086,2,0,L|193:216,1,120,0|2,0:0|0:0,0:0:0:0:
275,179,103724,1,0,0:0:0:0:
351,236,104043,1,2,0:0:0:0:
438,276,104362,6,0,B|435:200|435:200|469:131|469:131|377:131|316:85,1,300,4|8,0:0|0:0,0:0:0:0:
236,67,105479,2,0,B|201:75|185:104|185:104|120:75|49:102|49:102|34:152,1,240,8|0,0:0|0:0,0:0:0:0:
57,179,106277,2,0,P|74:271|69:299,1,120,2|8,0:0|0:0,0:0:0:0:
145,354,106915,6,0,P|219:367|260:343,1,120,2|8,0:0|0:0,0:0:0:0:
282,306,107394,2,0,P|329:286|402:298,1,120,2|2,0:0|0:0,0:0:0:0:
427,330,107873,1,8,0:0:0:0:
474,328,108032,2,0,L|493:192,1,120,2|0,0:0|0:0,0:0:0:0:
467,166,108511,1,8,0:0:0:0:
377,130,108830,2,0,L|373:197,1,60,0|2,0:0|0:0,0:0:0:0:
370,237,109149,1,8,0:0:0:0:
351,331,109469,6,0,P|274:323|232:339,1,120,2|8,0:0|0:0,0:0:0:0:
209,296,109947,2,0,L|235:170,2,120,2|2|2,0:0|0:0|0:0,0:0:0:0:
160,297,110745,2,0,P|107:300|29:307,1,120,2|8,0:0|0:0,0:0:0:0:
26,210,111383,2,0,P|46:166|44:95,1,120,2|8,0:0|0:0,0:0:0:0:
72,3,112022,5,2,0:0:0:0:
162,34,112341,2,0,L|243:43,1,60,8|0,0:0|0:0,0:0:0:0:
266,57,112660,1,2,0:0:0:0:
335,123,112979,2,0,L|329:190,1,60,8|0,0:0|0:0,0:0:0:0:
337,230,113298,2,0,L|367:346,1,120,2|8,0:0|0:0,0:0:0:0:
269,346,113937,2,0,L|239:230,1,120,0|8,0:0|0:0,0:0:0:0:
299,155,114575,5,6,0:0:0:0:
207,125,114894,2,0,L|242:55,1,60,8|0,0:0|0:0,0:0:0:0:
266,35,115213,2,0,L|122:14,1,120,2|8,0:0|0:0,0:0:0:0:
111,49,115692,1,0,0:0:0:0:
70,75,115852,6,0,P|58:113|90:198,1,120,0|8,0:0|0:0,0:0:0:0:
172,214,116490,1,0,0:0:0:0:
267,226,116809,2,0,L|255:299,1,60,8|0,0:0|0:0,0:0:0:0:
264,332,117128,6,0,P|336:314|398:308,1,120,2|8,0:0|0:0,0:0:0:0:
476,323,117766,2,0,B|465:202,1,120,2|8,0:0|0:0,0:0:0:0:
432,167,118245,1,10,0:0:0:0:
432,167,118405,2,0,P|352:164|316:139,1,120,0|8,0:0|0:0,0:0:0:0:
247,80,119043,2,0,L|187:99,2,60,0|0|8,0:0|0:0|0:0,0:0:0:0:
337,48,119681,5,12,0:0:0:0:
431,67,120000,1,12,0:0:0:0:
404,159,120320,2,0,P|416:238|400:285,1,120,8|0,0:0|0:0,0:0:0:0:
365,302,120798,1,0,0:0:0:0:
319,318,120958,2,0,L|183:299,1,120,8|2,0:0|0:0,0:0:0:0:
151,300,121437,2,0,P|168:223|152:178,1,120,8|0,0:0|0:0,0:0:0:0:
113,164,121915,1,8,0:0:0:0:
26,121,122235,6,0,L|34:58,2,60,0|8|8,0:0|0:0|0:0,0:0:0:0:
29,216,122873,1,10,0:0:0:0:
3,308,123192,1,8,0:0:0:0:
83,360,123511,2,0,L|275:350,2,180,4|4|8,0:0|0:0|0:0,0:0:0:0:
117,270,124788,6,0,L|244:263,1,120,6|0,0:0|0:0,0:0:0:0:
333,271,125426,2,0,P|372:223|355:163,1,120,2|2,0:0|0:0,0:0:0:0:
334,129,125905,2,0,L|194:140,1,120
166,133,126383,2,0,P|147:59|176:25,1,120,2|2,0:0|0:0,0:0:0:0:
266,25,127022,1,0,0:0:0:0:
266,25,127181,6,0,L|245:205,1,180,2|0,0:0|0:0,0:0:0:0:
245,252,127820,2,0,P|348:237|445:264,1,180,2|0,0:0|0:0,0:0:0:0:
466,269,128458,2,0,B|467:209|501:151|501:151|487:80,1,180,2|0,0:0|0:0,0:0:0:0:
450,69,129096,2,0,B|332:73|332:73|262:114,1,180,2|8,0:0|0:0,0:0:0:0:
201,162,129894,6,0,P|189:231|205:284,1,120,4|8,0:0|0:0,0:0:0:0:
282,330,130532,2,0,P|294:261|278:208,1,120,0|8,0:0|0:0,0:0:0:0:
365,167,131171,2,0,L|497:151,1,120,0|8,0:0|0:0,0:0:0:0:
511,244,131809,2,0,L|391:258,1,120,0|8,0:0|0:0,0:0:0:0:
300,287,132447,5,4,0:0:0:0:
197,124,133086,1,4,0:0:0:0:
387,99,133724,1,4,0:0:0:0:
303,52,134043,2,0,L|175:43,2,120,0|4|0,0:0|0:0|0:0,0:0:0:0:
301,147,135000,6,0,B|166:127,1,120,4|8,0:0|0:0,0:0:0:0:
89,152,135639,1,0,0:0:0:0:
15,213,135958,2,0,P|11:242|12:272,1,60,8|0,0:0|0:0,0:0:0:0:
48,304,136277,2,0,P|102:327|136:376,1,120,2|8,0:0|0:0,0:0:0:0:
228,350,136915,1,2,0:0:0:0:
323,358,137235,1,8,0:0:0:0:
418,359,137554,6,0,L|453:240,1,120,2|8,0:0|0:0,0:0:0:0:
468,198,138032,2,0,B|399:168|399:168|348:165|299:201,1,180,2|8,0:0|0:0,0:0:0:0:
273,238,138671,2,0,P|277:185|256:121,1,120
223,87,139149,1,8,0:0:0:0:
140,38,139469,2,0,P|72:42|19:74,1,120,2|8,0:0|0:0,0:0:0:0:
13,112,139947,1,8,0:0:0:0:
19,159,140107,6,0,L|33:287,1,120,4|8,0:0|0:0,0:0:0:0:
67,310,140586,2,0,P|177:303|198:312,1,120,2|0,0:0|0:0,0:0:0:0:
225,328,141064,1,8,0:0:0:0:
313,365,141383,2,0,L|450:344,1,120,2|8,0:0|0:0,0:0:0:0:
469,317,141862,2,0,P|434:258|474:159,1,180,2|8,0:0|0:0,0:0:0:0:
419,79,142660,5,4,0:0:0:0:
331,40,142979,1,8,0:0:0:0:
240,72,143298,1,8,0:0:0:0:
189,153,143617,1,8,0:0:0:0:
259,218,143937,2,0,P|266:262|275:349,2,120,14|8|8,0:0|0:0|0:0,0:0:0:0:
173,261,144894,1,8,0:0:0:0:
109,188,145213,6,0,P|123:125|114:71,2,120,6|8|0,0:0|0:0|0:0,0:0:0:0:
64,273,146171,2,0,L|59:347,1,60,8|0,0:0|0:0,0:0:0:0:
106,345,146490,2,0,P|185:327|228:324,1,120,2|8,0:0|0:0,0:0:0:0:
309,366,147128,1,2,0:0:0:0:
341,275,147447,1,8,0:0:0:0:
408,343,147766,6,0,P|488:318|495:233,1,180,4|14,0:0|0:0,0:0:0:0:
444,151,148564,2,0,L|375:166,1,60,0|8,0:0|0:0,0:0:0:0:
337,167,148883,2,0,B|292:157|292:157|203:180|203:180|155:170,1,180,8|0,0:0|0:0,0:0:0:0:
68,149,149681,2,0,P|59:98|72:26,1,120,2|8,0:0|0:0,0:0:0:0:
112,9,150160,1,0,0:0:0:0:
158,21,150320,6,0,B|226:39|283:12|283:12|293:38|315:60,1,180,4|0,0:0|0:0,0:0:0:0:
324,102,150958,1,8,0:0:0:0:
304,195,151277,2,0,L|288:252,2,60,0|8|8,0:0|0:0|0:0,0:0:0:0:
396,168,151915,1,8,0:0:0:0:
449,248,152235,2,0,P|455:304|421:363,2,120,8|0|12,0:0|0:0|0:0,0:0:0:0:
256,192,153032,12,2,155426,0:0:0:0:
457,68,163086,6,0,P|464:144|450:195,1,120,4|8,0:0|0:0,0:0:0:0:
379,246,163724,1,0,0:0:0:0:
379,246,163883,2,0,L|248:241,1,120,2|0,0:0|0:0,0:0:0:0:
211,246,164362,2,0,P|198:168|215:104,1,120,2|8,0:0|0:0,0:0:0:0:
220,81,164841,2,0,L|82:104,1,120,2|0,0:0|0:0,0:0:0:0:
62,128,165320,2,0,P|66:188|48:263,1,120,8|2,0:0|0:0,0:0:0:0:
56,342,165958,6,0,L|143:331,1,60,8|2,0:0|0:0,0:0:0:0:
211,329,166437,1,8,0:0:0:0:
277,259,166756,2,0,P|348:250|407:265,1,120,4|2,0:0|0:0,0:0:0:0:
442,268,167235,2,0,P|469:206|449:148,1,120,8|8,0:0|0:0,0:0:0:0:
369,115,167873,1,8,0:0:0:0:
299,53,168192,6,0,L|169:49,1,120,4|0,0:2|0:0,0:0:0:0:
133,34,168670,2,0,P|88:119|100:149,1,120,8|0,0:0|0:0,0:0:0:0:
97,182,169149,2,0,P|95:241|46:294,1,120,8|0,0:0|0:0,0:0:0:0:
24,320,169628,2,0,L|160:355,1,120,10|0,0:2|0:0,0:0:0:0:
187,343,170106,2,0,L|262:327,1,60,8|8,0:0|0:0,0:0:0:0:
293,323,170426,6,0,L|430:342,1,120,4|0,0:0|0:0,0:0:0:0:
455,320,170904,2,0,P|489:242|474:189,1,120,8|0,0:0|0:0,0:0:0:0:
448,177,171383,2,0,L|329:184,1,120,8|0,0:0|0:0,0:0:0:0:
284,204,171862,2,0,P|191:232|120:169,1,180,8|8,0:0|0:0,0:0:0:0:
49,132,172660,6,0,L|65:50,2,60,4|8|8,0:0|0:0|0:0,0:0:0:0:
19,169,173138,2,0,L|27:306,1,120,4|8,0:0|0:0,0:0:0:0:
31,336,173617,2,0,P|104:318|147:330,1,120,4|8,0:0|0:0,0:0:0:0:
177,365,174096,2,0,L|310:340,1,120,4|8,0:0|0:0,0:0:0:0:
342,338,174574,2,0,P|374:291|373:222,1,120,4|8,0:0|0:0,0:0:0:0:
341,195,175053,5,4,0:0:0:0:
256,192,175372,12,2,177766,0:0:0:0:
67,308,187979,6,0,L|90:179,1,120,4|2,0:0|0:0,0:0:0:0:
110,96,188617,1,0,0:0:0:0:
110,96,188777,2,0,L|177:81,1,60,2|0,0:0|0:0,0:0:0:0:
216,88,189096,2,0,P|247:139|240:266,1,180,2|0,0:0|0:0,0:0:0:0:
233,302,189734,2,0,P|285:297|357:307,1,120,2|0,0:0|0:0,0:0:0:0:
379,345,190213,1,0,0:0:0:0:
473,326,190532,6,0,P|451:263|445:201,1,120,4|8,0:0|0:0,0:0:0:0:
407,122,191170,1,4,0:0:0:0:
312,137,191489,2,0,P|294:78|294:54,1,60,8|8,0:0|0:0,0:0:0:0:
256,50,191808,6,0,L|121:54,1,120,4|8,0:0|0:0,0:0:0:0:
46,90,192447,2,0,L|61:164,1,60,8|8,0:0|0:0,0:0:0:0:
102,167,192766,2,0,L|117:241,1,60,8|8,0:0|0:0,0:0:0:0:
132,275,193085,6,0,B|193:304|252:271|252:271|279:212,1,180,4|0,0:0|0:0,0:0:0:0:
271,124,193883,2,0,L|401:100,1,120,2|0,0:0|0:0,0:0:0:0:
436,94,194362,2,0,P|455:140|443:218,1,120,2|8,0:0|0:0,0:0:0:0:
354,231,195000,1,2,0:0:0:0:
416,304,195319,1,8,0:0:0:0:
320,316,195638,6,0,B|241:341|183:318|183:318|140:341,1,180,4|0,0:0|0:0,0:0:0:0:
111,369,196277,1,8,0:0:0:0:
256,192,196596,12,2,198191,0:0:0:0:
125,331,199468,6,0,B|199:313|199:313|171:278|184:210|218:189|218:189|200:162|155:133|155:133|195:133|221:93,1,360,4|0,0:0|0:0,0:0:0:0:
305,110,200745,2,0,B|318:134|358:134|358:134|313:163|295:190|295:190|329:211|342:279|314:314|314:314|388:332,1,360,4|0,0:0|0:0,0:0:0:0:
477,367,202021,6,0,P|513:313|494:257,1,120,12|0,0:0|0:0,0:0:0:0:
476,221,202500,2,0,P|499:83|467:49,1,180,4|0,0:0|0:0,0:0:0:0:
435,73,203138,2,0,P|350:107|305:95,1,120,4|0,0:0|0:0,0:0:0:0:
279,118,203617,2,0,P|260:147|275:233,1,120,8|2,0:0|0:0,0:0:0:0:
330,303,204255,1,8,0:0:0:0:
242,341,204574,5,4,0:0:0:0:
149,314,204894,1,0,0:0:0:0:
149,314,205053,2,0,L|190:182,1,120
165,155,205532,1,2,0:0:0:0:
69,149,205851,2,0,L|31:268,1,120,4|2,0:0|0:0,0:0:0:0:
43,310,206330,2,0,B|93:338|164:308|164:308|188:322|201:357,1,180,2|2,0:0|0:0,0:0:0:0:
292,368,207128,6,0,L|325:238,1,120,12|8,0:0|0:0,0:0:0:0:
303,157,207766,1,8,0:0:0:0:
210,183,208085,1,8,0:0:0:0:
123,141,208404,1,2,0:0:0:0:
34,177,208723,2,0,P|13:216|21:308,2,120
77,91,209681,6,0,P|149:100|215:84,1,120,6|8,0:0|0:0,0:0:0:0:
289,77,210319,1,2,0:0:0:0:
384,89,210638,2,0,P|382:118|386:148,1,60,8|0,0:0|0:0,0:0:0:0:
412,188,210957,2,0,P|403:258|389:320,1,120,2|8,0:0|0:0,0:0:0:0:
299,301,211596,1,2,0:0:0:0:
220,245,211915,1,8,0:0:0:0:
125,263,212234,6,0,P|146:192|126:147,1,120,4|8,0:0|0:0,0:0:0:0:
166,120,212713,2,0,B|235:120|263:151|263:151|299:128|332:121,1,180,4|8,0:0|0:0,0:0:0:0:
378,110,213351,2,0,P|382:163|413:230,1,120,2|0,0:0|0:0,0:0:0:0:
430,266,213830,1,8,0:0:0:0:
414,360,214149,2,0,P|354:358|291:375,1,120,2|8,0:0|0:0,0:0:0:0:
203,349,214787,6,0,L|217:221,1,120,4|8,0:0|0:0,0:0:0:0:
200,184,215266,2,0,P|141:193|83:179,1,120,2|0,0:0|0:0,0:0:0:0:
51,143,215745,1,8,0:0:0:0:
51,143,215904,2,0,L|68:18,1,120,2|8,0:0|0:0,0:0:0:0:
114,14,216383,2,0,L|243:13,1,120,8|8,0:0|0:0,0:0:0:0:
201,103,217021,1,8,0:0:0:0:
236,191,217340,6,0,P|320:222|359:211,1,120,4|8,0:0|0:0,0:0:0:0:
426,161,217979,1,2,0:0:0:0:
484,237,218298,2,0,L|491:309,1,60,8|0,0:0|0:0,0:0:0:0:
473,342,218617,2,0,L|329:336,1,120,2|8,0:0|0:0,0:0:0:0:
264,299,219255,1,2,0:0:0:0:
175,335,219574,1,8,0:0:0:0:
82,308,219894,6,0,B|111:186|111:186|83:133,1,180,4|8,0:0|0:0,0:0:0:0:
72,91,220532,2,0,B|104:46|104:46|227:25|227:25|277:68,1,240,4|4,0:0|0:0,0:0:0:0:
256,192,221330,12,8,223085,0:0:0:0:
121,27,223723,6,0,B|189:45|246:18|246:18|256:44|278:66,1,180,4|0,0:0|0:0,0:0:0:0:
293,107,224362,2,0,P|284:171|278:243,1,120,8|0,0:0|0:0,0:0:0:0:
312,317,225000,1,0,0:0:0:0:
403,285,225319,1,0,0:0:0:0:
437,196,225638,2,0,P|464:122|420:26,1,180,8|8,0:0|0:0,0:0:0:0:
379,35,226277,6,0,L|187:57,1,180,4|0,0:0|0:0,0:0:0:0:
156,74,226915,2,0,P|126:135|138:184,1,120,8|2,0:0|0:0,0:0:0:0:
174,215,227394,1,8,0:0:0:0:
174,215,227553,2,0,L|162:347,2,120,2|2|8,0:0|0:0|0:0,0:0:0:0:
257,167,228511,1,2,0:0:0:0:
353,155,228830,5,4,0:0:0:0:
414,81,229149,1,8,0:0:0:0:
506,112,229468,1,8,0:0:0:0:
499,208,229787,1,8,0:0:0:0:
406,231,230106,1,8,0:0:0:0:
406,231,230425,2,0,L|381:364,2,120,8|8|8,0:0|0:0|0:0,0:0:0:0:
422,137,231383,5,2,0:0:0:0:
182,150,232698,1,2,0:0:0:0:
324,343,234013,1,2,0:0:0:0:
90,353,236593,6,0,P|68:252|76:222,1,120,6|8,0:0|0:0,0:0:0:0:
82,191,237071,2,0,L|218:181,1,120,2|0,0:0|0:0,0:0:0:0:
238,151,237550,1,8,0:0:0:0:
291,71,237869,2,0,P|361:46|428:56,1,120,2|8,0:0|0:0,0:0:0:0:
434,140,238507,2,0,L|435:269,1,120,2|8,0:0|0:0,0:0:0:0:
340,279,239146,6,0,L|309:150,1,120,2|8,0:0|0:0,0:0:0:0:
226,118,239784,1,2,0:0:0:0:
136,153,240103,1,8,0:0:0:0:
41,122,240422,2,0,L|28:252,2,120,2|8|2,0:0|0:0|0:0,0:0:0:0:
128,82,241380,2,0,L|140:155,1,60,8|0,0:0|0:0,0:0:0:0:
157,185,241699,6,0,L|137:320,1,120,2|8,0:0|0:0,0:0:0:0:
179,330,242178,2,0,P|220:356|306:332,1,120,2|0,0:0|0:0,0:0:0:0:
335,341,242656,1,8,0:0:0:0:
412,283,242975,1,2,0:0:0:0:
336,222,243295,1,8,0:0:0:0:
417,171,243614,2,0,P|436:117|418:50,1,120,2|8,0:0|0:0,0:0:0:0:
328,38,244252,6,0,L|209:44,1,120,12|12,0:0|0:0,0:0:0:0:
113,58,244890,1,8,0:0:0:0:
17,50,245210,1,8,0:0:0:0:
30,145,245529,2,0,L|18:227,2,60,8|8|8,0:0|0:0|0:0,0:0:0:0:
77,145,246007,2,0,L|260:130,1,180,8|8,0:0|0:0,0:0:0:0:
304,125,246646,1,12,0:0:0:0:
256,192,246805,12,0,253188,0:0:0:0:
