osu file format v14

[General]
AudioFilename: Dear brave.mp3
AudioLeadIn: 0
PreviewTime: 198112
Countdown: 0
SampleSet: Soft
StackLeniency: 0.7
Mode: 0
LetterboxInBreaks: 0
WidescreenStoryboard: 1

[Editor]
DistanceSpacing: 1.9
BeatDivisor: 4
GridSize: 4
TimelineZoom: 2.699999

[Metadata]
Title:Dear Brave
TitleUnicode:ディアブレイブ
Artist:Kano
ArtistUnicode:鹿乃
Creator:Fycho
Version:Insane
Source:ヘヴィーオブジェクト
Tags:Heavy Object ending full ver thzz cah-m
BeatmapID:936390
BeatmapSetID:390668

[Difficulty]
HPDrainRate:6
CircleSize:4
OverallDifficulty:7
ApproachRate:9
SliderMultiplier:1.6
SliderTickRate:1

[Events]
//Background and Video events
0,0,"DB.jpg",0,0
Video,-400,"3178815.avi"
//Break Periods
2,177966,187379
//Storyboard Layer 0 (Background)
//Storyboard Layer 1 (Fail)
//Storyboard Layer 2 (Pass)
//Storyboard Layer 3 (Foreground)
//Storyboard Sound Samples

[TimingPoints]
2235,319.148936170213,4,2,1,70,1,0
17554,-133.333333333333,4,2,1,50,0,0
27766,-111.111111111111,4,2,1,50,0,0
37979,-100,4,2,1,60,0,0
43086,-133.333333333333,4,2,1,50,0,0
48192,-100,4,2,1,70,0,0
55852,-100,4,2,1,50,0,0
56171,-100,4,2,1,55,0,0
56490,-100,4,2,1,60,0,0
56809,-100,4,2,1,65,0,0
57128,-100,4,2,1,70,0,0
58405,-100,4,2,1,80,0,1
73724,-100,4,2,1,70,0,1
81383,-100,4,2,1,50,0,0
83937,-100,4,2,1,70,0,0
92873,-100,4,2,1,70,0,0
93511,-133.333333333333,4,2,1,30,0,0
93830,-100,4,2,1,50,0,0
94149,-133.333333333333,4,2,1,50,0,0
113219,-100,4,2,1,50,0,0
114575,-100,4,2,1,70,0,0
124788,-133.333333333333,4,2,1,50,0,0
129894,-100,4,2,1,50,0,0
135000,-100,4,2,1,90,0,1
152873,-100,4,2,1,80,0,0
168192,319.148936170213,7,2,1,50,1,0
170106,-100,7,2,1,60,0,0
172340,-100,7,2,1,70,0,0
172660,319.148936170213,4,2,1,80,1,0
175372,-100,4,2,1,50,0,0
176170,-100,4,2,1,60,0,0
176489,-100,4,2,1,70,0,0
177128,-100,4,2,1,75,0,0
177447,-100,4,2,1,80,0,0
177925,-133.333333333333,4,2,1,30,0,0
187979,-133.333333333333,4,2,1,50,0,0
190532,-100,4,2,1,70,0,0
199468,-166.666666666667,4,2,1,50,0,0
202021,-100,4,2,1,70,0,0
204574,-133.333333333333,4,2,1,50,0,0
205851,-133.333333333333,4,2,1,65,0,0
207128,-100,4,2,1,75,0,0
208404,-100,4,2,1,55,0,0
208723,-100,4,2,1,40,0,0
209042,-133.333333333333,4,2,1,50,0,0
209681,-100,4,2,1,90,0,1
221250,-100,4,2,1,45,0,1
223723,-100,4,2,1,70,0,1
231383,328.767123287671,4,2,1,50,1,0
236274,319.148936170213,4,2,1,50,1,0
236593,319.148936170213,4,2,1,70,1,0
246725,-100,4,2,1,60,0,0
248082,-100,4,2,1,45,0,0
249358,-100,4,2,1,30,0,0
250635,-100,4,2,1,15,0,0
251912,-100,4,2,1,5,0,0

[Colours]
Combo1 : 68,64,145
Combo2 : 254,73,132
Combo3 : 151,198,255
Combo4 : 52,221,38

[HitObjects]
148,302,7181,6,0,P|232:289|320:285,1,160,4|0,0:0|0:0,0:0:0:0:
400,223,7660,2,0,P|423:185|423:146,1,80,8|0,0:0|0:0,0:0:0:0:
289,113,7979,1,2,0:0:0:0:
371,75,8139,1,0,0:0:0:0:
293,19,8298,1,8,0:0:0:0:
164,33,8458,6,0,P|141:95|209:167,1,160,2|0,0:0|0:0,0:0:0:0:
333,96,8937,2,0,P|295:83|255:88,1,80,8|0,0:0|0:0,0:0:0:0:
194,163,9256,1,2,0:0:0:0:
296,8,9415,1,2,0:0:0:0:
392,171,9575,1,8,0:0:0:0:
165,76,9735,5,4,0:0:0:0:
257,248,10054,1,10,0:0:0:0:
143,101,10373,1,4,0:0:0:0:
235,273,10692,1,10,0:0:0:0:
85,184,11011,6,0,B|33:356,1,160,4|0,0:0|0:0,0:0:0:0:
198,240,11490,1,8,0:0:0:0:
237,315,11649,1,8,0:0:0:0:
354,208,11809,1,4,0:3:0:0:
338,288,11969,1,8,0:0:0:0:
414,328,12128,1,8,0:0:0:0:
312,120,12288,6,0,L|470:101,1,160,4|0,0:0|0:0,0:0:0:0:
237,244,12766,2,0,P|251:199|190:100,1,160,8|0,0:0|0:0,0:0:0:0:
395,170,13245,2,0,P|350:107|365:31,1,160,8|0,0:0|0:0,0:0:0:0:
352,324,13724,6,8,L|395:169,1,160,12|0,0:0|0:0,0:0:0:0:
463,279,14203,1,8,0:0:0:0:
262,301,14362,2,0,P|270:374|285:388,1,80,8|8,0:0|0:0,0:0:0:0:
426,353,14681,1,8,0:3:0:0:
367,245,14841,1,4,0:3:0:0:
459,156,15000,6,0,L|479:77,1,80,12|0,0:0|0:0,0:0:0:0:
398,26,15320,1,0,0:0:0:0:
321,173,15479,2,0,L|291:93,1,80,8|0,0:0|0:0,0:0:0:0:
192,98,15798,1,0,0:0:0:0:
242,275,15958,6,0,L|152:235,1,80,8|0,0:0|0:0,0:0:0:0:
99,312,16277,1,0,0:0:0:0:
307,344,16437,1,12,0:0:0:0:
366,254,16596,1,0,0:0:0:0:
293,174,16756,1,0,0:0:0:0:
168,242,16915,5,10,0:0:0:0:
230,25,17075,1,10,0:0:0:0:
230,25,17554,6,0,L|301:39,1,60.0000022888184,4|0,0:0|0:0,0:0:0:0:
318,128,17873,2,0,L|259:116,1,60.0000022888184,0|2,0:0|0:0,0:0:0:0:
181,172,18192,2,0,P|160:201|189:287,1,120.000004577637,0|0,0:0|0:0,0:0:0:0:
15,358,18830,6,0,P|36:329|7:243,1,120.000004577637,2|2,0:0|0:0,0:0:0:0:
40,158,19309,2,0,L|62:85,2,60.0000022888184,2|0|2,0:0|0:0|0:0,0:0:0:0:
117,215,19788,2,0,L|175:166,1,60.0000022888184,0|0,0:0|0:0,0:0:0:0:
153,292,20107,6,0,L|288:273,1,120.000004577637,2|0,0:0|0:0,0:0:0:0:
332,200,20586,2,0,L|473:213,1,120.000004577637,2|2,0:0|0:0,0:0:0:0:
451,211,21064,1,0,0:0:0:0:
255,357,21383,6,0,P|235:280|273:236,1,120.000004577637,0|0,0:0|0:0,0:0:0:0:
209,163,21862,2,0,L|133:177,1,60.0000022888184,2|0,0:0|0:0,0:0:0:0:
79,239,22181,2,0,L|62:298,2,60.0000022888184,0|2|0,0:0|0:0|0:0,0:0:0:0:
250,231,22660,6,0,P|290:162|273:118,1,120.000004577637,2|0,0:0|0:0,0:0:0:0:
209,61,23139,1,2,0:0:0:0:
298,26,23298,2,0,L|362:50,1,60.0000022888184,0|0,0:0|0:0,0:0:0:0:
412,123,23617,2,0,L|428:181,1,60.0000022888184,2|0,0:0|0:0,0:0:0:0:
433,277,23937,6,0,P|392:306|309:276,1,120.000004577637,2|0,0:0|0:0,0:0:0:0:
271,216,24415,2,0,P|210:213|139:215,1,120.000004577637,2|2,0:0|0:0,0:0:0:0:
54,218,24894,2,0,P|65:173|59:147,1,60.0000022888184,0|2,0:0|0:0,0:0:0:0:
54,64,25213,6,0,P|95:111|171:103,1,120.000004577637,2|2,0:0|0:0,0:0:0:0:
241,142,25692,2,0,L|255:217,1,60.0000022888184,2|0,0:0|0:0,0:0:0:0:
313,274,26011,2,0,L|347:197,1,60.0000022888184,2|0,0:0|0:0,0:0:0:0:
370,128,26330,1,2,0:0:0:0:
434,199,26490,6,0,P|480:270|466:310,1,120.000004577637,0|0,0:0|0:0,0:0:0:0:
383,335,26969,1,0,0:0:0:0:
287,341,27128,2,0,L|214:336,2,60.0000022888184,0|0|2,0:0|0:0|0:0,0:0:0:0:
383,335,27607,1,0,0:0:0:0:
276,247,27766,6,0,P|199:243|122:304,1,143.999995605469,6|2,0:0|0:0,0:0:0:0:
52,340,28245,2,0,P|67:247|53:195,1,143.999995605469,2|2,0:0|0:0,0:0:0:0:
86,111,28724,1,0,0:0:0:0:
208,58,28883,6,0,P|305:79|344:128,1,143.999995605469,2|2,0:0|0:0,0:0:0:0:
275,259,29362,1,2,0:0:0:0:
357,203,29522,1,2,0:0:0:0:
421,273,29681,2,0,P|418:321|396:352,1,71.9999978027344
308,367,30000,1,2,0:0:0:0:
227,307,30160,1,2,0:0:0:0:
141,384,30320,6,0,L|137:236,1,143.999995605469,2|2,0:0|0:0,0:0:0:0:
186,158,30798,2,0,P|193:82|130:44,1,143.999995605469,2|2,0:0|0:0,0:0:0:0:
62,95,31277,2,0,L|39:174,1,71.9999978027344,0|2,0:0|0:0,0:0:0:0:
135,31,31596,6,0,L|300:20,1,143.999995605469,0|0,0:0|0:0,0:0:0:0:
341,91,32075,1,2,0:0:0:0:
264,220,32235,2,0,P|257:164|270:129,1,71.9999978027344,0|0,0:0|0:0,0:0:0:0:
218,297,32554,2,0,P|154:318|92:258,1,143.999995605469,2|6,0:0|0:0,0:0:0:0:
97,274,33192,5,2,0:0:0:0:
50,199,33352,2,0,L|79:123,1,71.9999978027344,2|2,0:0|0:0,0:0:0:0:
162,94,33671,2,0,L|144:14,1,71.9999978027344,2|0,0:0|0:0,0:0:0:0:
146,23,33990,1,0,0:0:0:0:
148,189,34149,6,0,P|183:227|275:211,1,143.999995605469,2|0,0:0|0:0,0:0:0:0:
268,217,34628,1,0,0:0:0:0:
268,217,34788,2,0,L|233:373,1,143.999995605469,2|0,0:0|0:0,0:0:0:0:
325,305,35266,1,0,0:0:0:0:
404,343,35426,5,2,0:0:0:0:
325,305,35586,1,0,0:0:0:0:
392,241,35745,1,2,0:0:0:0:
353,155,35905,1,0,0:0:0:0:
298,28,36064,1,2,0:0:0:0:
267,117,36224,1,0,0:0:0:0:
388,54,36383,1,2,0:0:0:0:
172,91,36543,1,0,0:0:0:0:
353,155,36703,6,0,L|353:233,1,71.9999978027344,2|0,0:0|0:0,0:0:0:0:
248,265,37022,2,0,L|248:193,1,71.9999978027344,2|0,0:0|0:0,0:0:0:0:
150,141,37341,2,0,L|150:219,1,71.9999978027344,2|0,0:0|0:0,0:0:0:0:
45,251,37660,2,0,L|45:179,1,71.9999978027344,2|0,0:0|0:0,0:0:0:0:
117,26,37979,5,8,0:0:0:0:
257,140,38139,1,8,0:0:0:0:
173,244,38298,6,0,P|152:278|155:330,1,80
295,273,38617,2,0,P|313:218|248:138,1,160,2|0,0:0|0:0,0:0:0:0:
334,48,39096,1,0,0:0:0:0:
394,186,39256,5,8,0:0:0:0:
466,47,39415,1,8,0:0:0:0:
505,170,39575,6,0,P|504:214|478:252,1,80
327,305,39894,2,0,P|329:227|393:185,1,160,2|0,0:0|0:0,0:0:0:0:
327,305,40373,1,0,0:0:0:0:
169,331,40532,5,8,0:0:0:0:
79,182,40692,1,8,0:0:0:0:
162,78,40852,6,0,P|175:105|160:167,1,80
99,311,41171,2,0,P|58:276|85:177,1,160,2|0,0:0|0:0,0:0:0:0:
170,242,41649,1,0,0:0:0:0:
318,175,41809,5,8,0:0:0:0:
231,298,41969,1,8,0:0:0:0:
170,154,42128,1,0,0:0:0:0:
170,154,42447,1,2,0:0:0:0:
170,154,42766,1,2,0:0:0:0:
170,154,43086,6,0,L|27:138,1,120.000004577637,4|0,0:0|0:0,0:0:0:0:
257,107,43564,1,2,0:0:0:0:
257,107,43724,2,0,L|383:88,1,120.000004577637,2|0,0:0|0:0,0:0:0:0:
357,303,44362,6,0,P|333:240|370:193,1,120.000004577637,0|0,0:0|0:0,0:0:0:0:
236,295,45000,2,0,L|217:361,1,60.0000022888184,2|0,0:0|0:0,0:0:0:0:
128,224,45320,2,0,L|140:303,1,60.0000022888184,0|2,0:0|0:0,0:0:0:0:
137,283,45639,5,2,0:0:0:0:
258,215,46277,1,2,0:0:0:0:
145,140,46915,1,2,0:0:0:0:
145,140,47235,1,2,0:0:0:0:
224,50,47394,2,0,L|185:47,1,30.0000011444092
336,20,47554,5,2,0:0:0:0:
417,98,47713,1,0,0:0:0:0:
388,208,47873,1,8,0:0:0:0:
280,243,48032,1,8,0:0:0:0:
172,157,48192,6,0,P|142:177|136:295,1,160,4|8,0:0|0:0,0:0:0:0:
330,137,48671,1,0,0:0:0:0:
330,137,48830,2,0,L|155:158,1,160,2|8,0:0|0:0,0:0:0:0:
315,50,49309,1,0,0:0:0:0:
254,232,49469,5,2,0:0:0:0:
254,232,49628,1,2,0:0:0:0:
416,173,49788,2,0,P|431:234|415:267,1,80,8|0,0:0|0:0,0:0:0:0:
303,373,50107,2,0,L|349:213,1,160,2|8,0:0|0:0,0:0:0:0:
426,248,50586,1,0,0:0:0:0:
321,137,50745,5,2,0:0:0:0:
321,137,50905,1,2,0:0:0:0:
208,184,51064,2,0,P|187:216|185:262,1,80,8|0,0:0|0:0,0:0:0:0:
154,96,51383,1,2,0:0:0:0:
154,96,51543,1,0,0:0:0:0:
276,127,51703,2,0,P|296:171|284:215,1,80,8|2,0:0|0:0,0:0:0:0:
327,43,52022,6,0,P|374:5|486:20,1,160,0|8,0:0|0:0,0:0:0:0:
503,97,52500,1,2,0:0:0:0:
408,215,52660,2,0,P|401:168|418:132,1,80,0|0,0:0|0:0,0:0:0:0:
328,286,52979,2,0,P|260:309|188:278,1,120,10|0,0:0|0:0,0:0:0:0:
201,301,53298,6,0,L|115:323,2,80,12|0|0,0:0|0:0|0:0,0:0:0:0:
309,169,53777,2,0,L|139:214,1,160,12|0,0:0|0:0,0:0:0:0:
258,86,54256,1,12,0:0:0:0:
154,209,54416,1,0,0:0:0:0:
112,61,54575,5,2,0:0:0:0:
176,122,54735,1,12,0:0:0:0:
176,122,55054,1,0,0:0:0:0:
71,266,55213,2,0,L|95:166,1,80,12|8,0:0|0:0,0:0:0:0:
89,188,55453,1,8,0:0:0:0:
89,188,55532,1,8,0:0:0:0:
185,245,55692,1,0,0:0:0:0:
362,166,55852,5,12,0:0:0:0:
362,166,56171,1,8,0:0:0:0:
274,188,56330,1,8,0:0:0:0:
368,317,56490,5,8,0:0:0:0:
251,278,56649,1,8,0:0:0:0:
72,340,56809,1,8,0:0:0:0:
143,250,56968,1,8,0:0:0:0:
289,366,57128,5,12,0:0:0:0:
271,366,57766,2,0,L|213:361,3,40,2|0|2|0,0:0|0:0|0:0|0:0,0:0:0:0:
146,312,58086,1,2,0:0:0:0:
117,279,58165,1,0,0:0:0:0:
121,235,58245,1,2,0:0:0:0:
153,205,58325,1,0,0:0:0:0:
197,206,58405,6,0,B|363:181,1,160,6|8,0:0|0:0,0:0:0:0:
426,259,58883,1,0,0:0:0:0:
426,259,58963,1,2,0:0:0:0:
426,259,59043,2,0,P|439:308|422:347,1,80,2|0,0:0|0:0,0:0:0:0:
355,182,59362,1,8,0:0:0:0:
438,126,59522,6,0,P|434:28|380:5,1,160,2|0,0:0|0:0,0:0:0:0:
266,53,60000,2,0,L|252:138,1,80,8|0,0:0|0:0,0:0:0:0:
341,259,60320,2,0,L|354:180,1,80,2|0,0:0|0:0,0:0:0:0:
226,253,60639,1,8,0:0:0:0:
154,172,60798,1,0,0:0:0:0:
46,220,60958,6,0,P|22:281|81:367,1,160,2|8,0:0|0:0,0:0:0:0:
166,308,61437,1,2,0:0:0:0:
166,308,61516,1,8,0:0:0:0:
166,308,61596,1,0,0:0:0:0:
289,366,61756,1,2,0:0:0:0:
270,263,61915,1,8,0:0:0:0:
193,190,62075,6,0,L|363:171,1,160,2|0,0:0|0:0,0:0:0:0:
454,157,62554,2,0,P|477:125|477:73,1,80,8|2,0:0|0:0,0:0:0:0:
303,11,62873,1,2,0:0:0:0:
372,84,63032,1,0,0:0:0:0:
222,59,63192,1,8,0:0:0:0:
143,186,63352,1,8,0:0:0:0:
143,186,63431,1,8,0:0:0:0:
143,186,63511,6,0,P|167:242|267:241,1,160,4|8,0:0|0:0,0:0:0:0:
392,97,63990,1,2,0:0:0:0:
314,153,64149,1,0,0:0:0:0:
420,287,64309,2,0,P|429:246|390:199,1,80,2|8,0:0|0:0,0:0:0:0:
327,334,64628,1,2,0:0:0:0:
327,334,64708,1,8,0:0:0:0:
327,334,64788,6,0,L|156:327,1,160,2|8,0:0|0:0,0:0:0:0:
167,327,65266,2,0,P|172:251|108:210,1,160,2|0,0:0|0:0,0:0:0:0:
3,242,65745,1,8,0:0:0:0:
3,242,65905,1,0,0:0:0:0:
101,102,66064,6,0,L|208:111,1,80,12|2,0:0|0:0,0:0:0:0:
377,191,66383,2,0,L|297:184,1,80,8|2,0:0|0:0,0:0:0:0:
99,259,66703,2,0,L|206:268,1,80,8|2,0:0|0:0,0:0:0:0:
375,348,67022,2,0,L|295:341,1,80,8|8,0:0|0:0,0:0:0:0:
271,335,67261,1,8,0:0:0:0:
270,335,67341,6,0,P|252:284|268:246,1,80,12|0,0:0|0:0,0:0:0:0:
372,108,67660,2,0,P|337:148|296:154,1,80,12|0,0:0|0:0,0:0:0:0:
125,132,67979,2,0,P|177:143|203:175,1,80,12|0,0:0|0:0,0:0:0:0:
154,304,68298,1,8,0:0:0:0:
9,321,68458,1,8,0:0:0:0:
9,321,68538,1,8,0:0:0:0:
9,321,68617,6,0,P|-1:231|54:179,1,160,6|8,0:0|0:0,0:0:0:0:
89,272,69096,1,0,0:0:0:0:
89,272,69176,1,2,0:0:0:0:
89,272,69256,1,2,0:0:0:0:
164,135,69415,1,0,0:0:0:0:
204,229,69575,1,8,0:0:0:0:
270,118,69735,6,0,P|314:91|419:115,1,160,2|0,0:0|0:0,0:0:0:0:
482,284,70213,1,8,0:0:0:0:
390,212,70373,1,0,0:0:0:0:
337,375,70532,2,0,L|360:293,1,80,2|0,0:0|0:0,0:0:0:0:
245,175,70852,2,0,L|220:257,1,80,8|8,0:0|0:0,0:0:0:0:
212,275,71091,1,8,0:0:0:0:
212,275,71171,6,0,P|152:298|77:227,1,160,4|2,0:0|0:0,0:0:0:0:
132,63,71649,2,0,L|150:152,1,80,12|0,0:0|0:0,0:0:0:0:
238,75,71969,1,2,0:0:0:0:
266,168,72128,1,8,0:0:0:0:
75,153,72288,6,0,P|33:224|61:292,1,160,12|0,0:0|0:0,0:0:0:0:
163,222,72766,1,8,0:0:0:0:
224,333,72926,1,0,0:0:0:0:
114,351,73086,5,8,0:3:0:0:
210,264,73245,1,8,0:3:0:0:
338,287,73405,1,4,0:3:0:0:
403,376,73564,1,4,0:3:0:0:
207,384,73724,6,0,P|191:331|204:293,1,80,4|0,0:0|0:0,0:0:0:0:
337,237,74043,1,2,0:0:0:0:
249,201,74203,1,0,0:0:0:0:
369,332,74362,2,0,P|442:322|465:233,1,160,8|2,0:0|0:0,0:0:0:0:
426,151,74841,1,8,0:0:0:0:
322,121,75000,6,0,P|309:64|319:39,1,80,2|0,0:0|0:0,0:0:0:0:
241,180,75320,2,0,P|254:237|244:262,1,80,2|0,0:0|0:0,0:0:0:0:
154,293,75639,2,0,L|320:278,1,160,8|2,0:0|0:0,0:0:0:0:
430,215,76117,1,8,0:0:0:0:
323,157,76277,6,0,L|359:340,1,160,4|2,0:0|0:0,0:0:0:0:
463,181,76756,1,0,0:0:0:0:
463,181,76915,2,0,P|483:81|414:43,1,160,8|2,0:0|0:0,0:0:0:0:
350,49,77394,1,8,0:0:0:0:
269,107,77554,6,0,P|201:101|179:105,1,80,2|0,0:0|0:0,0:0:0:0:
316,266,77873,2,0,P|322:220|312:180,1,80,2|0,0:0|0:0,0:0:0:0:
218,264,78192,1,8,0:0:0:0:
204,267,78511,1,2,0:0:0:0:
303,334,78671,1,8,0:0:0:0:
190,271,78830,6,0,L|111:284,1,80,4|0,0:0|0:0,0:0:0:0:
139,188,79149,2,0,L|217:174,1,80,8|0,0:0|0:0,0:0:0:0:
111,284,79469,6,0,L|35:256,1,80,8|0,0:0|0:0,0:0:0:0:
217,174,79788,2,0,L|292:201,1,80,8|0,0:0|0:0,0:0:0:0:
35,256,80107,6,0,L|21:177,1,80,8|0,0:0|0:0,0:0:0:0:
292,201,80426,2,0,L|305:279,1,80,8|0,0:0|0:0,0:0:0:0:
21,177,80745,6,0,L|48:101,1,80,8|0,0:0|0:0,0:0:0:0:
305,279,81064,2,0,L|277:354,1,80,8|0,0:0|0:0,0:0:0:0:
165,231,81383,5,4,0:0:0:0:
200,252,82660,1,4,0:0:0:0:
237,273,83617,2,0,L|231:322,1,40,2|0,0:0|0:0,0:0:0:0:
138,366,83777,2,0,L|113:301,1,40,2|0,0:0|0:0,0:0:0:0:
89,225,83937,6,0,P|39:210|55:108,1,160,4|8,0:0|0:0,0:0:0:0:
132,62,84415,2,0,L|300:49,1,160,2|2,0:0|0:0,0:0:0:0:
238,221,84894,1,8,0:0:0:0:
188,140,85054,1,0,0:0:0:0:
371,144,85213,6,0,P|367:183|339:213,1,80,2|0,0:0|0:0,0:0:0:0:
157,265,85532,1,8,0:0:0:0:
86,200,85692,2,0,L|101:147,2,40,2|2|2,0:0|0:0|0:0,0:0:0:0:
261,166,86011,1,0,0:0:0:0:
305,254,86171,1,8,0:0:0:0:
191,118,86330,1,0,0:0:0:0:
86,200,86490,6,0,P|66:226|74:290,1,80,2|0,0:0|0:0,0:0:0:0:
191,204,86809,2,0,P|295:184|373:184,1,160,8|2,0:0|0:0,0:0:0:0:
475,242,87288,1,0,0:0:0:0:
361,337,87447,2,0,P|359:289|379:255,1,80,8|0,0:0|0:0,0:0:0:0:
397,115,87766,6,0,P|290:57|253:77,1,160,2|8,0:0|0:0,0:0:0:0:
165,140,88245,1,2,0:0:0:0:
112,32,88405,2,0,P|56:31|22:51,1,80,2|0,0:0|0:0,0:0:0:0:
32,202,88724,1,8,0:0:0:0:
30,246,88804,1,0,0:0:0:0:
59,277,88883,1,2,0:0:0:0:
102,282,88963,1,0,0:0:0:0:
142,265,89043,6,0,L|121:356,1,80,2|0,0:0|0:0,0:0:0:0:
116,168,89362,1,8,0:0:0:0:
238,231,89522,2,0,P|313:202|418:217,1,160,2|2,0:0|0:0,0:0:0:0:
474,336,90000,2,0,P|478:284|457:243,1,80,8|0,0:0|0:0,0:0:0:0:
329,302,90320,5,2,0:0:0:0:
278,81,90479,1,2,0:0:0:0:
310,176,90639,1,8,0:0:0:0:
140,227,90798,1,2,0:0:0:0:
229,218,90958,5,2,0:0:0:0:
404,260,91117,1,0,0:0:0:0:
258,295,91277,1,8,0:0:0:0:
369,177,91437,1,2,0:0:0:0:
491,226,91596,6,0,L|478:328,1,80,12|0,0:0|0:0,0:0:0:0:
229,218,91915,2,0,L|239:138,1,80,12|0,0:0|0:0,0:0:0:0:
348,75,92235,5,10,0:0:0:0:
229,218,92394,1,0,0:0:0:0:
399,154,92554,1,10,0:0:0:0:
239,140,92713,2,0,L|171:146,2,40,0|0|8,0:0|0:0|0:0,0:0:0:0:
411,76,93032,5,8,0:0:0:0:
458,257,93192,1,8,0:0:0:0:
241,268,93352,1,8,0:0:0:0:
358,168,93511,5,10,0:0:0:0:
358,168,93591,1,8,0:0:0:0:
358,168,93671,2,0,L|412:165,2,30.0000011444092,8|8|4,0:0|0:0|0:0,0:0:0:0:
236,247,94149,6,0,P|313:243|368:278,1,120.000004577637,6|0,0:0|0:0,0:0:0:0:
431,300,94628,2,0,L|463:167,1,120.000004577637,2|2,0:0|0:0,0:0:0:0:
405,110,95107,1,0,0:0:0:0:
323,73,95266,6,0,P|226:94|202:117,1,120.000004577637,2|2,0:0|0:0,0:0:0:0:
125,131,95745,1,0,0:0:0:0:
37,107,95905,1,2,0:0:0:0:
7,191,96064,2,0,P|11:233|28:261,1,60.0000022888184,0|2,0:0|0:0,0:0:0:0:
91,315,96383,1,0,0:0:0:0:
163,264,96543,1,2,0:0:0:0:
248,303,96703,6,0,L|250:165,1,120.000004577637,2|2,0:0|0:0,0:0:0:0:
339,150,97181,2,0,P|359:204|344:266,1,120.000004577637,2|2,0:0|0:0,0:0:0:0:
413,322,97660,2,0,L|481:303,1,60.0000022888184,0|2,0:0|0:0,0:0:0:0:
483,216,97979,6,0,L|361:225,1,120.000004577637,2|0,0:0|0:0,0:0:0:0:
275,204,98458,1,2,0:0:0:0:
187,225,98618,2,0,P|194:169|186:147,1,60.0000022888184,0|2,0:0|0:0,0:0:0:0:
180,77,98937,2,0,P|130:89|105:84,1,60.0000022888184,2|2,0:0|0:0,0:0:0:0:
0,200,99256,6,0,P|53:181|116:179,1,120.000004577637,4|2,0:0|0:0,0:0:0:0:
122,263,99735,1,0,0:0:0:0:
207,284,99894,2,0,P|234:273|274:259,1,60.0000022888184,0|0,0:0|0:0,0:0:0:0:
328,205,100213,2,0,P|354:219|381:232,1,60.0000022888184,2|0,0:0|0:0,0:0:0:0:
468,276,100532,6,0,L|472:141,1,120.000004577637,2|2,0:0|0:0,0:0:0:0:
475,65,101011,2,0,P|408:87|371:146,1,120.000004577637,2|2,0:0|0:0,0:0:0:0:
293,143,101490,2,0,L|277:78,1,60.0000022888184,0|2,0:0|0:0,0:0:0:0:
213,179,101809,6,0,P|184:244|222:301,1,120.000004577637,2|0,0:0|0:0,0:0:0:0:
387,258,102288,2,0,L|247:241,1,120.000004577637,2|2,0:0|0:0,0:0:0:0:
201,285,102766,2,0,P|202:322|195:370,1,60.0000022888184,0|2,0:0|0:0,0:0:0:0:
116,285,103086,6,0,P|75:249|83:168,1,120.000004577637,2|0,0:0|0:0,0:0:0:0:
98,104,103564,2,0,L|69:26,2,60.0000022888184,0|2|0,0:0|0:0|0:0,0:0:0:0:
174,153,104043,2,0,L|154:222,1,60.0000022888184,2|8,0:0|0:0,0:0:0:0:
157,210,104282,1,8,0:0:0:0:
157,210,104362,6,0,L|361:197,1,180.000006866455,4|0,0:0|0:0,0:0:0:0:
168,322,105160,2,0,L|39:311,1,120.000004577637,2|4,0:0|0:0,0:0:0:0:
48,311,105798,6,0,L|63:242,1,60.0000022888184,8|8,0:0|0:0,0:0:0:0:
7,173,106117,1,2,0:0:0:0:
117,163,106277,2,0,P|150:95|113:40,1,120.000004577637,0|8,0:0|0:0,0:0:0:0:
39,83,106756,1,0,0:0:0:0:
154,47,106915,6,0,P|228:34|282:33,1,120.000004577637,2|8,0:0|0:0,0:0:0:0:
332,119,107394,2,0,P|369:50|412:42,1,120.000004577637,2|2,0:0|0:0,0:0:0:0:
451,180,107873,2,0,L|449:104,1,60.0000022888184,8|2,0:0|0:0,0:0:0:0:
410,270,108192,6,0,P|349:301|288:283,1,120.000004577637,0|8,0:0|0:0,0:0:0:0:
216,251,108671,2,0,P|153:252|90:260,1,120.000004577637,2|2,0:0|0:0,0:0:0:0:
25,170,109149,2,0,P|73:176|96:176,1,60.0000022888184,8|0,0:0|0:0,0:0:0:0:
260,129,109469,5,2,0:0:0:0:
155,100,109628,1,0,0:0:0:0:
119,195,109788,1,8,0:0:0:0:
271,208,109947,1,2,0:0:0:0:
192,266,110107,2,0,L|184:328,1,60.0000022888184,0|2,0:0|0:0,0:0:0:0:
357,243,110426,2,0,L|348:170,1,60.0000022888184,8|2,0:0|0:0,0:0:0:0:
285,331,110745,6,0,P|385:355|419:340,1,120.000004577637,0|8,0:0|0:0,0:0:0:0:
479,282,111224,1,0,0:0:0:0:
414,135,111383,2,0,L|399:211,1,60.0000022888184,2|0,0:0|0:0,0:0:0:0:
297,106,111703,2,0,L|293:32,1,60.0000022888184,8|2,0:0|0:0,0:0:0:0:
154,60,112022,5,2,0:0:0:0:
121,137,112181,1,2,0:0:0:0:
197,162,112341,1,8,0:0:0:0:
230,91,112500,1,0,0:0:0:0:
100,58,112660,5,2,0:0:0:0:
88,183,112820,1,0,0:0:0:0:
223,192,112979,1,8,0:0:0:0:
226,63,113139,1,0,0:0:0:0:
63,89,113298,5,2,0:0:0:0:
63,89,113458,1,0,0:0:0:0:
112,252,113617,2,0,L|126:163,1,80,10|0,0:0|0:0,0:0:0:0:
10,208,113937,5,2,0:0:0:0:
10,208,114096,1,0,0:0:0:0:
213,236,114256,2,0,L|217:329,1,80,10|0,0:0|0:0,0:0:0:0:
442,356,114575,5,6,0:0:0:0:
324,273,114735,1,0,0:0:0:0:
287,357,114894,1,8,0:0:0:0:
416,251,115054,1,0,0:0:0:0:
308,260,115213,2,0,P|279:188|340:129,1,160,2|8,0:0|0:0,0:0:0:0:
253,70,115692,6,0,P|113:64|81:64,1,160,2|0,0:0|0:0,0:0:0:0:
103,225,116171,1,8,0:0:0:0:
106,146,116330,1,0,0:0:0:0:
21,226,116490,1,2,0:0:0:0:
185,300,116649,2,0,L|189:217,1,80,0|8,0:0|0:0,0:0:0:0:
265,140,116969,6,0,P|314:129|415:203,1,160,2|0,0:0|0:0,0:0:0:0:
374,297,117447,1,8,0:0:0:0:
258,299,117607,1,2,0:0:0:0:
258,299,117766,2,0,B|196:321|152:294|83:323,1,160,2|8,0:0|0:0,0:0:0:0:
207,222,118245,1,10,0:0:0:0:
87,222,118405,6,0,P|70:177|80:137,1,80,0|2,0:0|0:0,0:0:0:0:
161,28,118724,2,0,L|183:138,1,80,8|0,0:0|0:0,0:0:0:0:
201,207,119043,1,0,0:0:0:0:
83,71,119203,1,2,0:0:0:0:
264,39,119362,1,8,0:0:0:0:
264,39,119681,5,12,0:0:0:0:
400,109,119841,1,0,0:0:0:0:
246,128,120000,1,12,0:0:0:0:
379,13,120160,1,0,0:0:0:0:
185,44,120320,5,2,0:0:0:0:
329,149,120479,1,8,0:0:0:0:
157,148,120639,1,2,0:0:0:0:
313,64,120798,1,0,0:0:0:0:
91,84,120958,6,0,P|43:155|64:226,1,160,12|2,0:0|0:0,0:0:0:0:
168,327,121437,2,0,P|212:254|174:164,1,160,12|0,0:0|0:0,0:0:0:0:
276,111,121915,2,0,L|369:93,1,80,12|0,0:0|0:0,0:0:0:0:
363,311,122235,5,2,0:0:0:0:
420,174,122394,1,8,0:0:0:0:
486,260,122554,1,8,0:0:0:0:
486,260,122713,1,0,0:0:0:0:
264,270,122873,5,10,0:0:0:0:
409,242,123032,1,0,0:0:0:0:
254,268,123192,1,10,0:0:0:0:
395,241,123352,1,0,0:0:0:0:
204,349,123511,2,0,P|149:296|172:201,1,160,4|2,0:0|0:0,0:0:0:0:
4,94,123990,2,0,P|53:144|27:244,1,160,12|0,0:0|0:0,0:0:0:0:
153,133,124469,1,8,0:0:0:0:
248,175,124628,1,8,0:0:0:0:
308,110,124788,6,0,P|365:82|441:95,1,120.000004577637,6|0,0:0|0:0,0:0:0:0:
490,162,125266,1,2,0:0:0:0:
394,285,125426,2,0,L|405:160,1,120.000004577637,2|2,0:0|0:0,0:0:0:0:
316,197,125905,6,0,P|279:220|192:222,1,120.000004577637,2|0,0:0|0:0,0:0:0:0:
115,225,126383,2,0,L|95:288,1,60.0000022888184,2|2,0:0|0:0,0:0:0:0:
165,151,126703,2,0,P|166:104|149:81,1,60.0000022888184,2|0,0:0|0:0,0:0:0:0:
101,31,127022,1,0,0:0:0:0:
23,109,127181,6,0,P|15:159|60:238,1,120.000004577637,2|0,0:0|0:0,0:0:0:0:
156,174,127660,1,2,0:0:0:0:
112,304,127820,2,0,P|190:289|253:291,1,120.000004577637,2|0,0:0|0:0,0:0:0:0:
230,288,128219,1,0,0:0:0:0:
230,288,128298,1,2,0:0:0:0:
325,350,128458,6,0,P|354:309|349:223,1,120.000004577637,2|0,0:0|0:0,0:0:0:0:
401,138,128937,2,0,L|444:202,1,60.0000022888184,2|2,0:0|0:0,0:0:0:0:
311,95,129256,2,0,L|346:15,1,60.0000022888184,0|0,0:0|0:0,0:0:0:0:
291,192,129575,2,0,L|222:214,1,60.0000022888184,8|0,0:0|0:0,0:0:0:0:
127,184,129894,6,0,L|71:171,3,40,4|0|0|0,1:2|0:0|0:0|0:0,0:0:0:0:
136,277,130213,2,0,L|174:286,3,40,2|0|0|0,3:2|3:0|3:0|3:0,0:0:0:0:
256,334,130532,2,0,L|304:330,1,40,8|8,0:2|0:0,0:0:0:0:
407,250,130692,2,0,L|443:204,1,40,8|8,0:0|0:0,0:0:0:0:
314,216,130852,2,0,L|302:275,1,40,8|8,0:2|0:0,0:0:0:0:
380,373,131011,2,0,L|390:326,1,40,8|8,0:0|0:0,0:0:0:0:
474,301,131171,6,0,P|505:258|489:152,1,160,2|8,1:2|0:2,0:0:0:0:
400,77,131649,2,0,P|321:93|303:165,1,160,8|2,0:0|0:0,0:0:0:0:
163,212,132128,2,0,L|190:121,1,80,8|0,0:2|0:0,0:0:0:0:
281,271,132447,5,4,0:0:0:0:
281,271,132926,1,0,0:0:0:0:
59,190,133086,1,4,0:0:0:0:
59,190,133564,1,0,0:0:0:0:
240,90,133724,5,4,0:0:0:0:
240,90,134043,2,0,L|143:78,1,80
343,29,134362,1,6,0:0:0:0:
343,29,134681,2,0,L|366:110,1,80
148,182,135000,6,0,P|206:205|294:145,1,160,4|8,0:0|0:0,0:0:0:0:
309,51,135479,1,0,0:0:0:0:
309,51,135559,1,0,0:0:0:0:
309,51,135639,2,0,L|406:58,1,80,2|0,0:0|0:0,0:0:0:0:
286,160,135958,1,8,0:0:0:0:
203,97,136117,6,0,P|152:48|66:64,1,160,2|0,0:0|0:0,0:0:0:0:
44,166,136596,2,0,P|55:205|59:250,1,80,8|2,0:0|0:0,0:0:0:0:
166,338,136915,2,0,P|160:296|156:249,1,80,2|0,0:0|0:0,0:0:0:0:
309,183,137235,1,8,0:0:0:0:
252,263,137394,1,0,0:0:0:0:
328,349,137554,6,0,P|410:355|464:282,1,160,2|8,0:0|0:0,0:0:0:0:
252,263,138032,2,0,L|224:325,2,40,2|8|0,0:0|0:0|0:0,0:0:0:0:
255,151,138352,1,2,0:0:0:0:
366,254,138511,1,8,0:0:0:0:
488,111,138671,6,0,L|319:105,1,160,2|0,0:0|0:0,0:0:0:0:
224,272,139149,2,0,L|315:262,1,80,8|2,0:0|0:0,0:0:0:0:
244,177,139469,1,2,0:0:0:0:
445,286,139628,1,0,0:0:0:0:
428,83,139788,2,0,L|397:175,1,80,8|10,0:0|0:0,0:0:0:0:
402,158,140027,1,8,0:0:0:0:
402,158,140107,6,0,L|239:177,1,160,4|8,0:0|0:0,0:0:0:0:
179,269,140586,2,0,P|126:315|23:294,1,160,2|2,0:0|0:0,0:0:0:0:
69,101,141064,2,0,P|79:140|87:183,1,80,8|2,0:0|0:0,0:0:0:0:
207,200,141383,6,0,P|181:275|183:354,1,160,2|8,0:0|0:0,0:0:0:0:
290,312,141862,1,2,0:0:0:0:
329,160,142022,2,0,P|415:131|505:124,1,160,0|8,0:0|0:0,0:0:0:0:
439,229,142500,1,0,0:0:0:0:
234,147,142660,5,12,0:0:0:0:
234,147,142820,1,2,0:0:0:0:
354,194,142979,1,8,0:0:0:0:
354,194,143139,1,2,0:0:0:0:
185,249,143298,1,8,0:0:0:0:
185,249,143458,1,2,0:0:0:0:
339,304,143617,1,8,0:0:0:0:
339,304,143777,2,0,L|328:345,2,40,8|8|12,0:0|0:0|0:0,0:0:0:0:
356,64,144256,6,0,P|407:102|412:135,1,80,12|0,0:0|0:0,0:0:0:0:
266,271,144575,2,0,P|230:254|210:220,1,80,12|0,0:0|0:0,0:0:0:0:
353,204,144894,2,0,L|429:270,1,80,8|8,0:0|0:0,0:0:0:0:
413,256,145133,1,8,0:0:0:0:
413,256,145213,6,0,P|311:331|254:316,1,160,6|8,0:0|0:0,0:0:0:0:
136,257,145692,1,2,0:0:0:0:
136,257,145772,1,2,0:0:0:0:
136,257,145852,2,0,L|105:345,1,80,2|0,0:0|0:0,0:0:0:0:
216,359,146171,1,8,0:0:0:0:
331,289,146330,6,0,P|350:251|312:144,1,160,2|0,0:0|0:0,0:0:0:0:
161,148,146809,2,0,P|181:184|222:203,1,80,8|2,0:0|0:0,0:0:0:0:
357,60,147128,1,2,0:0:0:0:
161,148,147288,1,0,0:0:0:0:
360,166,147447,1,8,0:0:0:0:
211,54,147607,1,2,0:0:0:0:
232,281,147766,6,0,B|186:274|145:300|145:300|121:267|99:237,1,160,12|2,0:0|0:0,0:0:0:0:
83,128,148245,2,0,L|261:138,1,160,12|2,0:0|0:0,0:0:0:0:
318,207,148724,1,8,0:0:0:0:
219,373,148883,6,0,P|188:296|230:222,1,160,12|0,0:0|0:0,0:0:0:0:
412,162,149362,2,0,L|385:264,1,80,8|2,0:0|0:0,0:0:0:0:
268,292,149681,1,8,0:3:0:0:
292,149,149841,1,8,0:3:0:0:
178,163,150000,1,4,0:3:0:0:
113,257,150160,1,4,0:3:0:0:
341,211,150320,6,0,P|370:140|294:69,1,160,4|2,0:0|0:0,0:0:0:0:
230,123,150798,1,0,0:0:0:0:
122,109,150958,2,0,P|102:59|125:14,1,80,8|0,0:0|0:0,0:0:0:0:
155,193,151277,2,0,L|135:283,1,80,2|8,0:0|0:0,0:0:0:0:
113,357,151596,5,2,0:0:0:0:
237,228,151756,1,8,0:0:0:0:
223,328,151915,2,0,P|272:360|361:320,1,160,8|8,0:0|0:0,0:0:0:0:
422,179,152394,1,8,0:0:0:0:
340,227,152554,1,8,0:0:0:0:
469,298,152713,1,8,0:0:0:0:
469,298,152793,1,8,0:0:0:0:
469,298,152873,6,0,P|479:200|490:131,2,160,4|8|2,0:0|0:0|0:0,0:0:0:0:
357,349,153671,2,0,P|283:331|257:330,1,80,2|8,0:0|0:0,0:0:0:0:
172,212,153990,2,0,P|247:223|272:222,1,80,2|0,0:0|0:0,0:0:0:0:
371,156,154309,5,2,0:0:0:0:
371,156,154469,2,0,P|401:76|330:13,1,160,8|2,0:0|0:0,0:0:0:0:
149,79,154947,1,2,0:0:0:0:
270,102,155107,1,8,0:0:0:0:
220,20,155266,1,2,0:0:0:0:
57,95,155426,6,0,P|40:152|50:197,1,80,0|2,0:0|0:0,0:0:0:0:
31,286,155745,2,0,P|39:330|166:335,1,160,8|2,0:0|0:0,0:0:0:0:
269,201,156224,1,2,0:0:0:0:
235,289,156383,1,8,0:0:0:0:
320,353,156543,1,2,0:0:0:0:
226,281,156703,6,0,L|401:266,1,160,2|8,0:0|0:0,0:0:0:0:
395,136,157181,1,2,0:0:0:0:
395,136,157261,1,0,0:0:0:0:
395,136,157341,2,0,P|352:121|303:131,1,80,2|2,0:0|0:0,0:0:0:0:
142,206,157660,2,0,P|206:188|224:163,1,80,8|2,0:0|0:0,0:0:0:0:
213,179,157899,1,8,0:0:0:0:
213,179,157979,6,0,L|310:326,1,160,4|8,0:0|0:0,0:0:0:0:
136,353,158458,2,0,P|91:308|116:210,1,160,2|2,0:0|0:0,0:0:0:0:
163,113,158937,2,0,P|179:49|165:19,1,80,8|0,0:0|0:0,0:0:0:0:
232,191,159256,6,0,L|399:149,1,160,2|8,0:0|0:0,0:0:0:0:
429,32,159735,2,0,L|273:71,1,160,2|0,0:0|0:0,0:0:0:0:
145,123,160213,1,8,0:0:0:0:
68,25,160373,1,2,0:0:0:0:
273,72,160532,5,4,0:0:0:0:
273,72,160692,2,0,L|248:157,1,80,0|2,0:0|0:0,0:0:0:0:
67,141,161011,5,12,0:0:0:0:
67,141,161171,2,0,L|153:120,1,80,0|8,0:0|0:0,0:0:0:0:
233,287,161490,5,4,0:0:0:0:
233,287,161650,2,0,L|171:222,1,80,0|0,0:0|0:0,0:0:0:0:
339,291,161969,5,12,0:0:0:0:
339,291,162129,2,0,L|315:367,1,80,0|8,0:0|0:0,0:0:0:0:
285,190,162447,5,2,0:0:0:0:
285,190,162607,2,0,L|362:170,2,80,8|8|8,0:0|0:0|0:0,0:0:0:0:
453,325,163086,6,0,P|460:249|447:225,1,80,4|0,0:0|0:0,0:0:0:0:
401,149,163405,2,0,P|328:147|234:183,1,160,8|0,0:0|0:0,0:0:0:0:
99,68,163883,2,0,P|150:85|192:77,1,80,2|8,0:0|0:0,0:0:0:0:
287,23,164203,1,0,0:0:0:0:
406,151,164362,6,0,P|393:228|297:264,1,160,2|8,0:0|0:0,0:0:0:0:
146,168,164841,1,2,0:0:0:0:
206,263,165000,1,0,0:0:0:0:
76,341,165160,1,0,0:0:0:0:
76,341,165320,2,0,L|105:235,1,80,8|0,0:0|0:0,0:0:0:0:
98,87,165639,6,0,P|193:92|251:162,1,160,2|8,0:0|0:0,0:0:0:0:
282,268,166117,1,8,0:0:0:0:
282,268,166197,1,8,0:0:0:0:
282,268,166277,2,0,L|322:182,1,80,10|8,0:0|0:0,0:0:0:0:
407,141,166596,1,8,0:0:0:0:
471,259,166756,6,0,P|456:313|338:310,1,160,4|2,0:0|0:0,0:0:0:0:
342,330,167155,1,8,0:0:0:0:
342,330,167235,2,0,L|234:317,1,80,8|8,0:0|0:0,0:0:0:0:
143,194,167554,2,0,L|222:203,1,80,2|0,0:0|0:0,0:0:0:0:
337,92,167873,2,0,L|229:79,1,80,8|0,0:0|0:0,0:0:0:0:
107,57,168192,6,0,P|108:102|102:138,1,80,4|0,0:2|0:0,0:0:0:0:
50,212,168511,1,8,0:0:0:0:
164,342,168670,6,0,P|163:297|169:261,1,80,2|0,0:2|0:0,0:0:0:0:
221,187,168989,1,8,0:0:0:0:
395,138,169149,6,0,P|350:139|314:133,1,80,2|0,0:2|0:0,0:0:0:0:
240,81,169468,1,8,0:0:0:0:
168,262,169628,6,0,P|213:261|249:267,1,80,2|0,0:2|0:0,0:0:0:0:
323,319,169947,1,8,0:0:0:0:
469,268,170106,6,0,P|489:220|472:173,1,80,8|8,0:2|0:0,0:0:0:0:
427,94,170426,6,0,L|512:71,1,80,4|0,0:2|0:0,0:0:0:0:
447,0,170745,1,8,0:0:0:0:
339,147,170904,6,0,L|253:124,1,80,2|0,0:2|0:0,0:0:0:0:
319,53,171223,1,8,0:0:0:0:
391,287,171383,6,0,L|476:264,1,80,2|0,0:2|0:0,0:0:0:0:
411,193,171702,1,8,0:0:0:0:
310,339,171861,6,0,L|224:316,1,80,2|0,0:2|0:0,0:0:0:0:
290,245,172180,1,8,0:0:0:0:
115,185,172340,5,8,0:2:0:0:
115,185,172500,1,8,0:2:0:0:
252,274,172660,6,0,L|239:353,1,80,4|8,0:0|0:0,0:0:0:0:
401,218,172979,1,8,0:0:0:0:
227,249,173138,6,0,L|214:328,1,80,4|8,0:0|0:0,0:0:0:0:
436,228,173457,1,8,0:0:0:0:
193,224,173617,5,4,0:0:0:0:
349,264,173777,1,8,0:0:0:0:
349,264,173936,1,8,0:0:0:0:
115,277,174096,5,4,0:0:0:0:
273,180,174255,1,8,0:0:0:0:
273,180,174415,1,8,0:0:0:0:
131,185,174574,5,4,0:0:0:0:
267,273,174734,1,8,0:0:0:0:
267,273,174894,1,8,0:0:0:0:
99,266,175053,5,4,0:0:0:0:
80,261,175372,5,0,0:0:0:0:
214,282,175532,1,10,0:0:0:0:
27,333,175691,1,8,0:0:0:0:
230,279,175851,5,10,0:0:0:0:
112,369,176011,1,8,0:0:0:0:
127,224,176170,1,10,0:0:0:0:
272,264,176330,1,8,0:0:0:0:
204,357,176489,5,10,0:0:0:0:
245,191,176649,1,8,0:0:0:0:
382,236,176808,1,10,0:0:0:0:
339,334,176968,1,8,0:0:0:0:
182,254,177128,5,10,0:0:0:0:
318,153,177287,1,10,0:0:0:0:
189,95,177447,1,10,0:0:0:0:
121,176,177606,1,10,0:0:0:0:
216,177,177766,5,4,0:0:0:0:
111,108,187979,6,0,L|81:189,1,60.0000022888184,4|0,0:0|0:0,0:0:0:0:
126,285,188298,2,0,L|146:228,1,60.0000022888184,2|0,0:0|0:0,0:0:0:0:
216,181,188617,1,2,0:0:0:0:
297,158,188777,1,0,0:0:0:0:
382,165,188936,1,2,0:0:0:0:
459,132,189096,6,0,P|430:206|428:266,1,120.000004577637,2|0,0:0|0:0,0:0:0:0:
474,314,189574,1,2,0:0:0:0:
403,359,189734,2,0,P|295:352|272:354,1,120.000004577637,0|0,0:0|0:0,0:0:0:0:
206,270,190213,1,2,0:0:0:0:
285,353,190372,1,0,0:0:0:0:
103,355,190532,6,0,P|55:334|25:304,1,80,4|0,0:0|0:0,0:0:0:0:
126,180,190851,2,0,P|174:201|204:231,1,80,8|0,0:0|0:0,0:0:0:0:
31,219,191170,2,0,L|52:135,1,80,4|0,0:0|0:0,0:0:0:0:
221,50,191489,2,0,L|201:127,1,80,8|8,0:0|0:0,0:0:0:0:
290,298,191808,6,0,P|330:246|309:159,1,160,4|8,0:0|0:0,0:0:0:0:
221,119,192287,1,8,0:0:0:0:
141,155,192447,1,8,0:0:0:0:
68,112,192606,1,8,0:0:0:0:
215,207,192766,1,8,0:3:0:0:
215,207,192925,1,8,0:3:0:0:
34,278,193085,6,0,L|65:198,1,80,4|0,0:0|0:0,0:0:0:0:
299,102,193404,2,0,L|137:124,1,160,8|2,0:0|0:0,0:0:0:0:
134,219,193883,1,0,0:0:0:0:
202,316,194042,2,0,P|228:278|231:240,1,80,8|0,0:0|0:0,0:0:0:0:
318,183,194362,6,0,P|323:222|348:252,1,80,2|0,0:0|0:0,0:0:0:0:
448,44,194681,2,0,L|296:102,1,160,8|2,0:0|0:0,0:0:0:0:
141,156,195160,1,0,0:0:0:0:
233,256,195319,2,0,P|239:201|220:172,1,80,8|0,0:0|0:0,0:0:0:0:
72,195,195638,6,0,L|34:291,1,80,10|0,0:0|0:0,0:0:0:0:
215,160,195957,2,0,L|245:86,1,80,10|0,0:0|0:0,0:0:0:0:
237,273,196277,2,0,L|163:244,1,80,10|0,0:0|0:0,0:0:0:0:
50,73,196596,2,0,L|124:102,1,80,10|0,0:0|0:0,0:0:0:0:
292,69,196915,5,8,0:0:0:0:
379,65,197074,1,8,0:0:0:0:
234,140,197234,1,8,0:0:0:0:
310,178,197394,1,8,0:0:0:0:
149,178,197553,1,8,0:0:0:0:
177,252,197713,1,8,0:0:0:0:
60,158,197872,1,8,0:0:0:0:
16,228,198032,1,8,0:0:0:0:
177,252,198191,5,2,0:0:0:0:
422,99,199468,5,6,0:0:0:0:
125,169,200745,1,6,0:0:0:0:
339,316,202021,6,0,L|365:213,1,80,12|0,0:0|0:0,0:0:0:0:
267,216,202340,1,2,0:0:0:0:
462,259,202500,2,0,L|459:93,1,160,12|2,0:0|0:0,0:0:0:0:
267,216,202979,1,8,0:0:0:0:
301,45,203138,6,0,P|217:80|133:59,1,160,4|0,0:0|0:0,0:0:0:0:
65,193,203617,2,0,P|30:124|30:97,1,80,8|0,0:0|0:0,0:0:0:0:
178,182,203936,2,0,P|166:220|142:252,1,80,2|0,0:0|0:0,0:0:0:0:
27,289,204255,1,8,0:0:0:0:
180,358,204415,1,8,0:0:0:0:
180,358,204495,1,8,0:0:0:0:
180,358,204574,6,0,P|292:342|323:340,1,120.000004577637,4|2,0:0|0:0,0:0:0:0:
382,245,205053,2,0,P|270:261|239:263,1,120.000004577637,0|0,0:0|0:0,0:0:0:0:
183,216,205532,1,2,0:0:0:0:
183,216,205851,6,0,P|185:175|180:140,1,60.0000022888184,4|0,0:0|0:0,0:0:0:0:
250,56,206170,2,0,P|255:83|253:132,1,60.0000022888184,2|0,0:0|0:0,0:0:0:0:
301,187,206489,2,0,P|382:195|419:160,1,120.000004577637,2|2,0:0|0:0,0:0:0:0:
463,243,206968,1,0,0:0:0:0:
371,50,207128,6,0,L|349:133,1,80,12|0,0:0|0:0,0:0:0:0:
216,58,207447,1,8,0:0:0:0:
262,184,207606,1,8,0:0:0:0:
150,127,207766,1,8,0:0:0:0:
151,209,207925,1,8,0:0:0:0:
66,162,208085,1,8,0:0:0:0:
14,221,208245,1,8,0:0:0:0:
3,108,208404,5,2,0:0:0:0:
208,88,208723,1,2,0:0:0:0:
208,88,208883,1,0,0:0:0:0:
186,195,209042,2,0,P|192:258|186:278,1,60.0000022888184
290,361,209362,2,0,P|295:314|305:280,1,60.0000022888184
419,272,209681,6,0,P|449:199|416:131,1,160,6|8,0:0|0:0,0:0:0:0:
274,220,210160,2,0,L|358:204,1,80,0|2,0:0|0:0,0:0:0:0:
416,131,210479,1,0,0:0:0:0:
325,56,210638,1,8,0:0:0:0:
511,35,210798,6,0,P|490:108|417:131,1,160,2|0,0:0|0:0,0:0:0:0:
247,71,211277,2,0,L|325:57,1,80,8|2,0:0|0:0,0:0:0:0:
133,166,211596,1,2,0:0:0:0:
122,63,211755,1,0,0:0:0:0:
18,166,211915,2,0,P|27:205|29:245,1,80,8|0,0:0|0:0,0:0:0:0:
133,166,212234,6,0,P|190:144|294:199,1,160,12|2,0:0|0:0,0:0:0:0:
234,317,212713,2,0,L|150:341,1,80,12|2,0:0|0:0,0:0:0:0:
293,205,213032,1,2,0:0:0:0:
354,104,213191,1,8,0:0:0:0:
361,284,213351,1,8,0:0:0:0:
486,170,213511,6,0,L|327:195,1,160,4|8,0:0|0:0,0:0:0:0:
262,285,213989,1,0,0:0:0:0:
347,363,214149,2,0,P|355:324|362:282,1,80,8|8,0:3|0:3,0:0:0:0:
169,239,214468,2,0,P|162:275|156:319,1,80,4|4,0:3|0:3,0:0:0:0:
269,155,214787,6,0,P|212:97|128:105,1,160,4|8,0:0|0:0,0:0:0:0:
73,224,215266,1,2,0:0:0:0:
73,224,215346,1,8,0:0:0:0:
73,224,215425,2,0,L|155:200,1,80
269,155,215745,1,8,0:0:0:0:
394,249,215904,1,0,0:0:0:0:
264,361,216064,6,0,P|290:267|243:230,1,160,4|8,0:0|0:0,0:0:0:0:
149,201,216542,1,0,0:0:0:0:
204,77,216702,2,0,P|208:116|233:146,1,80,2|0,3:2|3:0,0:0:0:0:
350,75,217021,1,8,3:0:0:0:
350,75,217101,1,0,3:0:0:0:
350,75,217181,1,0,3:0:0:0:
350,75,217261,1,0,3:0:0:0:
350,75,217340,6,0,P|338:141|324:257,1,160,6|8,0:0|0:0,0:0:0:0:
242,142,217819,1,2,0:0:0:0:
168,208,217979,2,0,P|173:240|177:295,1,80,2|0,0:0|0:0,0:0:0:0:
95,153,218298,1,8,0:0:0:0:
86,318,218457,6,0,P|125:364|238:359,1,160,2|0,0:0|0:0,0:0:0:0:
301,297,218936,2,0,P|352:291|398:299,1,80,8|2,0:0|0:0,0:0:0:0:
462,242,219255,2,0,P|487:272|500:310,1,80,2|0,0:0|0:0,0:0:0:0:
291,375,219574,2,0,P|290:332|306:285,1,80,8|8,0:0|0:0,0:0:0:0:
299,179,219894,6,0,L|119:194,1,160,4|2,0:0|0:0,0:0:0:0:
69,119,220372,1,0,0:0:0:0:
186,282,220532,2,0,L|26:316,1,160,12|8,0:0|0:0,0:0:0:0:
193,106,221011,1,8,0:0:0:0:
155,371,221170,1,4,0:0:0:0:
256,192,221250,12,8,223085,0:0:0:0:
379,177,223723,6,0,P|395:124|382:86,1,80,4|0,0:0|0:0,0:0:0:0:
272,124,224042,1,2,0:0:0:0:
193,57,224202,1,0,0:0:0:0:
144,189,224361,2,0,P|169:260|244:272,1,160,8|2,0:0|0:0,0:0:0:0:
334,217,224840,1,8,0:0:0:0:
410,348,225000,6,0,P|423:291|413:266,1,80,2|0,0:0|0:0,0:0:0:0:
266,173,225319,2,0,P|253:230|263:255,1,80,2|0,0:0|0:0,0:0:0:0:
266,173,225638,2,0,L|100:158,1,160,8|2,0:0|0:0,0:0:0:0:
23,94,226116,1,8,0:0:0:0:
106,158,226276,6,0,L|70:341,1,160,4|2,0:0|0:0,0:0:0:0:
227,274,226755,1,0,0:0:0:0:
227,274,226914,2,0,P|247:174|178:136,1,160,8|2,0:0|0:0,0:0:0:0:
132,46,227393,1,8,0:0:0:0:
249,66,227553,6,0,P|317:60|339:64,1,80,2|0,0:0|0:0,0:0:0:0:
447,145,227872,2,0,P|401:151|361:141,1,80,2|0,0:0|0:0,0:0:0:0:
281,205,228191,1,8,0:0:0:0:
281,205,228510,1,2,0:0:0:0:
214,339,228670,1,8,0:0:0:0:
322,288,228829,6,0,L|401:301,1,80,4|0,0:0|0:0,0:0:0:0:
368,144,229148,2,0,L|290:130,1,80,8|0,0:0|0:0,0:0:0:0:
246,315,229468,6,0,L|322:287,1,80,8|0,0:0|0:0,0:0:0:0:
443,116,229787,2,0,L|368:143,1,80,8|0,0:0|0:0,0:0:0:0:
204,175,230106,6,0,L|218:96,1,80,8|0,0:0|0:0,0:0:0:0:
482,276,230425,2,0,L|469:354,1,80,8|0,0:0|0:0,0:0:0:0:
230,250,230744,6,0,L|203:174,1,80,8|0,0:0|0:0,0:0:0:0:
454,201,231063,2,0,L|482:276,1,80,8|0,0:0|0:0,0:0:0:0:
336,192,231382,5,2,0:0:0:0:
350,93,232698,1,2,0:0:0:0:
324,302,234013,1,2,0:0:0:0:
256,192,234095,12,0,235985,0:0:0:0:
90,133,236274,5,10,0:0:0:0:
90,133,236353,1,0,0:0:0:0:
90,133,236433,1,0,0:0:0:0:
90,133,236513,1,2,0:0:0:0:
90,133,236593,2,0,P|68:234|133:285,1,160,6|8,0:0|0:0,0:0:0:0:
227,216,237071,2,0,L|149:202,1,80,2|0,0:0|0:0,0:0:0:0:
252,127,237390,1,2,0:0:0:0:
319,228,237550,2,0,P|316:267|297:302,1,80,8|2,0:0|0:0,0:0:0:0:
372,158,237869,6,0,P|458:144|509:189,1,160,2|8,0:0|0:0,0:0:0:0:
486,310,238348,1,2,0:0:0:0:
486,310,238428,1,2,0:0:0:0:
486,310,238507,2,0,P|447:341|414:343,1,80,2|0,0:0|0:0,0:0:0:0:
321,223,238827,1,8,0:0:0:0:
416,260,238986,1,0,0:0:0:0:
216,344,239146,6,0,L|236:262,1,80,2|0,0:0|0:0,0:0:0:0:
124,339,239465,2,0,P|50:344|2:272,1,160,8|2,0:0|0:0,0:0:0:0:
35,121,239944,1,2,0:0:0:0:
121,170,240103,2,0,L|86:257,1,80,8|2,0:0|0:0,0:0:0:0:
214,143,240422,2,0,P|266:99|267:72,1,80,2|0,0:0|0:0,0:0:0:0:
243,233,240741,6,0,P|318:246|397:222,1,160,8|2,0:0|0:0,0:0:0:0:
462,69,241220,1,0,0:0:0:0:
367,130,241380,1,10,0:0:0:0:
512,154,241539,1,2,0:0:0:0:
396,222,241699,6,0,L|385:323,1,80,2|0,0:0|0:0,0:0:0:0:
485,275,242018,1,8,0:0:0:0:
300,222,242178,2,0,P|225:222|142:270,1,160,2|2,0:0|0:0,0:0:0:0:
42,154,242656,2,0,P|76:161|134:152,1,80,8|0,0:0|0:0,0:0:0:0:
265,84,242975,5,2,0:0:0:0:
120,156,243135,1,2,0:0:0:0:
268,162,243295,1,8,0:0:0:0:
207,19,243454,1,2,0:0:0:0:
197,212,243614,1,2,0:0:0:0:
265,84,243773,1,2,0:0:0:0:
121,66,243933,1,8,0:0:0:0:
268,162,244093,1,2,0:0:0:0:
121,66,244252,6,0,L|34:66,1,80,12|2,0:0|0:0,0:0:0:0:
268,162,244571,2,0,L|348:162,1,80,8|2,0:0|0:0,0:0:0:0:
110,236,244890,2,0,L|122:144,1,80,8|2,0:0|0:0,0:0:0:0:
271,0,245210,2,0,L|260:79,1,80,8|2,0:0|0:0,0:0:0:0:
251,224,245529,5,8,0:0:0:0:
120,156,245688,1,8,0:0:0:0:
260,79,245848,1,8,0:0:0:0:
210,152,246007,1,8,0:0:0:0:
375,94,246167,5,8,0:3:0:0:
464,231,246327,1,4,0:3:0:0:
442,145,246486,1,8,0:0:0:0:
333,289,246646,1,4,0:0:0:0:
256,192,246725,12,0,253188,0:0:0:0:
