osu file format v14

[General]
AudioFilename: Dear brave.mp3
AudioLeadIn: 0
PreviewTime: 198112
Countdown: 0
SampleSet: Soft
StackLeniency: 0.7
Mode: 0
LetterboxInBreaks: 0
WidescreenStoryboard: 1

[Editor]
DistanceSpacing: 1.2
BeatDivisor: 4
GridSize: 4
TimelineZoom: 2.699999

[Metadata]
Title:Dear Brave
TitleUnicode:ディアブレイブ
Artist:Kano
ArtistUnicode:鹿乃
Creator:Fycho
Version:Hard
Source:ヘヴィーオブジェクト
Tags:Heavy Object ending full ver thzz cah-m
BeatmapID:937406
BeatmapSetID:390668

[Difficulty]
HPDrainRate:5
CircleSize:4
OverallDifficulty:6
ApproachRate:7.5
SliderMultiplier:1.4
SliderTickRate:1

[Events]
//Background and Video events
0,0,"DB.jpg",0,0
Video,-400,"3178815.avi"
//Break Periods
2,177966,187154
//Storyboard Layer 0 (Background)
//Storyboard Layer 1 (Fail)
//Storyboard Layer 2 (Pass)
//Storyboard Layer 3 (Foreground)
//Storyboard Sound Samples

[TimingPoints]
2235,319.148936170213,4,2,1,50,1,0
3511,-133.333333333333,4,2,1,50,0,0
7181,-100,4,2,1,70,0,0
17554,-133.333333333333,4,2,1,50,0,0
27766,-111.111111111111,4,2,1,50,0,0
37979,-100,4,2,1,60,0,0
43086,-133.333333333333,4,2,1,50,0,0
48192,-100,4,2,1,70,0,0
55852,-100,4,2,1,50,0,0
56171,-100,4,2,1,55,0,0
56490,-100,4,2,1,60,0,0
56809,-100,4,2,1,65,0,0
57128,-100,4,2,1,70,0,0
58405,-100,4,2,1,80,0,1
73724,-100,4,2,1,70,0,1
81383,-100,4,2,1,50,0,0
83937,-100,4,2,1,70,0,0
92873,-100,4,2,1,70,0,0
93511,-100,4,2,1,30,0,0
93830,-100,4,2,1,50,0,0
94149,-133.333333333333,4,2,1,50,0,0
113219,-100,4,2,1,50,0,0
114575,-100,4,2,1,70,0,0
124788,-133.333333333333,4,2,1,50,0,0
129894,-100,4,2,1,50,0,0
135000,-100,4,2,1,90,0,1
152873,-100,4,2,1,80,0,0
168192,319.148936170213,7,2,1,50,1,0
170106,-100,7,2,1,60,0,0
172340,-100,7,2,1,70,0,0
172660,319.148936170213,4,2,1,80,1,0
175372,-100,4,2,1,50,0,0
176170,-100,4,2,1,60,0,0
176489,-100,4,2,1,70,0,0
177128,-100,4,2,1,75,0,0
177447,-100,4,2,1,80,0,0
177925,-133.333333333333,4,2,1,30,0,0
187979,-133.333333333333,4,2,1,50,0,0
190532,-100,4,2,1,70,0,0
199468,-166.666666666667,4,2,1,50,0,0
202021,-100,4,2,1,70,0,0
204574,-133.333333333333,4,2,1,50,0,0
205851,-133.333333333333,4,2,1,65,0,0
207128,-100,4,2,1,75,0,0
208404,-100,4,2,1,55,0,0
208723,-100,4,2,1,40,0,0
209042,-133.333333333333,4,2,1,50,0,0
209681,-100,4,2,1,90,0,1
221250,-100,4,2,1,45,0,1
223723,-100,4,2,1,70,0,1
231383,328.767123287671,4,2,1,50,1,0
236274,319.148936170213,4,2,1,50,1,0
236593,319.148936170213,4,2,1,70,1,0
246725,-100,4,2,1,60,0,0
248082,-100,4,2,1,45,0,0
249358,-100,4,2,1,30,0,0
250635,-100,4,2,1,15,0,0
251912,-100,4,2,1,5,0,0

[Colours]
Combo1 : 68,64,145
Combo2 : 254,73,132
Combo3 : 151,198,255
Combo4 : 52,221,38

[HitObjects]
364,82,7181,6,0,P|288:82|225:59,1,140,4|0,0:0|0:0,0:0:0:0:
151,94,7660,2,0,P|128:132|130:159,1,70,8|0,0:0|0:0,0:0:0:0:
171,229,7979,2,0,L|156:298,2,70,2|0|8,0:0|0:0|0:0,0:0:0:0:
250,200,8458,6,0,P|337:210|363:254,1,140,2|0,0:0|0:0,0:0:0:0:
442,224,8937,2,0,P|455:186|456:154,1,70,8|0,0:0|0:0,0:0:0:0:
410,85,9256,1,2,0:0:0:0:
331,54,9415,1,2,0:0:0:0:
252,84,9575,1,8,0:0:0:0:
168,73,9735,6,0,L|140:244,2,140,4|8|4,0:0|0:0|0:0,0:0:0:0:
266,208,10692,1,10,0:0:0:0:
416,132,11011,6,0,P|469:172|460:238,1,140,4|0,0:0|0:0,0:0:0:0:
409,306,11490,1,8,0:0:0:0:
326,291,11649,1,8,0:0:0:0:
242,300,11809,2,0,P|247:249|230:209,1,70,2|0,0:0|0:0,0:0:0:0:
168,191,12128,1,8,0:0:0:0:
83,192,12288,6,0,P|44:116|76:69,1,140,4|0,0:0|0:0,0:0:0:0:
142,36,12766,2,0,L|289:31,1,140,8|0,0:0|0:0,0:0:0:0:
364,24,13245,2,0,P|409:87|400:167,1,140,8|0,0:0|0:0,0:0:0:0:
373,224,13724,6,8,L|403:318,2,70,12|0|8,0:0|0:0|0:0,0:0:0:0:
289,212,14203,1,8,0:0:0:0:
219,165,14362,2,0,P|215:135|224:94,1,70,8|8,0:0|0:0,0:0:0:0:
146,61,14681,1,8,0:3:0:0:
63,77,14841,1,4,0:3:0:0:
56,160,15000,6,0,L|41:235,1,70,12|0,0:0|0:0,0:0:0:0:
21,310,15320,1,0,0:0:0:0:
104,306,15479,2,0,P|145:291|187:289,1,70,8|0,0:0|0:0,0:0:0:0:
247,323,15798,1,0,0:0:0:0:
323,286,15958,6,0,P|341:253|337:210,1,70,8|0,0:0|0:0,0:0:0:0:
310,142,16277,1,0,0:0:0:0:
360,74,16437,2,0,L|437:73,2,70,12|0|0,0:0|0:0|0:0,0:0:0:0:
289,28,16915,5,10,0:0:0:0:
289,28,17075,1,10,0:0:0:0:
118,109,17554,6,0,L|112:167,1,52.5000020027161,4|0,0:0|0:0,0:0:0:0:
82,234,17873,1,0,0:0:0:0:
152,267,18032,2,0,P|220:287|253:306,1,105.000004005432,2|2,0:0|0:0,0:0:0:0:
404,332,18671,1,0,0:0:0:0:
404,332,18830,6,0,P|406:267|429:219,1,105.000004005432,2|2,0:0|0:0,0:0:0:0:
468,167,19309,2,0,L|485:114,2,52.5000020027161,2|0|2,0:0|0:0|0:0,0:0:0:0:
390,150,19788,2,0,L|369:87,1,52.5000020027161
360,22,20107,6,0,L|239:41,1,105.000004005432,2|0,0:0|0:0,0:0:0:0:
195,88,20586,2,0,P|144:81|85:82,2,105.000004005432,2|2|2,0:0|0:0|0:0,0:0:0:0:
199,166,21383,6,0,P|219:243|193:277,1,105.000004005432
279,296,21862,2,0,L|404:284,1,105.000004005432,2|0,0:0|0:0,0:0:0:0:
447,239,22341,2,0,P|440:213|440:186,1,52.5000020027161,2|0,0:0|0:0,0:0:0:0:
445,108,22660,6,0,L|328:105,1,105.000004005432,2|0,0:0|0:0,0:0:0:0:
261,113,23139,1,2,0:0:0:0:
74,256,23617,2,0,L|90:200,1,52.5000020027161,2|0,0:0|0:0,0:0:0:0:
149,154,23937,6,0,L|113:30,1,105.000004005432,2|0,0:0|0:0,0:0:0:0:
196,37,24415,2,0,P|257:40|315:39,1,105.000004005432,2|2,0:0|0:0,0:0:0:0:
373,71,24894,2,0,P|362:116|363:133,1,52.5000020027161,0|2,0:0|0:0,0:0:0:0:
383,197,25213,6,0,P|342:150|282:148,1,105.000004005432,2|2,0:0|0:0,0:0:0:0:
241,193,25692,2,0,L|250:258,1,52.5000020027161,2|0,0:0|0:0,0:0:0:0:
219,318,26011,2,0,L|193:385,2,52.5000020027161,2|0|2,0:0|0:0|0:0,0:0:0:0:
140,308,26490,6,0,P|91:249|95:206,1,105.000004005432
142,165,26969,1,0,0:0:0:0:
176,94,27128,2,0,L|158:35,2,52.5000020027161,2|0|2,0:0|0:0|0:0,0:0:0:0:
254,89,27607,1,0,0:0:0:0:
338,130,27766,6,0,P|415:134|471:98,1,125.999996154785,6|2,0:0|0:0,0:0:0:0:
476,191,28245,2,0,P|461:284|468:325,1,125.999996154785,2|2,0:0|0:0,0:0:0:0:
397,359,28724,1,0,0:0:0:0:
319,332,28883,6,0,P|222:311|180:313,1,125.999996154785,2|2,0:0|0:0,0:0:0:0:
114,325,29362,1,2,0:0:0:0:
149,250,29522,1,2,0:0:0:0:
106,180,29681,2,0,P|109:132|128:104,1,62.9999980773926
182,71,30000,1,2,0:0:0:0:
114,23,30160,1,2,0:0:0:0:
182,71,30320,6,0,L|314:55,1,125.999996154785,2|2,0:0|0:0,0:0:0:0:
388,58,30798,2,0,P|430:102|423:178,1,125.999996154785,2|2,0:0|0:0,0:0:0:0:
369,219,31277,1,0,0:0:0:0:
289,196,31437,6,0,P|231:187|144:219,1,125.999996154785,0|2,0:0|0:0,0:0:0:0:
88,182,31915,1,0,0:0:0:0:
52,256,32075,2,0,P|59:312|48:340,1,62.9999980773926,2|0,0:0|0:0,0:0:0:0:
139,327,32394,1,0,0:0:0:0:
220,319,32554,6,0,P|284:298|342:331,1,125.999996154785,2|6,0:0|0:0,0:0:0:0:
493,282,33192,1,2,0:0:0:0:
444,215,33352,2,0,L|455:144,1,62.9999980773926,2|2,0:0|0:0,0:0:0:0:
465,71,33671,2,0,L|451:10,1,62.9999980773926,2|0,0:0|0:0,0:0:0:0:
371,30,33990,1,0,0:0:0:0:
292,51,34149,6,0,P|214:43|165:68,1,125.999996154785,2|0,0:0|0:0,0:0:0:0:
111,117,34628,1,0,0:0:0:0:
30,135,34788,2,0,L|6:259,1,125.999996154785,2|0,0:0|0:0,0:0:0:0:
79,294,35266,1,0,0:0:0:0:
160,288,35426,6,0,L|224:277,1,62.9999980773926,2|0,0:0|0:0,0:0:0:0:
299,260,35745,2,0,P|377:259|424:285,2,125.999996154785,2|0|2,0:0|0:0|0:0,0:0:0:0:
234,209,36543,1,0,0:0:0:0:
153,190,36703,6,0,L|157:118,1,62.9999980773926,2|0,0:0|0:0,0:0:0:0:
188,51,37022,2,0,L|254:68,1,62.9999980773926,2|0,0:0|0:0,0:0:0:0:
322,103,37341,2,0,L|326:28,1,62.9999980773926,2|0,0:0|0:0,0:0:0:0:
405,20,37660,2,0,L|415:85,1,62.9999980773926,2|0,0:0|0:0,0:0:0:0:
426,172,37979,5,8,0:0:0:0:
480,236,38139,1,8,0:0:0:0:
437,308,38298,2,0,L|357:295,1,70
299,248,38617,2,0,P|270:312|260:413,1,140,2|0,0:0|0:0,0:0:0:0:
182,347,39096,1,0,0:0:0:0:
120,289,39256,5,8,0:0:0:0:
41,318,39415,1,8,0:0:0:0:
13,238,39575,2,0,L|40:171,1,70
123,169,39894,2,0,P|187:126|186:49,1,140,2|0,0:0|0:0,0:0:0:0:
276,55,40373,1,0,0:0:0:0:
333,115,40532,5,8,0:0:0:0:
415,131,40692,1,8,0:0:0:0:
458,202,40852,2,0,L|465:277,1,70
394,318,41171,2,0,P|320:356|260:332,1,140,2|0,0:0|0:0,0:0:0:0:
213,277,41649,1,0,0:0:0:0:
129,286,41809,5,8,0:0:0:0:
135,202,41969,1,8,0:0:0:0:
73,145,42128,1,0,0:0:0:0:
210,49,42447,1,2,0:0:0:0:
371,94,42766,1,2,0:0:0:0:
226,187,43086,6,0,L|205:306,1,105.000004005432,4|0,0:0|0:0,0:0:0:0:
272,335,43564,2,0,P|349:344|390:317,2,105.000004005432,2|0|2,0:0|0:0|0:0,0:0:0:0:
200,369,44362,6,0,P|154:353|92:364,1,105.000004005432,2|0,0:0|0:0,0:0:0:0:
72,205,45000,2,0,L|90:143,1,52.5000020027161,2|0,0:0|0:0,0:0:0:0:
161,127,45320,2,0,L|150:52,1,52.5000020027161,0|2,0:0|0:0,0:0:0:0:
210,20,45639,5,2,0:0:0:0:
142,327,46277,1,2,0:0:0:0:
429,199,46915,1,2,0:0:0:0:
274,166,47235,1,2,0:0:0:0:
306,237,47394,1,0,0:0:0:0:
235,271,47554,6,0,L|230:339,1,52.5000020027161,8|8,0:0|0:0,0:0:0:0:
168,216,47873,2,0,L|171:163,1,52.5000020027161,8|8,0:0|0:0,0:0:0:0:
141,63,48192,6,0,L|281:100,1,140,4|8,0:0|0:0,0:0:0:0:
350,137,48671,1,0,0:0:0:0:
433,127,48830,2,0,P|465:178|450:274,1,140,2|8,0:0|0:0,0:0:0:0:
387,297,49309,1,0,0:0:0:0:
305,277,49469,6,0,L|215:298,1,70,2|2,0:0|0:0,0:0:0:0:
152,295,49788,2,0,P|137:234|151:209,1,70,8|0,0:0|0:0,0:0:0:0:
158,148,50107,2,0,L|6:178,1,140,2|8,0:0|0:0,0:0:0:0:
24,90,50586,1,0,0:0:0:0:
92,42,50745,6,0,L|176:49,1,70,2|2,0:0|0:0,0:0:0:0:
243,66,51064,2,0,P|264:34|265:-3,1,70,8|0,0:0|0:0,0:0:0:0:
338,46,51383,1,2,0:0:0:0:
420,29,51543,1,0,0:0:0:0:
455,105,51703,2,0,P|465:142|463:187,1,70,8|2,0:0|0:0,0:0:0:0:
420,245,52022,6,0,P|373:283|278:275,1,140,2|8,0:0|0:0,0:0:0:0:
212,289,52500,1,2,0:0:0:0:
131,264,52660,2,0,P|143:226|138:198,1,70,2|2,0:0|0:0,0:0:0:0:
121,114,52979,2,0,P|189:91|217:97,1,70,8|0,0:0|0:0,0:0:0:0:
269,90,53298,6,0,L|284:13,2,70,12|0|0,0:0|0:0|0:0,0:0:0:0:
244,170,53777,2,0,L|269:327,1,140,12|0,0:0|0:0,0:0:0:0:
348,324,54256,2,0,P|416:279|414:208,1,140,12|0,0:0|0:0,0:0:0:0:
421,140,54735,6,0,P|351:135|269:138,1,140,12|0,0:0|0:0,0:0:0:0:
197,131,55213,2,0,L|216:64,1,70,12|8,0:0|0:0,0:0:0:0:
132,56,55532,1,8,0:0:0:0:
49,73,55692,1,8,0:0:0:0:
5,145,55852,1,12,0:0:0:0:
141,242,56171,6,0,L|117:329,1,70,8|8,0:0|0:0,0:0:0:0:
285,229,56490,2,0,L|197:202,1,70,8|8,0:0|0:0,0:0:0:0:
364,322,56809,2,0,L|358:234,1,70,8|8,0:0|0:0,0:0:0:0:
239,324,57128,5,12,0:0:0:0:
449,216,57447,1,0,0:0:0:0:
362,72,57766,2,0,L|327:64,3,35,2|0|2|0,0:0|0:0|0:0|0:0,0:0:0:0:
289,86,58086,2,0,L|254:78,3,35,2|0|2|0,0:0|0:0|0:0|0:0,0:0:0:0:
213,83,58405,6,0,B|65:108,1,140,4|8,0:0|0:0,0:0:0:0:
26,174,58883,1,0,0:0:0:0:
86,237,59043,2,0,P|94:278|90:312,1,70,2|0,0:0|0:0,0:0:0:0:
157,202,59362,1,8,0:0:0:0:
211,266,59522,6,0,P|266:333|321:343,1,140,2|0,0:0|0:0,0:0:0:0:
380,290,60000,2,0,L|442:233,1,70,8|0,0:0|0:0,0:0:0:0:
404,162,60320,2,0,L|344:217,1,70,2|0,0:0|0:0,0:0:0:0:
273,180,60639,1,8,0:0:0:0:
324,114,60798,1,0,0:0:0:0:
263,54,60958,6,0,P|173:40|104:51,1,140,2|8,0:0|0:0,0:0:0:0:
92,123,61437,2,0,L|79:181,2,35,2|8|0,0:0|0:0|0:0,0:0:0:0:
165,164,61756,1,2,0:0:0:0:
245,141,61915,1,8,0:0:0:0:
328,134,62075,6,0,P|356:196|354:270,1,140,2|0,0:0|0:0,0:0:0:0:
270,271,62554,2,0,P|247:303|249:343,1,70,8|2,0:0|0:0,0:0:0:0:
318,374,62873,1,2,0:0:0:0:
391,334,63032,1,0,0:0:0:0:
473,349,63192,1,8,0:0:0:0:
473,349,63352,1,8,0:0:0:0:
477,265,63511,6,0,P|481:188|495:111,1,140,4|8,0:0|0:0,0:0:0:0:
407,121,63990,1,2,0:0:0:0:
324,107,64149,1,0,0:0:0:0:
302,188,64309,2,0,P|293:229|275:265,1,70,2|8,0:0|0:0,0:0:0:0:
202,284,64628,1,8,0:0:0:0:
202,284,64708,1,8,0:0:0:0:
202,284,64788,6,0,L|54:264,1,140,2|8,0:0|0:0,0:0:0:0:
79,183,65266,2,0,P|156:164|181:97,1,140,2|0,0:0|0:0,0:0:0:0:
256,76,65745,1,8,0:0:0:0:
256,76,65905,1,0,0:0:0:0:
333,106,66064,6,0,L|408:109,1,70,12|2,0:0|0:0,0:0:0:0:
384,190,66383,2,0,L|462:196,1,70,8|2,0:0|0:0,0:0:0:0:
434,278,66703,2,0,L|333:274,1,70,8|2,0:0|0:0,0:0:0:0:
361,359,67022,2,0,L|289:352,1,70,8|2,0:0|0:0,0:0:0:0:
207,355,67341,6,0,P|156:373|123:366,1,70,12|0,0:0|0:0,0:0:0:0:
62,340,67660,2,0,P|22:305|17:268,1,70,12|0,0:0|0:0,0:0:0:0:
9,206,67979,2,0,L|30:124,1,70,12|0,0:0|0:0,0:0:0:0:
69,65,68298,1,8,0:0:0:0:
145,30,68458,1,8,0:0:0:0:
145,30,68538,1,8,0:0:0:0:
145,30,68617,6,0,P|241:61|283:60,1,140,6|8,0:0|0:0,0:0:0:0:
360,38,69096,1,0,0:0:0:0:
427,88,69256,2,0,L|439:158,1,70,2|0,0:0|0:0,0:0:0:0:
354,159,69575,1,8,0:0:0:0:
287,210,69735,6,0,P|243:237|146:228,1,140,2|0,0:0|0:0,0:0:0:0:
79,203,70213,1,8,0:0:0:0:
26,268,70373,1,0,0:0:0:0:
102,301,70532,2,0,L|81:368,1,70,2|0,0:0|0:0,0:0:0:0:
165,367,70852,2,0,L|250:348,1,70,8|8,0:0|0:0,0:0:0:0:
264,342,71091,1,8,0:0:0:0:
264,342,71171,6,0,P|334:345|399:390,1,140,4|2,0:0|0:0,0:0:0:0:
441,314,71649,2,0,L|469:145,1,140,12|0,0:0|0:0,0:0:0:0:
385,158,72128,1,8,0:0:0:0:
302,176,72288,6,0,P|259:105|301:48,1,140,12|0,0:0|0:0,0:0:0:0:
361,35,72766,1,8,0:0:0:0:
439,64,72926,1,2,0:0:0:0:
440,148,73086,2,0,P|447:182|447:216,1,70,8|8,0:0|0:0,0:0:0:0:
365,315,73405,2,0,P|364:280|368:246,1,70,8|8,0:0|0:0,0:0:0:0:
316,179,73724,6,0,P|252:206|179:200,1,140,4|0,0:0|0:0,0:0:0:0:
156,121,74203,1,2,0:0:0:0:
114,48,74362,2,0,P|41:58|13:131,1,140,8|2,0:0|0:0,0:0:0:0:
56,183,74841,1,8,0:0:0:0:
13,255,75000,6,0,P|26:312|21:327,1,70,2|0,0:0|0:0,0:0:0:0:
122,337,75320,2,0,P|109:280|118:255,1,70,2|0,0:0|0:0,0:0:0:0:
168,208,75639,2,0,L|323:189,1,140,8|2,0:0|0:0,0:0:0:0:
383,156,76117,1,8,0:0:0:0:
455,199,76277,6,0,P|439:100|438:40,1,140,4|2,0:0|0:0,0:0:0:0:
353,68,76756,1,0,0:0:0:0:
269,63,76915,2,0,P|249:163|291:194,1,140,8|2,0:0|0:0,0:0:0:0:
344,216,77394,1,8,0:0:0:0:
421,266,77554,6,0,P|423:301|413:335,1,70,2|0,0:0|0:0,0:0:0:0:
330,346,77873,2,0,P|284:340|248:344,1,70,2|0,0:0|0:0,0:0:0:0:
186,302,78192,1,8,0:0:0:0:
214,136,78511,1,2,0:0:0:0:
136,102,78671,1,8,0:0:0:0:
214,136,78830,5,4,0:0:0:0:
348,35,79149,1,8,0:0:0:0:
362,202,79469,1,8,0:0:0:0:
269,62,79788,1,8,0:0:0:0:
206,217,80107,5,8,0:0:0:0:
344,121,80426,1,8,0:0:0:0:
201,32,80745,1,8,0:0:0:0:
280,179,81064,1,8,0:0:0:0:
112,170,81383,5,4,0:0:0:0:
364,203,82660,1,4,0:0:0:0:
158,240,83617,2,0,L|148:274,3,35,2|0|0|0,0:0|0:0|0:0|0:0,0:0:0:0:
140,308,83937,6,0,P|198:294|285:291,1,140,4|8,0:0|0:0,0:0:0:0:
356,319,84415,2,0,P|358:223|376:153,1,140,2|2,0:0|0:0,0:0:0:0:
354,96,84894,1,8,0:0:0:0:
277,131,85054,1,0,0:0:0:0:
205,87,85213,6,0,P|178:116|173:150,1,70,2|0,0:0|0:0,0:0:0:0:
95,178,85532,1,8,0:0:0:0:
21,136,85692,2,0,L|15:96,2,35,2|2|2,0:0|0:0|0:0,0:0:0:0:
32,219,86011,1,0,0:0:0:0:
93,276,86171,2,0,L|71:342,1,70,8|0,0:0|0:0,0:0:0:0:
155,342,86490,6,0,L|301:329,1,140,2|8,0:0|0:0,0:0:0:0:
291,245,86969,2,0,L|151:257,1,140,2|0,0:0|0:0,0:0:0:0:
142,174,87447,2,0,P|158:137|155:104,1,70,8|0,0:0|0:0,0:0:0:0:
187,30,87766,6,0,P|271:57|331:68,1,140,2|8,0:0|0:0,0:0:0:0:
365,138,88245,1,2,0:0:0:0:
448,147,88405,2,0,P|454:185|445:218,1,70,2|0,0:0|0:0,0:0:0:0:
409,290,88724,1,8,0:0:0:0:
328,265,88883,1,2,0:0:0:0:
249,234,89043,6,0,P|252:184|270:143,1,70,2|0,0:0|0:0,0:0:0:0:
294,89,89362,1,8,0:0:0:0:
215,59,89522,2,0,P|119:49|61:69,1,140,2|2,0:0|0:0,0:0:0:0:
45,137,90000,2,0,P|41:189|64:218,1,70,8|0,0:0|0:0,0:0:0:0:
107,264,90320,5,2,0:0:0:0:
107,264,90479,1,2,0:0:0:0:
188,241,90639,1,8,0:0:0:0:
188,241,90798,1,2,0:0:0:0:
255,187,90958,2,0,L|293:260,1,70
363,285,91277,2,0,L|392:197,1,70,8|0,0:0|0:0,0:0:0:0:
383,134,91596,6,0,L|455:125,1,70,12|0,0:0|0:0,0:0:0:0:
333,70,91915,2,0,L|249:72,1,70,12|0,0:0|0:0,0:0:0:0:
179,55,92235,5,10,0:0:0:0:
118,113,92394,1,0,0:0:0:0:
136,195,92554,1,10,0:0:0:0:
188,260,92713,2,0,L|188:304,2,35,0|0|8,0:0|0:0|0:0,0:0:0:0:
244,197,93032,5,8,0:0:0:0:
244,197,93192,1,8,0:0:0:0:
244,197,93352,2,0,L|329:180,1,70,8|0,0:0|0:0,0:0:0:0:
393,159,93671,2,0,L|401:118,2,35,8|0|4,0:0|0:0|0:0,0:0:0:0:
435,288,94149,6,0,P|358:292|317:308,1,105.000004005432,6|0,0:0|0:0,0:0:0:0:
261,335,94628,2,0,L|142:337,1,105.000004005432,2|2,0:0|0:0,0:0:0:0:
92,290,95107,1,0,0:0:0:0:
152,240,95266,6,0,P|191:182|206:146,1,105.000004005432,2|2,0:0|0:0,0:0:0:0:
182,73,95745,1,0,0:0:0:0:
244,24,95905,2,0,P|313:32|354:23,1,105.000004005432,2|2,0:0|0:0,0:0:0:0:
422,47,96383,1,0,0:0:0:0:
464,113,96543,1,2,0:0:0:0:
393,148,96703,6,0,L|374:256,1,105.000004005432,2|2,0:0|0:0,0:0:0:0:
301,278,97181,2,0,P|281:224|292:166,1,105.000004005432,2|2,0:0|0:0,0:0:0:0:
239,115,97660,2,0,L|178:131,1,52.5000020027161,0|2,0:0|0:0,0:0:0:0:
112,151,97979,6,0,P|133:205|130:266,1,105.000004005432,2|0,0:0|0:0,0:0:0:0:
166,323,98458,1,2,0:0:0:0:
240,295,98617,2,0,P|253:342|254:359,1,52.5000020027161,0|2,0:0|0:0,0:0:0:0:
330,363,98937,2,0,P|334:324|339:298,1,52.5000020027161,2|2,0:0|0:0,0:0:0:0:
315,234,99256,6,0,P|372:238|421:231,1,105.000004005432,4|2,0:0|0:0,0:0:0:0:
451,159,99735,1,0,0:0:0:0:
397,101,99894,2,0,L|388:33,1,52.5000020027161
311,42,100213,2,0,L|303:110,1,52.5000020027161,2|0,0:0|0:0,0:0:0:0:
227,111,100532,6,0,P|166:124|106:111,1,105.000004005432,2|2,0:0|0:0,0:0:0:0:
47,136,101011,2,0,P|30:187|30:252,1,105.000004005432,2|2,0:0|0:0,0:0:0:0:
92,282,101490,2,0,L|169:292,1,52.5000020027161,0|2,0:0|0:0,0:0:0:0:
218,262,101809,6,0,P|274:256|330:287,1,105.000004005432,2|0,0:0|0:0,0:0:0:0:
392,300,102288,2,0,L|419:178,1,105.000004005432,2|2,0:0|0:0,0:0:0:0:
376,129,102766,2,0,L|377:60,1,52.5000020027161,0|2,0:0|0:0,0:0:0:0:
444,29,103086,6,0,L|455:145,1,105.000004005432,2|0,0:0|0:0,0:0:0:0:
507,191,103564,2,0,L|514:264,2,52.5000020027161,0|2|0,0:0|0:0|0:0,0:0:0:0:
453,133,104043,2,0,L|378:144,1,52.5000020027161,2|8,0:0|0:0,0:0:0:0:
322,147,104362,5,4,0:0:0:0:
81,43,105160,2,0,L|206:52,1,105.000004005432,2|4,0:0|0:0,0:0:0:0:
144,202,105798,6,0,L|126:259,1,52.5000020027161,8|8,0:0|0:0,0:0:0:0:
202,279,106117,1,2,0:0:0:0:
267,235,106277,2,0,P|334:240|379:264,1,105.000004005432,0|8,0:0|0:0,0:0:0:0:
421,313,106756,1,0,0:0:0:0:
356,358,106915,6,0,P|282:371|241:359,1,105.000004005432,2|8,0:0|0:0,0:0:0:0:
201,305,107394,2,0,P|157:296|85:301,1,105.000004005432,2|2,0:0|0:0,0:0:0:0:
37,246,107873,2,0,L|52:192,1,52.5000020027161,8|2,0:0|0:0,0:0:0:0:
72,119,108192,6,0,P|134:130|194:106,1,105.000004005432,0|8,0:0|0:0,0:0:0:0:
234,68,108671,2,0,L|360:59,1,105.000004005432,2|2,0:0|0:0,0:0:0:0:
413,36,109149,2,0,L|472:42,1,52.5000020027161,8|0,0:0|0:0,0:0:0:0:
475,120,109469,6,0,P|483:197|454:224,1,105.000004005432,0|8,0:0|0:0,0:0:0:0:
394,238,109947,2,0,L|387:296,1,52.5000020027161
311,281,110266,2,0,L|320:348,2,52.5000020027161,0|8|0,0:0|0:0|0:0,0:0:0:0:
243,236,110745,6,0,P|167:211|123:215,1,105.000004005432,2|8,0:0|0:0,0:0:0:0:
89,269,111224,1,0,0:0:0:0:
17,236,111383,2,0,L|32:167,1,52.5000020027161,2|0,0:0|0:0,0:0:0:0:
67,115,111703,2,0,L|60:48,1,52.5000020027161,8|2,0:0|0:0,0:0:0:0:
138,46,112022,5,2,0:0:0:0:
214,63,112181,1,2,0:0:0:0:
285,29,112341,2,0,L|295:97,1,52.5000020027161,8|0,0:0|0:0,0:0:0:0:
342,142,112660,5,2,0:0:0:0:
420,142,112820,1,0,0:0:0:0:
464,206,112979,2,0,L|454:269,1,52.5000020027161,8|0,0:0|0:0,0:0:0:0:
392,313,113298,5,2,0:0:0:0:
392,313,113458,1,0,0:0:0:0:
329,257,113617,2,0,L|245:245,1,70,10|0,0:0|0:0,0:0:0:0:
202,308,113937,1,2,0:0:0:0:
202,308,114096,1,0,0:0:0:0:
151,240,114256,2,0,P|156:198|143:152,1,70,10|0,0:0|0:0,0:0:0:0:
75,132,114575,5,6,0:0:0:0:
14,190,114735,1,0,0:0:0:0:
12,273,114894,1,8,0:0:0:0:
81,320,115054,1,0,0:0:0:0:
162,301,115213,2,0,P|232:281|297:327,1,140,2|8,0:0|0:0,0:0:0:0:
358,354,115692,6,0,P|449:339|472:282,1,140,2|0,0:0|0:0,0:0:0:0:
467,219,116171,2,0,L|477:149,2,70,8|0|2,0:0|0:0|0:0,0:0:0:0:
337,112,116809,1,8,0:0:0:0:
337,112,116969,1,0,0:0:0:0:
275,169,117128,6,0,P|226:180|141:145,1,140,2|8,0:0|0:0,0:0:0:0:
113,70,117607,1,2,0:0:0:0:
47,122,117766,2,0,B|18:270,1,140,2|8,0:0|0:0,0:0:0:0:
100,283,118245,1,10,0:0:0:0:
180,257,118405,6,0,P|197:302|188:337,1,70,0|2,0:0|0:0,0:0:0:0:
276,340,118724,2,0,L|345:328,1,70,8|0,0:0|0:0,0:0:0:0:
406,270,119043,1,0,0:0:0:0:
477,314,119203,1,2,0:0:0:0:
483,230,119362,1,8,0:0:0:0:
389,90,119681,5,12,0:0:0:0:
389,90,120000,1,12,0:0:0:0:
239,168,120320,5,2,0:0:0:0:
322,175,120479,1,8,0:0:0:0:
347,255,120639,1,2,0:0:0:0:
291,317,120798,1,8,0:0:0:0:
207,309,120958,6,0,P|153:303|61:334,1,140,12|2,0:0|0:0,0:0:0:0:
26,256,121437,2,0,P|9:179|38:120,1,140,12|0,0:0|0:0,0:0:0:0:
117,126,121915,2,0,L|117:48,1,70,12|0,0:0|0:0,0:0:0:0:
187,166,122235,6,0,L|178:250,2,70,0|8|8,0:0|0:0|0:0,0:0:0:0:
248,108,122713,1,0,0:0:0:0:
332,91,122873,1,10,0:0:0:0:
332,91,123032,1,8,0:0:0:0:
413,113,123192,1,10,0:0:0:0:
413,113,123352,1,8,0:0:0:0:
467,176,123511,6,0,P|454:257|407:288,1,140,4|2,0:0|0:0,0:0:0:0:
327,268,123990,2,0,P|297:192|327:117,1,140,12|0,0:0|0:0,0:0:0:0:
341,59,124469,1,8,0:0:0:0:
258,45,124628,1,8,0:0:0:0:
181,65,124788,6,0,P|124:93|68:82,1,105.000004005432,6|0,0:0|0:0,0:0:0:0:
19,133,125266,1,2,0:0:0:0:
33,210,125426,2,0,L|71:326,1,105.000004005432,2|2,0:0|0:0,0:0:0:0:
137,342,125905,6,0,P|206:331|264:341,1,105.000004005432,2|0,0:0|0:0,0:0:0:0:
310,299,126383,2,0,L|330:240,1,52.5000020027161,2|2,0:0|0:0,0:0:0:0:
301,173,126703,2,0,P|291:144|296:118,1,52.5000020027161,2|0,0:0|0:0,0:0:0:0:
341,59,127022,1,0,0:0:0:0:
418,70,127181,6,0,P|443:123|437:177,1,105.000004005432,2|0,0:0|0:0,0:0:0:0:
379,218,127660,1,2,0:0:0:0:
300,223,127820,2,0,P|222:238|182:260,1,105.000004005432,2|0,0:0|0:0,0:0:0:0:
121,252,128298,1,2,0:0:0:0:
54,210,128458,6,0,P|53:150|34:101,1,105.000004005432,2|0,0:0|0:0,0:0:0:0:
96,54,128937,2,0,L|159:47,1,52.5000020027161,2|2,0:0|0:0,0:0:0:0:
212,93,129256,2,0,L|284:104,2,52.5000020027161,0|0|8,0:0|0:0|0:0,0:0:0:0:
284,322,129894,6,0,P|303:259|295:236,1,70,8|0,0:0|0:0,0:0:0:0:
263,182,130213,2,0,L|178:189,1,70,8|0,0:0|0:0,0:0:0:0:
125,138,130532,2,0,P|135:77|117:45,1,70,8|0,0:0|0:0,0:0:0:0:
60,27,130852,2,0,P|23:60|10:97,1,70,8|0,0:0|0:0,0:0:0:0:
35,159,131171,6,0,L|20:308,1,140,2|8,1:2|0:2,0:0:0:0:
100,322,131649,2,0,P|179:306|241:329,1,140,8|2,0:0|0:0,0:0:0:0:
316,341,132128,2,0,L|306:260,1,70,8|0,0:2|0:0,0:0:0:0:
293,188,132447,5,4,0:0:0:0:
293,188,132926,1,0,0:0:0:0:
365,145,133086,1,4,0:0:0:0:
365,145,133564,1,0,0:0:0:0:
404,219,133724,5,4,0:0:0:0:
404,219,134043,2,0,L|387:297,1,70
390,371,134362,1,6,0:0:0:0:
390,371,134681,2,0,L|313:364,1,70
244,328,135000,6,0,B|96:303,1,140,6|8,0:0|0:0,0:0:0:0:
66,230,135479,1,0,0:0:0:0:
94,150,135639,2,0,P|102:109|98:75,1,70,2|0,0:0|0:0,0:0:0:0:
81,0,135958,1,8,0:0:0:0:
162,22,136117,6,0,P|229:77|239:132,1,140,2|0,0:0|0:0,0:0:0:0:
323,125,136596,2,0,L|416:108,1,70,8|0,0:0|0:0,0:0:0:0:
461,161,136915,2,0,L|512:208,1,70,2|0,0:0|0:0,0:0:0:0:
471,281,137235,1,8,0:0:0:0:
387,279,137394,1,0,0:0:0:0:
338,348,137554,6,0,P|248:362|179:351,1,140,2|8,0:0|0:0,0:0:0:0:
132,305,138032,2,0,L|119:247,2,35,2|8|0,0:0|0:0|0:0,0:0:0:0:
58,346,138352,1,2,0:0:0:0:
40,264,138511,1,8,0:0:0:0:
81,190,138671,6,0,P|109:128|94:54,1,140,2|0,0:0|0:0,0:0:0:0:
178,37,139149,2,0,P|192:68|194:103,1,70,8|2,0:0|0:0,0:0:0:0:
182,186,139469,1,2,0:0:0:0:
257,150,139628,1,0,0:0:0:0:
341,147,139788,1,8,0:0:0:0:
421,172,139947,1,8,0:0:0:0:
463,244,140107,6,0,P|485:318|481:398,1,140,4|8,0:0|0:0,0:0:0:0:
402,359,140586,1,2,0:0:0:0:
323,330,140745,1,0,0:0:0:0:
258,276,140905,2,0,P|249:235|251:191,1,70,2|8,0:0|0:0,0:0:0:0:
245,122,141224,1,8,0:0:0:0:
245,122,141304,1,8,0:0:0:0:
245,122,141383,6,0,L|97:142,1,140,2|8,0:0|0:0,0:0:0:0:
47,200,141862,2,0,P|65:274|149:286,1,140,2|0,0:0|0:0,0:0:0:0:
184,241,142341,1,8,0:0:0:0:
244,299,142500,1,0,0:0:0:0:
327,296,142660,6,0,L|314:374,1,70,12|2,0:0|0:0,0:0:0:0:
386,231,142979,2,0,L|464:225,1,70,8|2,0:0|0:0,0:0:0:0:
322,177,143298,2,0,L|326:98,1,70,8|2,0:0|0:0,0:0:0:0:
253,234,143617,2,0,L|181:241,1,70,8|2,0:0|0:0,0:0:0:0:
132,165,143937,6,0,P|81:147|48:154,1,70,12|0,0:0|0:0,0:0:0:0:
83,226,144256,2,0,P|43:261|38:298,1,70,12|0,0:0|0:0,0:0:0:0:
117,304,144575,2,0,P|110:337|122:370,1,70,12|0,0:0|0:0,0:0:0:0:
208,357,144894,1,8,0:0:0:0:
270,300,145054,1,8,0:0:0:0:
270,300,145133,1,8,0:0:0:0:
270,300,145213,6,0,P|366:269|408:270,1,140,6|8,0:0|0:0,0:0:0:0:
472,319,145692,1,0,0:0:0:0:
494,237,145852,2,0,P|505:202|506:167,1,70,2|0,0:0|0:0,0:0:0:0:
446,109,146171,1,8,0:0:0:0:
369,73,146330,6,0,P|325:46|239:48,1,140,2|0,0:0|0:0,0:0:0:0:
164,85,146809,1,8,0:0:0:0:
84,56,146969,1,0,0:0:0:0:
75,139,147128,2,0,P|74:168|66:210,1,70,2|0,0:0|0:0,0:0:0:0:
16,276,147447,2,0,P|13:313|19:362,1,70,8|8,0:0|0:0,0:0:0:0:
56,357,147687,1,8,0:0:0:0:
56,357,147766,6,0,P|128:347|199:342,1,140,4|2,0:0|0:0,0:0:0:0:
276,362,148245,2,0,L|253:223,1,140,12|0,0:0|0:0,0:0:0:0:
296,151,148724,1,8,0:0:0:0:
380,150,148883,6,0,P|421:215|379:278,1,140,12|0,0:0|0:0,0:0:0:0:
315,285,149362,1,8,0:0:0:0:
233,305,149522,1,0,0:0:0:0:
149,293,149681,2,0,P|156:259|156:225,1,70,8|8,0:0|0:0,0:0:0:0:
80,108,150000,2,0,P|79:143|83:177,1,70,8|8,0:0|0:0,0:0:0:0:
165,140,150320,5,4,0:0:0:0:
165,140,150639,2,0,L|185:58,2,70,0|0|8,0:0|0:0|0:0,0:0:0:0:
239,178,151117,1,0,0:0:0:0:
318,151,151277,1,0,0:0:0:0:
400,133,151437,1,8,0:0:0:0:
455,195,151596,6,0,L|466:272,1,70,2|8,0:0|0:0,0:0:0:0:
415,332,151915,2,0,P|348:356|278:318,1,140,8|8,0:0|0:0,0:0:0:0:
218,281,152394,1,8,0:0:0:0:
148,233,152554,1,8,0:0:0:0:
69,262,152713,1,8,0:0:0:0:
15,197,152873,6,0,P|26:117|42:57,2,140,4|8|2,0:0|0:0|0:0,0:0:0:0:
97,180,153671,2,0,L|180:162,1,70,2|8,0:0|0:0,0:0:0:0:
241,128,153990,2,0,L|319:138,1,70,2|0,0:0|0:0,0:0:0:0:
384,177,154309,5,2,0:0:0:0:
342,250,154469,2,0,P|329:321|383:393,1,140,8|2,0:0|0:0,0:0:0:0:
442,358,154947,1,2,0:0:0:0:
507,305,155107,1,8,0:0:0:0:
494,222,155266,1,2,0:0:0:0:
424,174,155426,6,0,P|417:127|428:86,1,70,2|2,0:0|0:0,0:0:0:0:
347,63,155745,2,0,P|264:64|212:14,1,140,8|2,0:0|0:0,0:0:0:0:
138,38,156224,1,2,0:0:0:0:
83,101,156383,1,8,0:0:0:0:
85,185,156543,1,2,0:0:0:0:
153,233,156703,6,0,L|305:220,1,140,2|8,0:0|0:0,0:0:0:0:
374,236,157181,1,2,0:0:0:0:
374,236,157261,1,0,0:0:0:0:
374,236,157341,2,0,P|393:194|391:146,1,70,2|2,0:0|0:0,0:0:0:0:
334,112,157660,2,0,P|270:130|252:148,1,70,8|2,0:0|0:0,0:0:0:0:
187,155,157979,6,0,L|181:6,1,140,4|8,0:0|0:0,0:0:0:0:
102,21,158458,2,0,L|82:169,1,140,2|2,0:0|0:0,0:0:0:0:
103,241,158937,2,0,P|107:273|101:335,1,70,8|0,0:0|0:0,0:0:0:0:
188,294,159256,6,0,L|344:261,1,140,2|8,0:0|0:0,0:0:0:0:
289,188,159735,2,0,L|444:159,1,140,2|0,0:0|0:0,0:0:0:0:
475,230,160213,1,8,0:0:0:0:
444,308,160373,1,2,0:0:0:0:
364,333,160532,6,0,P|356:299|362:249,2,70,4|2|0,0:0|0:0|0:0,0:0:0:0:
280,324,161011,1,12,0:0:0:0:
280,324,161171,2,0,L|191:321,1,70,0|8,0:0|0:0,0:0:0:0:
132,288,161490,6,0,L|37:277,2,70
193,230,161969,1,12,0:0:0:0:
193,230,162128,2,0,P|198:185|189:143,1,70,0|8,0:0|0:0,0:0:0:0:
125,113,162447,5,2,0:0:0:0:
163,38,162607,2,0,L|249:32,2,70,8|8|8,0:0|0:0|0:0,0:0:0:0:
55,68,163086,6,0,P|48:144|59:160,1,70,4|0,0:0|0:0,0:0:0:0:
73,213,163405,2,0,P|150:193|240:179,1,140,8|0,0:0|0:0,0:0:0:0:
289,162,163883,2,0,P|324:162|359:169,1,70,2|8,0:0|0:0,0:0:0:0:
415,232,164203,1,2,0:0:0:0:
498,241,164362,6,0,P|511:164|511:92,1,140,2|8,0:0|0:0,0:0:0:0:
427,94,164841,1,2,0:0:0:0:
347,68,165000,1,0,0:0:0:0:
263,79,165160,2,0,L|240:172,2,70,0|8|0,0:0|0:0|0:0,0:0:0:0:
168,177,165639,6,0,P|229:225|302:213,1,140,2|8,0:0|0:0,0:0:0:0:
370,229,166117,1,8,0:0:0:0:
370,229,166197,1,8,0:0:0:0:
370,229,166277,2,0,L|371:305,1,70,10|8,0:0|0:0,0:0:0:0:
302,347,166596,1,8,0:0:0:0:
219,331,166756,6,0,P|148:322|78:328,1,140,4|2,0:0|0:0,0:0:0:0:
46,250,167235,2,0,L|76:170,1,70,8|8,0:0|0:0,0:0:0:0:
154,174,167554,2,0,L|144:250,1,70,2|0,0:0|0:0,0:0:0:0:
248,204,167873,2,0,L|227:123,1,70,8|0,0:0|0:0,0:0:0:0:
213,53,168192,6,0,L|296:36,1,70,4|0,0:2|0:0,0:0:0:0:
364,52,168511,1,8,0:0:0:0:
418,115,168670,6,0,L|413:196,1,70,2|0,0:2|0:0,0:0:0:0:
462,253,168989,1,8,0:0:0:0:
412,320,169149,6,0,L|332:315,1,70,2|0,0:2|0:0,0:0:0:0:
259,329,169468,1,8,0:0:0:0:
175,317,169628,6,0,L|94:312,1,70,2|0,0:2|0:0,0:0:0:0:
20,315,169947,1,8,0:0:0:0:
39,233,170106,6,0,P|60:195|54:158,1,70,8|8,0:2|0:0,0:0:0:0:
39,86,170426,6,0,L|114:66,1,70,4|0,0:2|0:0,0:0:0:0:
106,67,170745,1,8,0:0:0:0:
182,101,170904,6,0,L|261:122,1,70,2|0,0:2|0:0,0:0:0:0:
249,118,171223,1,8,0:0:0:0:
333,118,171383,6,0,L|410:96,1,70,2|0,0:2|0:0,0:0:0:0:
400,98,171702,1,8,0:0:0:0:
462,153,171862,6,0,L|487:240,1,70,2|0,0:2|0:0,0:0:0:0:
481,220,172181,1,8,0:0:0:0:
424,282,172340,5,8,0:2:0:0:
424,282,172500,1,8,0:2:0:0:
345,312,172660,6,0,L|252:296,1,70,4|8,0:0|0:0,0:0:0:0:
193,319,172979,1,8,0:0:0:0:
119,279,173138,2,0,P|122:249|111:207,2,70,4|8|8,0:0|0:0|0:0,0:0:0:0:
192,238,173617,5,4,0:0:0:0:
271,210,173777,1,8,0:0:0:0:
271,210,173936,1,8,0:0:0:0:
354,216,174096,6,0,P|341:167|345:120,2,70,4|8|8,0:0|0:0|0:0,0:0:0:0:
437,220,174574,5,4,0:0:0:0:
494,158,174734,1,8,0:0:0:0:
494,158,174894,1,8,0:0:0:0:
429,104,175053,5,4,0:0:0:0:
267,57,175372,1,8,0:0:0:0:
199,106,175532,2,0,L|188:186,2,70,8|8|8,0:0|0:0|0:0,0:0:0:0:
269,152,176011,2,0,L|275:226,2,70,8|8|8,0:0|0:0|0:0,0:0:0:0:
344,115,176489,6,0,L|444:106,1,70,8|8,0:0|0:0,0:0:0:0:
488,196,176808,2,0,L|386:194,1,70,8|8,0:0|0:0,0:0:0:0:
295,271,177128,2,0,L|395:262,1,70,8|8,0:0|0:0,0:0:0:0:
439,352,177447,2,0,L|337:350,1,70,8|8,0:0|0:0,0:0:0:0:
275,361,177766,5,4,0:0:0:0:
401,276,187979,6,0,L|413:217,1,52.5000020027161,4|0,0:0|0:0,0:0:0:0:
449,145,188298,2,0,L|343:157,1,105.000004005432,2|2,0:0|0:0,0:0:0:0:
263,160,188777,1,0,0:0:0:0:
185,175,188936,1,2,0:0:0:0:
84,220,189096,6,0,P|113:146|104:104,1,105.000004005432,2|0,0:0|0:0,0:0:0:0:
121,46,189574,1,2,0:0:0:0:
121,46,189734,2,0,P|208:44|241:49,1,105.000004005432,2|0,0:0|0:0,0:0:0:0:
277,106,190213,1,2,0:0:0:0:
345,65,190372,1,0,0:0:0:0:
420,130,190532,6,0,P|399:178|383:199,1,70,4|0,0:0|0:0,0:0:0:0:
306,225,190851,2,0,P|258:204|236:183,1,70,8|0,0:0|0:0,0:0:0:0:
159,175,191170,2,0,L|139:247,1,70,4|0,0:0|0:0,0:0:0:0:
45,270,191489,2,0,L|63:202,1,70,8|0,0:0|0:0,0:0:0:0:
89,122,191808,6,0,L|239:112,1,140,4|8,0:0|0:0,0:0:0:0:
309,90,192287,1,8,0:0:0:0:
372,144,192447,2,0,L|359:228,1,70,8|8,0:0|0:0,0:0:0:0:
366,297,192766,1,8,0:3:0:0:
366,297,192925,1,8,0:3:0:0:
449,306,193085,6,0,L|459:234,1,70,4|0,0:0|0:0,0:0:0:0:
473,153,193404,1,8,0:0:0:0:
451,71,193564,2,0,P|342:77|286:75,1,140,2|2,0:0|0:0,0:0:0:0:
233,46,194042,1,8,0:0:0:0:
181,112,194202,6,0,P|206:142|206:243,1,140,2|0,0:0|0:0,0:0:0:0:
173,328,194681,2,0,L|311:292,1,140,8|2,0:0|0:0,0:0:0:0:
382,252,195160,1,0,0:0:0:0:
309,210,195319,2,0,P|295:173|303:144,1,70,8|0,0:0|0:0,0:0:0:0:
274,65,195638,6,0,L|200:66,1,70,10|0,0:0|0:0,0:0:0:0:
126,97,195957,2,0,L|98:165,1,70,10|0,0:0|0:0,0:0:0:0:
71,241,196277,2,0,L|151:237,1,70,10|0,0:0|0:0,0:0:0:0:
224,230,196596,2,0,L|179:153,1,70,10|0,0:0|0:0,0:0:0:0:
256,192,196915,12,2,198191,0:0:0:0:
127,111,199468,5,6,0:0:0:0:
347,150,200745,1,6,0:0:0:0:
94,97,202021,6,0,L|73:183,1,70,12|0,0:0|0:0,0:0:0:0:
40,240,202340,1,2,0:0:0:0:
101,297,202500,2,0,L|258:301,1,140,12|2,0:0|0:0,0:0:0:0:
313,258,202979,1,8,0:0:0:0:
387,296,203138,6,0,P|471:261|485:200,1,140,4|0,0:0|0:0,0:0:0:0:
474,136,203617,2,0,P|458:91|438:65,1,70,8|0,0:0|0:0,0:0:0:0:
366,42,203936,2,0,P|342:73|331:104,1,70,2|0,0:0|0:0,0:0:0:0:
297,179,204255,1,8,0:0:0:0:
338,252,204415,1,8,0:0:0:0:
289,313,204574,6,0,P|208:332|163:333,1,105.000004005432,4|2,0:0|0:0,0:0:0:0:
174,235,205053,2,0,P|250:217|301:216,1,105.000004005432,2|0,0:0|0:0,0:0:0:0:
361,260,205532,1,2,0:0:0:0:
495,83,205851,6,0,L|483:207,1,105.000004005432,4|2,0:0|0:0,0:0:0:0:
477,266,206330,2,0,P|408:286|361:277,1,105.000004005432,2|2,0:0|0:0,0:0:0:0:
304,250,206808,1,2,0:0:0:0:
118,349,207128,6,0,L|143:275,1,70,12|0,0:0|0:0,0:0:0:0:
69,237,207447,1,8,0:0:0:0:
124,174,207606,1,8,0:0:0:0:
207,164,207766,2,0,L|188:71,1,70,8|8,0:0|0:0,0:0:0:0:
287,198,208085,1,8,0:0:0:0:
365,167,208245,1,8,0:0:0:0:
397,89,208404,5,2,0:0:0:0:
264,288,208723,1,2,0:0:0:0:
292,52,209042,1,2,0:0:0:0:
342,199,209362,1,2,0:0:0:0:
145,65,209681,6,0,P|107:109|94:196,1,140,6|8,0:0|0:0,0:0:0:0:
111,269,210160,1,0,0:0:0:0:
194,265,210319,2,0,L|265:247,1,70,0|2,0:0|0:0,0:0:0:0:
343,269,210638,1,8,0:0:0:0:
426,275,210798,6,0,P|447:202|421:130,1,140,2|0,0:0|0:0,0:0:0:0:
389,68,211277,2,0,L|307:93,1,70,8|2,0:0|0:0,0:0:0:0:
238,94,211596,1,2,0:0:0:0:
154,88,211755,1,0,0:0:0:0:
88,143,211915,2,0,P|90:182|83:218,1,70,8|0,0:0|0:0,0:0:0:0:
132,281,212234,6,0,P|202:314|265:302,1,140,12|2,0:0|0:0,0:0:0:0:
333,261,212713,2,0,L|417:237,1,70,12|2,0:0|0:0,0:0:0:0:
470,195,213032,1,2,0:0:0:0:
425,124,213191,1,8,0:0:0:0:
425,124,213351,1,8,0:0:0:0:
421,39,213511,6,0,P|336:68|272:53,1,140,4|8,0:0|0:0,0:0:0:0:
205,47,213989,1,0,0:0:0:0:
125,78,214149,2,0,P|117:117|110:157,1,70,8|8,0:3|0:3,0:0:0:0:
183,222,214468,2,0,P|190:186|194:144,1,70,4|4,0:3|0:3,0:0:0:0:
137,301,214787,6,0,P|194:359|268:355,1,140,4|8,0:0|0:0,0:0:0:0:
322,320,215266,1,2,0:0:0:0:
322,320,215346,1,8,0:0:0:0:
322,320,215425,2,0,L|335:247,1,70,0|0,0:0|0:0,0:0:0:0:
281,185,215745,1,8,0:0:0:0:
352,141,215904,1,0,0:0:0:0:
432,166,216064,6,0,P|477:234|475:290,1,140,4|8,0:0|0:0,0:0:0:0:
391,300,216542,1,0,0:0:0:0:
328,356,216702,2,0,L|247:334,1,70,2|0,3:2|3:0,0:0:0:0:
176,340,217021,1,8,3:0:0:0:
216,266,217181,1,0,3:0:0:0:
132,264,217340,6,0,P|144:198|152:100,1,140,6|8,0:0|0:0,0:0:0:0:
145,41,217819,1,2,0:0:0:0:
228,27,217979,2,0,L|305:15,1,70,2|0,0:0|0:0,0:0:0:0:
357,74,218298,1,8,0:0:0:0:
415,134,218457,6,0,P|368:168|279:157,1,140,2|0,0:0|0:0,0:0:0:0:
215,121,218936,2,0,P|164:127|128:120,1,70,8|2,0:0|0:0,0:0:0:0:
80,178,219255,2,0,P|92:215|92:271,1,70,2|0,0:0|0:0,0:0:0:0:
24,291,219574,2,0,P|12:342|9:381,1,70,8|8,0:0|0:0,0:0:0:0:
94,352,219894,6,0,L|251:337,1,140,4|2,0:0|0:0,0:0:0:0:
316,344,220372,1,0,0:0:0:0:
398,327,220532,2,0,P|405:244|420:180,1,140,12|8,0:0|0:0,0:0:0:0:
393,108,221011,1,8,0:0:0:0:
494,228,221170,1,4,0:0:0:0:
256,192,221250,12,8,223085,0:0:0:0:
136,197,223723,6,0,P|146:223|143:282,1,70,4|0,0:0|0:0,0:0:0:0:
205,325,224042,2,0,L|241:249,1,70
294,202,224362,2,0,P|367:189|440:182,1,140,8|2,0:0|0:0,0:0:0:0:
494,240,224840,1,8,0:0:0:0:
415,271,225000,6,0,P|405:311|412:353,1,70,2|0,0:0|0:0,0:0:0:0:
312,381,225319,2,0,P|325:324|322:304,1,70,2|0,0:0|0:0,0:0:0:0:
270,247,225638,2,0,L|123:239,1,140,8|2,0:0|0:0,0:0:0:0:
68,295,226117,1,8,0:0:0:0:
6,236,226277,6,0,L|32:72,1,140,4|2,0:0|0:0,0:0:0:0:
100,54,226755,1,0,0:0:0:0:
183,51,226915,2,0,P|222:108|198:180,1,140,8|2,0:0|0:0,0:0:0:0:
133,217,227394,1,8,0:0:0:0:
182,284,227553,6,0,P|221:286|257:277,1,70,2|0,0:0|0:0,0:0:0:0:
321,234,227872,2,0,P|367:228|403:234,1,70,2|0,0:0|0:0,0:0:0:0:
456,283,228191,1,8,0:0:0:0:
369,139,228511,1,2,0:0:0:0:
434,85,228670,1,8,0:0:0:0:
375,25,228830,6,0,L|304:15,1,70,4|0,0:0|0:0,0:0:0:0:
221,18,229149,2,0,L|216:96,1,70,8|0,0:0|0:0,0:0:0:0:
234,170,229468,2,0,L|133:153,1,70,8|0,0:0|0:0,0:0:0:0:
106,218,229787,2,0,L|85:294,1,70,8|0,0:0|0:0,0:0:0:0:
164,318,230106,6,0,L|255:326,1,70,8|0,0:0|0:0,0:0:0:0:
299,271,230425,2,0,L|318:197,1,70,8|0,0:0|0:0,0:0:0:0:
324,119,230745,2,0,L|394:122,1,70,8|0,0:0|0:0,0:0:0:0:
473,93,231064,2,0,L|482:17,1,70,8|0,0:0|0:0,0:0:0:0:
397,26,231383,5,2,0:0:0:0:
175,183,232698,1,2,0:0:0:0:
408,287,234013,1,2,0:0:0:0:
256,192,234095,12,8,236274,0:0:0:0:
420,307,236593,6,0,P|442:206|459:152,1,140,6|8,0:0|0:0,0:0:0:0:
413,96,237071,2,0,L|341:110,1,70,2|0,0:0|0:0,0:0:0:0:
287,171,237390,1,2,0:0:0:0:
203,157,237550,2,0,P|206:118|223:86,1,70,8|2,0:0|0:0,0:0:0:0:
140,60,237869,6,0,P|75:17|3:29,1,140,2|8,0:0|0:0,0:0:0:0:
0,105,238348,1,2,0:0:0:0:
17,186,238507,2,0,P|31:220|28:260,1,70,2|0,0:0|0:0,0:0:0:0:
59,326,238827,1,8,0:0:0:0:
141,314,238986,1,0,0:0:0:0:
210,361,239146,6,0,L|256:210,1,140,2|8,0:0|0:0,0:0:0:0:
237,144,239624,2,0,P|248:198|348:221,1,140,2|0,0:0|0:0,0:0:0:0:
401,208,240103,2,0,L|432:128,1,70,8|2,0:0|0:0,0:0:0:0:
400,62,240422,6,0,L|316:58,1,70,2|0,0:0|0:0,0:0:0:0:
252,26,240741,2,0,P|177:13|111:39,1,140,8|2,0:0|0:0,0:0:0:0:
74,106,241220,2,0,L|57:188,2,70,2|8|0,0:0|0:0|0:0,0:0:0:0:
145,150,241699,6,0,L|237:131,1,70,2|0,0:0|0:0,0:0:0:0:
291,103,242018,1,8,0:0:0:0:
359,152,242178,2,0,P|359:227|401:300,1,140,2|2,0:0|0:0,0:0:0:0:
397,367,242656,2,0,P|363:360|324:360,1,70,8|0,0:0|0:0,0:0:0:0:
247,333,242975,5,2,0:0:0:0:
167,303,243135,1,2,0:0:0:0:
236,255,243295,1,8,0:0:0:0:
158,223,243454,1,2,0:0:0:0:
231,182,243614,2,0,L|236:107,1,70,2|0,0:0|0:0,0:0:0:0:
155,136,243933,2,0,L|151:58,1,70,8|0,0:0|0:0,0:0:0:0:
230,36,244252,6,0,L|318:37,1,70,12|2,0:0|0:0,0:0:0:0:
406,113,244571,2,0,L|329:112,1,70,8|2,0:0|0:0,0:0:0:0:
253,158,244890,2,0,L|243:230,1,70,8|2,0:0|0:0,0:0:0:0:
328,288,245210,2,0,L|339:212,1,70,8|2,0:0|0:0,0:0:0:0:
253,158,245529,5,8,0:0:0:0:
253,158,245688,1,8,0:0:0:0:
169,167,245848,1,8,0:0:0:0:
169,167,246007,1,8,0:0:0:0:
84,172,246167,6,0,L|12:163,2,70,8|8|8,0:0|0:0|0:0,0:0:0:0:
211,244,246646,1,4,0:0:0:0:
256,192,246725,12,0,253188,0:0:0:0:
