osu file format v14

[General]
AudioFilename: Dear brave.mp3
AudioLeadIn: 0
PreviewTime: 198112
Countdown: 0
SampleSet: Soft
StackLeniency: 0.7
Mode: 0
LetterboxInBreaks: 0
WidescreenStoryboard: 1

[Editor]
DistanceSpacing: 1
BeatDivisor: 4
GridSize: 4
TimelineZoom: 2.899999

[Metadata]
Title:Dear Brave
TitleUnicode:ディアブレイブ
Artist:Kano
ArtistUnicode:鹿乃
Creator:Fycho
Version:Easy
Source:ヘヴィーオブジェクト
Tags:Heavy Object ending full ver thzz cah-m
BeatmapID:942074
BeatmapSetID:390668

[Difficulty]
HPDrainRate:2
CircleSize:3
OverallDifficulty:2
ApproachRate:3
SliderMultiplier:0.9
SliderTickRate:1

[Events]
//Background and Video events
0,0,"DB.jpg",0,0
Video,-400,"3178815.avi"
//Break Periods
2,86690,92709
2,155626,161646
2,177966,186539
//Storyboard Layer 0 (Background)
//Storyboard Layer 1 (Fail)
//Storyboard Layer 2 (Pass)
//Storyboard Layer 3 (Foreground)
//Storyboard Sound Samples

[TimingPoints]
2235,319.148936170213,4,2,1,50,1,0
7181,-100,4,2,1,70,0,0
17554,-100,4,2,1,50,0,0
37979,-100,4,2,1,60,0,0
43086,-100,4,2,1,50,0,0
48192,-100,4,2,1,70,0,0
55852,-100,4,2,1,50,0,0
56171,-100,4,2,1,55,0,0
56490,-100,4,2,1,60,0,0
56809,-100,4,2,1,65,0,0
57128,-100,4,2,1,70,0,0
58405,-100,4,2,1,80,0,1
73724,-100,4,2,1,70,0,1
81383,-100,4,2,1,50,0,0
83937,-100,4,2,1,70,0,0
94149,-100,4,2,1,50,0,0
114575,-100,4,2,1,70,0,0
124788,-100,4,2,1,50,0,0
135000,-100,4,2,1,90,0,1
152873,-100,4,2,1,80,0,0
168192,319.148936170213,7,2,1,50,1,0
170106,-100,7,2,1,60,0,0
172340,-100,7,2,1,70,0,0
172660,319.148936170213,4,2,1,80,1,0
175372,-100,4,2,1,50,0,0
176170,-100,4,2,1,60,0,0
176489,-100,4,2,1,70,0,0
177128,-100,4,2,1,75,0,0
177447,-100,4,2,1,80,0,0
177925,-100,4,2,1,30,0,0
187979,-100,4,2,1,50,0,0
190532,-100,4,2,1,70,0,0
199468,-100,4,2,1,50,0,0
202021,-100,4,2,1,70,0,0
204574,-100,4,2,1,50,0,0
205851,-100,4,2,1,65,0,0
207128,-100,4,2,1,75,0,0
208404,-100,4,2,1,40,0,0
209042,-100,4,2,1,50,0,0
209681,-100,4,2,1,90,0,1
221330,-100,4,2,1,45,0,1
223723,-100,4,2,1,70,0,1
231383,328.767123287671,4,2,1,50,1,0
236274,319.148936170213,4,2,1,50,1,0
236593,319.148936170213,4,2,1,70,1,0
246725,-100,4,2,1,60,0,0
248082,-100,4,2,1,45,0,0
249358,-100,4,2,1,30,0,0
250635,-100,4,2,1,15,0,0
251912,-100,4,2,1,5,0,0

[Colours]
Combo1 : 68,64,145
Combo2 : 254,73,132
Combo3 : 151,198,255
Combo4 : 52,221,38

[HitObjects]
20,280,7181,6,0,P|96:276|156:276,1,135,4|8,0:0|0:0,0:0:0:0:
239,246,7979,2,0,P|311:253|383:259,2,135,2|2|8,0:0|0:0|0:0,0:0:0:0:
170,187,9256,2,0,P|157:113|193:62,1,135,2|4,0:0|0:0,0:0:0:0:
278,68,10054,6,0,L|371:73,1,90,8|2,0:0|0:0,0:0:0:0:
408,153,10692,1,10,0:0:0:0:
462,224,11011,2,0,P|452:291|425:365,1,135,4|8,0:0|0:0,0:0:0:0:
344,326,11809,1,8,0:0:0:0:
209,319,12288,6,0,P|199:240|209:180,2,135,4|8|8,0:0|0:0|0:0,0:0:0:0:
333,265,13724,2,0,L|470:266,2,135,12|8|8,0:0|0:0|0:0,0:0:0:0:
248,236,15000,6,0,P|252:188|236:88,2,135,4|8|8,0:0|0:0|0:0,0:0:0:0:
120,190,16437,2,0,P|112:266|124:334,1,135,12|8,0:0|0:0,0:0:0:0:
300,342,17554,6,0,L|447:345,1,135,4|2,0:0|0:0,0:0:0:0:
441,254,18352,2,0,P|442:138|432:117,1,135,0|2,0:0|0:0,0:0:0:0:
327,42,19309,2,0,P|246:62|224:59,1,90,2|2,0:0|0:0,0:0:0:0:
160,169,20107,6,0,P|232:146|306:159,1,135,2|2,0:0|0:0,0:0:0:0:
370,193,20905,1,0,0:0:0:0:
441,247,21224,2,0,P|430:315|326:351,1,180,2|0,0:0|0:0,0:0:0:0:
211,337,22341,1,2,0:0:0:0:
121,324,22660,6,0,P|97:284|108:197,2,135,2|0|2,0:0|0:0|0:0,0:0:0:0:
177,253,23937,2,0,L|332:248,1,135,2|2,0:0|0:0,0:0:0:0:
398,221,24735,1,0,0:0:0:0:
466,105,25213,6,0,P|369:83|330:99,1,135,2|2,0:0|0:0,0:0:0:0:
267,149,26011,2,0,P|216:95|224:31,1,135,2|2,0:0|0:0,0:0:0:0:
130,45,26809,2,0,L|33:44,2,90,0|2|0,0:0|0:0|0:0,0:0:0:0:
130,134,27766,6,0,B|138:192|138:192|89:255|106:368,1,225,4|2,0:0|0:0,0:0:0:0:
193,349,28883,2,0,P|277:334|365:367,1,180,2|2,0:0|0:0,0:0:0:0:
437,252,30000,1,2,0:0:0:0:
353,217,30320,6,0,P|282:240|216:229,1,135,2|2,0:0|0:0,0:0:0:0:
139,199,31117,2,0,L|30:221,2,90,0|2|0,0:0|0:0|0:0,0:0:0:0:
209,142,32075,2,0,P|231:79|204:17,1,135,2|0,0:0|0:0,0:0:0:0:
296,12,32873,6,0,L|437:28,1,135,6|2,0:0|0:0,0:0:0:0:
430,116,33671,2,0,P|412:174|417:252,1,135,2|2,0:0|0:0,0:0:0:0:
242,296,34788,2,0,P|241:228|233:193,1,90,2|0,0:0|0:0,0:0:0:0:
235,116,35426,6,0,P|137:109|77:171,1,180,2|0,0:0|0:0,0:0:0:0:
70,341,36703,2,0,L|174:326,2,90,2|0|2,0:0|0:0|0:0,0:0:0:0:
43,162,37979,5,8,0:0:0:0:
108,100,38298,2,0,L|109:10,2,90,0|2|0,0:0|0:0|0:0,0:0:0:0:
139,180,39256,1,8,0:0:0:0:
228,188,39575,2,0,L|321:173,2,90,0|2|0,0:0|0:0|0:0,0:0:0:0:
211,276,40532,5,8,0:0:0:0:
298,297,40851,2,0,L|391:282,2,90,0|2|0,0:0|0:0|0:0,0:0:0:0:
244,370,41809,2,0,P|148:352|112:281,1,180,8|0,0:0|0:0,0:0:0:0:
77,202,42766,1,2,0:0:0:0:
159,165,43086,6,0,P|185:80|170:20,1,135,4|2,0:0|0:0,0:0:0:0:
348,92,44203,2,0,P|332:138|340:236,1,135,2|0,0:0|0:0,0:0:0:0:
369,306,45000,1,2,0:0:0:0:
292,353,45320,1,0,0:0:0:0:
224,293,45639,6,0,B|213:227|236:175|236:175|188:185|165:162,1,180,2|2,0:0|0:0,0:0:0:0:
68,27,46915,1,2,0:0:0:0:
27,107,47235,1,0,0:0:0:0:
55,192,47554,2,0,P|47:246|39:290,1,90,2|8,0:0|0:0,0:0:0:0:
108,340,48192,6,0,P|208:328|286:375,1,180,4|2,0:0|0:0,0:0:0:0:
364,350,49149,1,8,0:0:0:0:
447,316,49469,2,0,P|468:273|465:221,1,90,2|8,0:0|0:0,0:0:0:0:
422,154,50107,2,0,L|325:178,1,90,2|8,0:0|0:0,0:0:0:0:
254,135,50745,6,0,P|230:87|241:40,2,90,2|8|2,0:0|0:0|0:0,0:0:0:0:
240,225,51703,1,8,0:0:0:0:
241,314,52022,2,0,P|147:333|81:269,1,180,2|2,0:0|0:0,0:0:0:0:
50,200,52979,1,8,0:0:0:0:
104,135,53298,6,0,L|114:40,1,90,4|8,0:0|0:0,0:0:0:0:
201,24,53937,2,0,L|201:126,1,90,8|8,0:0|0:0,0:0:0:0:
285,146,54575,2,0,L|287:51,1,90,4|8,0:0|0:0,0:0:0:0:
376,66,55213,2,0,L|381:165,1,90,8|8,0:0|0:0,0:0:0:0:
256,192,55852,12,2,57128,0:0:0:0:
37,92,58405,6,0,P|123:55|210:76,1,180,4|2,0:0|0:0,0:0:0:0:
251,149,59362,1,8,0:0:0:0:
244,238,59681,2,0,L|230:335,2,90,2|8|2,0:0|0:0|0:0,0:0:0:0:
334,237,60639,1,8,0:0:0:0:
410,190,60958,6,0,P|419:149|388:99,1,90,2|8,0:0|0:0,0:0:0:0:
328,50,61596,1,2,0:0:0:0:
244,84,61915,1,8,0:0:0:0:
199,162,62235,2,0,P|72:171|20:169,1,180,2|2,0:0|0:0,0:0:0:0:
20,258,63192,1,8,0:0:0:0:
108,271,63511,6,0,P|119:313|112:379,1,90,4|8,0:0|0:0,0:0:0:0:
207,355,64149,2,0,L|303:335,1,90,2|8,0:0|0:0,0:0:0:0:
358,272,64788,2,0,L|456:281,2,90,2|8|2,0:0|0:0|0:0,0:0:0:0:
277,232,65745,1,8,0:0:0:0:
201,183,66064,6,0,P|223:126|223:82,1,90,4|8,0:0|0:0,0:0:0:0:
158,36,66703,2,0,P|102:46|68:71,1,90,8|8,0:0|0:0,0:0:0:0:
60,152,67341,2,0,L|54:253,2,90,8|8|8,0:0|0:0|0:0,0:0:0:0:
142,115,68298,1,8,0:0:0:0:
230,129,68617,6,0,L|424:118,1,180,4|2,0:0|0:0,0:0:0:0:
454,199,69575,1,8,0:0:0:0:
383,254,69894,2,0,P|376:308|390:353,1,90,2|8,0:0|0:0,0:0:0:0:
294,338,70532,1,2,0:0:0:0:
203,341,70852,1,8,0:0:0:0:
155,264,71171,6,0,P|85:261|26:316,1,135,4|12,0:0|0:0,0:0:0:0:
23,164,72128,1,8,0:0:0:0:
98,114,72447,2,0,B|122:143|122:143|174:130|237:139|237:139|250:182,1,180,4|2,0:0|0:0,0:0:0:0:
200,243,73405,1,8,0:0:0:0:
270,299,73724,6,0,B|287:281|297:255|297:255|354:282|434:266,1,180,4|8,0:0|0:0,0:0:0:0:
437,88,75000,1,2,0:0:0:0:
348,103,75320,1,0,0:0:0:0:
259,89,75639,2,0,P|150:106|77:85,1,180,8|4,0:0|0:0,0:0:0:0:
42,263,76915,6,0,P|22:306|32:366,1,90,8|2,0:0|0:0,0:0:0:0:
113,359,77554,2,0,L|215:357,2,90,2|0|8,0:0|0:0|0:0,0:0:0:0:
231,223,78830,5,4,0:0:0:0:
403,274,79469,1,8,0:0:0:0:
235,340,80107,1,8,0:0:0:0:
324,183,80745,1,8,0:0:0:0:
487,257,81383,6,0,B|439:165|514:75|514:75|422:25|351:100,2,360,4|4|4,0:0|0:0|0:0,0:0:0:0:
256,192,84096,12,2,86490,0:0:0:0:
52,113,94149,6,0,P|120:88|232:106,1,180,4|2,0:0|0:0,0:0:0:0:
249,189,95107,2,0,L|227:284,2,90,0|2|0,0:0|0:0|0:0,0:0:0:0:
336,168,96064,2,0,L|442:166,1,90,2|0,0:0|0:0,0:0:0:0:
450,253,96703,6,0,L|348:252,1,90,2|0,0:0|0:0,0:0:0:0:
292,311,97341,2,0,P|245:325|118:260,1,180,2|2,0:0|0:0,0:0:0:0:
80,200,98298,1,0,0:0:0:0:
133,126,98617,2,0,L|237:118,1,90,2|0,0:0|0:0,0:0:0:0:
270,42,99256,6,0,L|380:50,2,90,4|0|2,0:0|0:0|0:0,0:0:0:0:
182,19,100213,1,0,0:0:0:0:
92,16,100532,2,0,P|60:57|57:107,1,90,2|0,0:0|0:0,0:0:0:0:
73,181,101171,2,0,P|72:246|55:275,1,90,2|0,0:0|0:0,0:0:0:0:
1,334,101809,6,0,P|116:315|170:356,1,180,2|2,0:0|0:0,0:0:0:0:
246,312,102766,1,0,0:0:0:0:
229,223,103086,2,0,L|208:131,1,90,2|0,0:0|0:0,0:0:0:0:
280,81,103724,1,2,0:0:0:0:
356,128,104043,1,0,0:0:0:0:
443,107,104362,6,0,B|451:141|430:175|430:175|477:218|477:294|477:294|415:303|369:334,1,315,4|2,0:0|0:0,0:0:0:0:
284,313,105798,2,0,P|288:256|269:175,1,135,8|0,0:0|0:0,0:0:0:0:
182,163,106596,1,8,0:0:0:0:
101,203,106915,6,0,L|72:306,2,90,2|8|2,0:0|0:0|0:0,0:0:0:0:
72,117,107873,1,8,0:0:0:0:
140,58,108192,2,0,P|207:44|235:50,1,90,2|8,0:0|0:0,0:0:0:0:
281,119,108830,2,0,L|245:222,1,90,2|8,0:0|0:0,0:0:0:0:
318,263,109469,6,0,L|380:82,1,180,2|2,0:0|0:0,0:0:0:0:
310,30,110426,1,8,0:0:0:0:
220,42,110745,2,0,P|177:57|123:62,1,90,2|8,0:0|0:0,0:0:0:0:
67,123,111383,2,0,P|87:167|83:226,1,90,2|8,0:0|0:0,0:0:0:0:
23,271,112022,5,2,0:0:0:0:
92,328,112341,2,0,L|194:304,1,90,8|2,0:0|0:0,0:0:0:0:
269,312,112979,2,0,L|370:321,1,90,8|2,0:0|0:0,0:0:0:0:
434,272,113617,2,0,P|452:200|443:175,2,90,8|2|8,0:0|0:0|0:0,0:0:0:0:
361,218,114575,5,6,0:0:0:0:
276,247,114894,2,0,L|92:251,1,180,8|8,0:0|0:0,0:0:0:0:
31,188,115852,2,0,P|19:150|32:99,1,90,2|8,0:0|0:0,0:0:0:0:
112,66,116490,1,0,0:0:0:0:
201,53,116809,2,0,P|219:102|209:146,1,90,8|2,0:0|0:0,0:0:0:0:
231,226,117447,6,0,L|328:209,1,90,8|2,0:0|0:0,0:0:0:0:
404,178,118086,1,8,0:0:0:0:
487,211,118405,2,0,P|501:293|494:314,1,90,2|8,0:0|0:0,0:0:0:0:
411,312,119043,2,4,L|214:344,1,180,6|4,0:0|0:0,0:0:0:0:
145,320,120000,5,12,0:0:0:0:
188,241,120320,2,0,P|200:162|192:138,1,90,8|0,0:0|0:0,0:0:0:0:
152,76,120958,2,0,L|16:113,2,135,4|8|8,0:0|0:0|0:0,0:0:0:0:
241,61,122235,6,0,L|344:76,2,90,0|8|8,0:0|0:0|0:0,0:0:0:0:
207,141,123192,1,8,0:0:0:0:
122,172,123511,2,0,P|87:244|115:309,2,135,4|4|8,0:0|0:0|0:0,0:0:0:0:
180,240,124788,6,0,L|286:224,1,90,4|0,0:0|0:0,0:0:0:0:
353,256,125426,2,0,L|391:343,1,90,2|0,0:0|0:0,0:0:0:0:
474,310,126064,2,0,L|398:126,1,180,2|2,0:0|0:0,0:0:0:0:
325,100,127022,1,0,0:0:0:0:
237,119,127341,6,0,B|164:142|126:122|126:122|121:164|77:178,1,180,2|2,0:0|0:0,0:0:0:0:
46,252,128298,1,0,0:0:0:0:
103,320,128617,2,0,P|153:311|243:310,2,135,2|2|8,0:0|0:0|0:0,0:0:0:0:
256,192,129894,12,4,132447,0:0:0:0:
89,125,133724,6,0,L|65:29,2,90,4|0|4,0:0|0:0|0:0,0:0:0:0:
83,215,134681,1,0,0:0:0:0:
37,292,135000,6,0,P|123:329|210:308,1,180,4|2,0:0|0:0,0:0:0:0:
251,235,135957,1,8,0:0:0:0:
244,146,136276,2,0,L|230:49,2,90,2|8|2,0:0|0:0|0:0,0:0:0:0:
334,147,137234,1,8,0:0:0:0:
410,194,137553,6,0,P|419:234|388:285,1,90,2|8,0:0|0:0,0:0:0:0:
328,334,138191,1,2,0:0:0:0:
244,300,138510,1,8,0:0:0:0:
199,222,138830,2,0,P|72:213|20:215,1,180,2|2,0:0|0:0,0:0:0:0:
20,126,139787,1,8,0:0:0:0:
108,113,140106,6,0,P|119:71|112:5,1,90,4|8,0:0|0:0,0:0:0:0:
207,29,140744,2,0,L|303:49,1,90,2|8,0:0|0:0,0:0:0:0:
358,112,141383,2,0,L|456:103,2,90,2|8|2,0:0|0:0|0:0,0:0:0:0:
277,152,142340,1,8,0:0:0:0:
201,201,142659,6,0,P|223:258|223:302,1,90,4|8,0:0|0:0,0:0:0:0:
158,348,143298,2,0,P|102:338|68:313,1,90,8|8,0:0|0:0,0:0:0:0:
57,231,143936,2,0,L|51:130,2,90,8|8|8,0:0|0:0|0:0,0:0:0:0:
140,263,144893,1,8,0:0:0:0:
230,250,145213,6,0,L|424:261,1,180,4|2,0:0|0:0,0:0:0:0:
454,185,146170,1,8,0:0:0:0:
383,130,146489,2,0,P|376:76|390:31,1,90,2|8,0:0|0:0,0:0:0:0:
294,46,147127,1,2,0:0:0:0:
203,43,147447,1,8,0:0:0:0:
155,120,147766,6,0,P|85:123|26:68,1,135,4|12,0:0|0:0,0:0:0:0:
23,220,148723,1,8,0:0:0:0:
98,270,149042,2,0,B|122:241|122:241|174:254|237:245|237:245|250:202,1,180,4|2,0:0|0:0,0:0:0:0:
200,141,150000,1,8,0:0:0:0:
274,89,150320,6,0,L|472:74,1,180,4|8,0:0|0:0,0:0:0:0:
440,165,151277,1,0,0:0:0:0:
437,254,151596,2,0,P|372:315|278:292,1,180,2|8,0:0|0:0,0:0:0:0:
204,268,152554,2,0,L|185:356,1,90,2|4,0:0|0:0,0:0:0:0:
256,192,153032,12,2,155426,0:0:0:0:
137,64,163086,6,0,P|116:131|120:159,1,90,4|8,0:0|0:0,0:0:0:0:
169,223,163724,2,0,L|266:204,1,90,2|8,0:0|0:0,0:0:0:0:
341,173,164362,2,0,P|383:241|357:341,1,180,2|2,0:0|0:0,0:0:0:0:
274,356,165320,1,8,0:0:0:0:
190,322,165639,6,0,L|95:349,2,90,2|8|2,0:0|0:0|0:0,0:0:0:0:
223,191,166756,2,0,L|78:227,1,135,4|8,0:0|0:0,0:0:0:0:
36,152,167554,2,0,P|48:104|25:55,1,90,2|8,0:0|0:0,0:0:0:0:
119,35,168192,6,0,L|274:53,2,135,4|8|8,0:0|0:0|0:0,0:0:0:0:
105,169,169628,2,0,P|82:211|115:297,1,135,4|8,0:0|0:0,0:0:0:0:
185,334,170426,6,0,P|261:317|323:330,2,135,4|8|8,0:0|0:0|0:0,0:0:0:0:
194,199,171862,2,0,L|220:50,1,135,8|8,0:0|0:0,0:0:0:0:
304,43,172660,6,0,L|348:178,1,135,4|8,0:0|0:0,0:0:0:0:
214,139,173617,2,0,L|218:289,1,135,4|8,0:0|0:0,0:0:0:0:
102,202,174574,2,0,L|70:337,1,135,4|12,0:0|0:0,0:0:0:0:
256,192,175372,12,2,177766,0:0:0:0:
76,36,187979,6,0,P|120:108|88:212,1,180,4|2,0:0|0:0,0:0:0:0:
92,288,188936,1,0,0:0:0:0:
180,308,189255,2,0,P|211:257|216:216,2,90,2|0|2,0:0|0:0|0:0,0:0:0:0:
260,352,190213,1,0,0:0:0:0:
348,332,190532,6,0,P|356:276|380:236,1,90,4|8,0:0|0:0,0:0:0:0:
379,157,191170,2,0,P|266:134|201:162,1,180,4|4,0:0|0:0,0:0:0:0:
147,222,192128,1,10,0:0:0:0:
62,191,192447,2,0,P|79:125|74:90,1,90,8|8,0:0|0:0,0:0:0:0:
137,36,193085,6,0,B|198:7|263:44|263:44|279:99,1,180,4|2,0:0|0:0,0:0:0:0:
240,173,194042,1,8,0:0:0:0:
185,245,194362,2,0,L|165:344,2,90,2|8|2,0:0|0:0|0:0,0:0:0:0:
274,255,195319,1,8,0:0:0:0:
357,296,195638,6,0,B|369:233|369:233|362:178|362:178|372:114,1,180,4|8,0:0|0:0,0:0:0:0:
256,192,196915,12,2,198191,0:0:0:0:
156,282,199468,6,0,B|171:222|171:222|148:173|148:173|175:111|224:94|224:94|270:101,1,270,4|0,0:0|0:0,0:0:0:0:
354,99,200745,2,0,B|339:159|339:159|362:208|362:208|335:270|286:287|286:287|240:280,1,270,4|0,0:0|0:0,0:0:0:0:
156,268,202021,6,0,L|22:262,2,135,4|4|8,0:0|0:0|0:0,0:0:0:0:
244,284,203298,2,0,L|347:268,1,90,2|8,0:0|0:0,0:0:0:0:
419,294,203936,2,0,P|446:229|437:193,1,90,0|8,0:0|0:0,0:0:0:0:
441,121,204574,6,0,P|347:101|276:167,1,180,4|2,0:0|0:0,0:0:0:0:
194,150,205532,1,0,0:0:0:0:
109,181,205851,2,0,L|86:78,2,90,4|2|0,0:0|0:0|0:0,0:0:0:0:
160,254,206808,1,0,0:0:0:0:
250,260,207128,6,0,P|259:321|239:361,1,90,4|8,0:0|0:0,0:0:0:0:
339,341,207766,2,0,L|435:327,2,90,8|8|8,0:0|0:0|0:0,0:0:0:0:
320,162,209042,1,2,0:0:0:0:
163,251,209681,6,0,P|126:165|147:78,1,180,4|2,0:0|0:0,0:0:0:0:
233,77,210638,1,8,0:0:0:0:
321,90,210957,2,0,L|422:82,2,90,2|8|2,0:0|0:0|0:0,0:0:0:0:
270,164,211915,1,8,0:0:0:0:
185,193,212234,6,0,P|176:233|197:326,2,135,6|8|8,0:0|0:0|0:0,0:0:0:0:
198,103,213511,2,0,P|99:113|18:109,1,180,2|2,0:0|0:0,0:0:0:0:
4,198,214468,1,8,0:0:0:0:
36,281,214787,6,0,P|34:325|45:369,1,90,4|8,0:0|0:0,0:0:0:0:
133,349,215425,2,0,L|221:330,1,90,2|8,0:0|0:0,0:0:0:0:
291,274,216064,2,0,L|380:282,2,90,2|8|2,0:0|0:0|0:0,0:0:0:0:
243,197,217021,1,8,0:0:0:0:
157,169,217340,6,0,P|162:124|180:83,1,90,4|8,0:0|0:0,0:0:0:0:
261,44,217979,2,0,L|355:34,1,90,2|8,0:0|0:0,0:0:0:0:
428,79,218617,2,0,P|456:202|418:231,1,180,2|2,0:0|0:0,0:0:0:0:
339,213,219574,1,8,0:0:0:0:
253,239,219894,6,0,L|68:202,1,180,4|4,0:0|0:0,0:0:0:0:
207,80,221170,2,0,B|261:-18|435:9|437:141|437:141|345:193|345:193|322:305,1,540,4|0,0:0|0:0,0:0:0:0:
144,338,223723,6,0,B|119:332|103:307|103:307|130:250|112:182,1,180,4|8,0:0|0:0,0:0:0:0:
279,116,225000,1,2,0:0:0:0:
387,265,225638,2,0,P|423:218|423:187,1,90,8|0,0:0|0:0,0:0:0:0:
391,104,226277,6,0,L|495:83,2,90,4|2|8,0:0|0:0|0:0,0:0:0:0:
215,145,227553,2,0,L|209:46,2,90,0|2|8,0:0|0:0|0:0,0:0:0:0:
166,220,228511,1,2,0:0:0:0:
168,309,228830,6,0,L|348:284,1,180,4|8,0:0|0:0,0:0:0:0:
499,190,230106,1,8,0:0:0:0:
327,134,230745,1,8,0:0:0:0:
312,311,231383,6,0,B|244:325|197:303|197:303|146:317|146:317|117:300|81:293,1,225,2|0,0:0|0:0,0:0:0:0:
169,182,232698,2,0,B|248:141|250:55|250:55|130:41,1,270,2|0,0:0|0:0,0:0:0:0:
92,118,234013,1,2,0:0:0:0:
90,31,236593,6,0,P|83:65|80:138,1,90,4|8,0:0|0:0,0:0:0:0:
131,193,237231,1,2,0:0:0:0:
215,163,237550,1,8,0:0:0:0:
235,250,237869,2,0,P|303:233|340:227,1,90,2|8,0:0|0:0,0:0:0:0:
409,253,238507,2,0,P|426:195|430:151,1,90,2|8,0:0|0:0,0:0:0:0:
427,75,239146,6,0,P|340:64|236:97,1,180,2|2,0:0|0:0,0:0:0:0:
176,137,240103,1,8,0:0:0:0:
89,160,240422,2,0,L|-8:177,2,90,2|8|2,0:0|0:0|0:0,0:0:0:0:
151,225,241380,1,8,0:0:0:0:
231,266,241699,6,0,P|239:318|229:360,1,90,2|8,0:0|0:0,0:0:0:0:
321,349,242337,2,0,P|361:331|411:328,1,90,2|8,0:0|0:0,0:0:0:0:
494,307,242975,1,2,0:0:0:0:
470,219,243295,1,8,0:0:0:0:
439,134,243614,2,0,P|423:94|422:48,1,90,2|8,0:0|0:0,0:0:0:0:
332,47,244252,6,0,L|232:72,1,90,12|12,0:0|0:0,0:0:0:0:
170,119,244890,2,0,L|72:106,1,90,8|8,0:0|0:0,0:0:0:0:
60,195,245529,2,0,L|213:213,1,135,12|4,0:0|0:0,0:0:0:0:
284,204,246327,2,0,L|339:191,2,45,8|8|12,0:0|0:0|0:0,0:0:0:0:
256,192,246805,12,0,253188,0:0:0:0:
