osu file format v14

[General]
AudioFilename: Dear Brave.mp3
AudioLeadIn: 0
PreviewTime: 56533
Countdown: 0
SampleSet: Soft
StackLeniency: 0.7
Mode: 0
LetterboxInBreaks: 0
WidescreenStoryboard: 1

[Editor]
Bookmarks: 16799,57570,76160
DistanceSpacing: 0.4
BeatDivisor: 4
GridSize: 4
TimelineZoom: 1.3

[Metadata]
Title:Dear Brave
TitleUnicode:ディアブレイブ
Artist:Kano
ArtistUnicode:鹿乃
Creator:Arua
Version:Hope
Source:ヘヴィーオブジェクト
Tags:HEAVY OBJECT
BeatmapID:1878661
BeatmapSetID:899286

[Difficulty]
HPDrainRate:4
CircleSize:3.2
OverallDifficulty:8
ApproachRate:9.2
SliderMultiplier:1.7
SliderTickRate:1

[Events]
//Background and Video events
0,0,"imageedit_4_4242102708.jpg",0,0
//Break Periods
//Storyboard Layer 0 (Background)
//Storyboard Layer 1 (Fail)
//Storyboard Layer 2 (Pass)
//Storyboard Layer 3 (Foreground)
//Storyboard Sound Samples

[TimingPoints]
1480,319.148936170213,4,2,1,50,1,0
1480,-133.333333333333,4,2,1,50,0,0
6426,-100,4,2,1,60,0,0
16799,-200,4,2,1,50,0,0
25735,-133.333333333333,4,2,1,50,0,0
27011,-133.333333333333,4,2,1,60,0,0
37224,-100,4,2,1,70,0,0
37862,-133.333333333333,4,2,1,50,0,0
38501,-100,4,2,1,70,0,0
39139,-133.333333333333,4,2,1,50,0,0
39777,-100,4,2,1,70,0,0
40416,-133.333333333333,4,2,1,50,0,0
41054,-100,4,2,1,70,0,0
41692,-133.333333333333,4,2,1,50,0,0
42331,-200,4,2,1,50,0,0
46160,-133.333333333333,4,2,1,50,0,0
47118,-133.333333333333,4,2,1,60,0,0
47437,-100,4,2,2,60,0,0
57011,-100,4,2,1,40,0,0
57171,-100,4,2,1,50,0,0
57331,-100,4,2,1,60,0,0
57490,-100,4,2,1,70,0,0
57650,-90.9090909090909,4,2,2,80,0,1
72969,-125,4,2,2,70,0,1
78075,-200,4,2,2,80,0,1
80628,342.857142857143,4,2,1,50,1,0
80628,-100,4,2,1,50,0,0
81999,359.281437125748,4,2,1,50,1,0
81999,-200,4,2,1,50,0,0
85951,387.096774193548,4,2,1,50,1,0

[Colours]
Combo1 : 255,81,255
Combo2 : 255,255,128
Combo3 : 180,126,3
Combo4 : 181,181,255

[HitObjects]
409,188,1480,6,0,P|340:175|275:199,1,127.500004863739
214,274,2118,2,0,P|200:216|140:170,1,127.500004863739
122,343,2597,5,0,0:0:0:0:
84,207,2756,1,0,0:0:0:0:
0,319,2916,1,0,0:0:0:0:
154,126,3075,5,0,0:0:0:0:
191,263,3234,1,0,0:0:0:0:
280,152,3394,1,0,0:0:0:0:
84,207,3554,5,0,0:0:0:0:
303,263,3714,1,0,0:0:0:0:
159,26,3873,1,0,0:0:0:0:
159,26,3953,1,0,0:0:0:0:
159,26,4033,2,0,P|167:103|166:177,1,127.500004863739
173,327,4671,2,0,P|242:312|318:333,1,127.500004863739
362,360,5150,1,2,0:0:0:0:
150,157,5948,5,0,0:0:0:0:
152,169,6027,1,0,0:0:0:0:
154,181,6107,1,0,0:0:0:0:
156,193,6187,1,0,0:0:0:0:
158,205,6267,1,0,0:0:0:0:
160,217,6347,1,0,0:0:0:0:
162,233,6426,2,0,P|245:256|343:228,1,170
457,123,6905,5,0,0:0:0:0:
258,155,7065,1,0,0:0:0:0:
488,243,7224,2,0,P|405:220|307:248,1,170
222,358,7703,2,0,L|204:244,1,85
176,108,8022,5,0,0:0:0:0:
119,308,8182,1,0,0:0:0:0:
288,108,8341,5,0,0:0:0:0:
59,240,8501,1,0,0:0:0:0:
365,184,8660,5,0,0:0:0:0:
67,147,8820,1,0,0:0:0:0:
369,297,8980,5,10,0:0:0:0:
116,64,9299,5,10,0:0:0:0:
299,342,9618,5,10,0:0:0:0:
185,18,9937,5,10,0:0:0:0:
191,344,10256,2,0,B|175:277|161:215|161:215|189:232|224:245,1,170
312,353,10735,5,0,0:0:0:0:
220,119,10894,1,0,0:0:0:0:
431,280,11054,5,0,0:0:0:0:
165,197,11214,1,0,0:0:0:0:
380,10,11373,1,0,0:0:0:0:
238,285,11533,5,0,0:0:0:0:
447,160,11692,1,0,0:0:0:0:
229,164,11852,5,0,0:0:0:0:
456,284,12011,1,0,0:0:0:0:
310,90,12171,5,0,0:0:0:0:
339,344,12331,1,0,0:0:0:0:
203,84,12490,5,0,0:0:0:0:
183,346,12650,1,0,0:0:0:0:
300,120,12809,5,0,0:0:0:0:
69,267,12969,1,0,0:0:0:0:
334,208,13128,5,0,0:0:0:0:
63,146,13288,1,0,0:0:0:0:
272,356,13448,5,10,0:0:0:0:
168,41,13607,1,10,0:0:0:0:
150,361,13767,5,10,0:0:0:0:
290,27,13926,1,2,0:0:0:0:
342,362,14086,5,2,0:0:0:0:
186,90,14245,2,0,P|214:160|303:244,1,170
374,303,14724,2,0,L|397:108,1,170
415,21,15203,2,0,B|358:51|331:24|302:4|230:39,1,170
119,106,15682,5,0,0:0:0:0:
389,109,15841,1,0,0:0:0:0:
144,252,16001,5,0,0:0:0:0:
296,3,16160,1,0,0:0:0:0:
374,284,16320,1,0,0:0:0:0:
374,284,16799,6,0,L|388:194,1,85
380,56,17277,2,0,P|329:75|295:101,2,85
330,206,18075,2,0,P|294:229|254:242,1,85
192,114,18554,2,0,P|155:139|128:177,2,85
331,31,19352,6,0,P|322:86|321:124,1,85
393,222,19831,2,0,P|400:254|402:270,1,42.5
316,360,20150,2,0,P|272:351|221:362,1,85
101,349,20628,2,0,P|129:297|154:274,1,85
259,242,21107,2,0,P|231:203|191:179,1,85
89,173,21586,1,0,0:0:0:0:
160,293,21745,1,0,0:0:0:0:
191,88,21905,6,0,P|224:134|246:177,1,85
314,273,22384,2,0,P|352:214|360:182,1,85
253,90,22862,2,0,P|250:116|249:144,1,42.5
233,291,23182,2,0,P|184:280|140:295,1,85
267,374,23660,2,0,P|316:385|360:370,1,85
427,273,24299,1,0,0:0:0:0:
427,273,24458,6,0,P|378:262|334:277,1,85
258,323,24937,2,0,P|231:329|199:321,1,42.5
154,246,25256,2,0,P|126:241|94:249,1,42.5
47,314,25575,1,0,0:0:0:0:
120,101,25735,6,0,P|122:143|123:177,1,63.7500024318696
271,149,26054,2,0,P|269:191|268:225,1,63.7500024318696
262,319,26373,1,2,0:0:0:0:
177,180,26533,1,0,3:0:0:0:
177,180,26612,1,0,0:0:0:0:
177,180,26692,2,0,L|170:103,1,63.7500024318696
97,16,27011,6,0,P|62:66|50:147,1,127.500004863739
72,286,27490,2,0,L|109:226,1,63.7500024318696
264,195,27809,2,0,L|227:255,1,63.7500024318696
175,332,28128,5,0,0:0:0:0:
168,184,28288,1,2,0:0:0:0:
268,282,28448,2,0,L|305:222,1,63.7500024318696
427,184,28767,2,0,P|393:133|338:76,1,127.500004863739
177,91,29245,6,0,P|219:84|258:90,1,63.7500024318696
340,208,29565,2,0,P|271:218|194:209,1,127.500004863739
81,117,30043,2,0,P|88:170|93:201,1,63.7500024318696
213,213,30362,2,0,P|206:266|201:297,1,63.7500024318696
88,341,30682,6,0,P|139:347|180:341,1,63.7500024318696
276,218,31001,2,0,P|225:212|184:218,1,63.7500024318696
88,341,31320,2,0,P|139:347|225:336,1,127.500004863739
338,225,31799,2,0,P|306:218|274:218,1,63.7500024318696,6|0,0:0|0:0,0:0:0:0:
376,339,32118,6,0,P|408:346|440:346,1,63.7500024318696,6|0,0:0|0:0,0:0:0:0:
275,212,32437,2,0,P|265:263|266:292,1,63.7500024318696
389,203,32756,2,0,P|399:152|398:123,1,63.7500024318696
306,30,33075,2,0,P|296:81|297:110,1,63.7500024318696
392,199,33394,6,0,P|352:204|302:198,1,63.7500024318696
211,61,33714,2,0,P|251:56|301:62,1,63.7500024318696
359,273,34033,6,0,P|319:278|269:272,1,63.7500024318696
178,135,34353,2,0,P|218:130|268:136,1,63.7500024318696
367,175,34671,5,0,0:0:0:0:
210,217,34831,1,0,0:0:0:0:
368,288,34990,2,0,P|310:277|282:280,1,63.7500024318696
174,292,35309,5,0,0:0:0:0:
320,354,35469,1,0,0:0:0:0:
172,379,35628,2,0,P|138:384|94:377,1,63.7500024318696
273,279,35948,5,2,0:0:0:0:
46,309,36107,1,0,0:0:0:0:
235,79,36267,5,0,0:0:0:0:
125,340,36426,1,0,0:0:0:0:
114,55,36586,5,2,0:0:0:0:
236,341,36745,1,0,3:0:0:0:
236,341,36825,1,0,3:0:0:0:
236,341,36905,2,0,L|242:254,1,63.7500024318696
228,123,37224,6,0,P|284:133|320:153,1,85
378,286,37543,2,0,P|322:276|286:256,1,85
186,206,37862,6,0,P|123:178|51:183,1,127.500004863739
107,278,38341,1,0,0:0:0:0:
107,278,38501,2,0,P|166:301|202:299,1,85
312,175,38820,2,0,L|293:275,1,85
275,371,39139,6,0,P|338:358|409:376,1,127.500004863739
275,278,39618,1,0,0:0:0:0:
378,284,39777,6,0,P|391:227|394:184,1,85
259,61,40097,2,0,P|246:118|243:161,1,85
296,316,40416,6,0,P|309:259|311:232,1,63.7500024318696
177,93,40736,2,0,P|164:150|163:182,1,63.7500024318696
294,312,41054,6,0,P|241:316|198:312,1,85
78,156,41373,2,0,P|131:152|174:156,1,85
271,181,41692,6,0,P|339:192|405:181,1,127.500004863739
328,103,42171,1,0,0:0:0:0:
455,80,42331,5,6,0:0:0:0:
271,181,42969,1,2,0:0:0:0:
369,33,43607,2,0,L|377:117,1,85,2|0,0:0|3:0,0:0:0:0:
396,270,44245,1,6,0:0:0:0:
396,270,44884,5,2,0:0:0:0:
232,150,45522,1,0,3:0:0:0:
232,150,46160,6,0,L|222:241,1,63.7500024318696
210,333,46480,1,0,3:0:0:0:
95,178,46639,2,0,L|130:224,2,31.8750012159348
76,332,46958,2,0,L|41:286,2,31.8750012159348
210,333,47277,5,0,0:0:0:0:
230,148,47437,2,0,P|243:205|266:255,1,85
407,292,47756,2,0,P|396:236|371:185,1,85
288,79,48075,1,2,0:0:0:0:
293,246,48235,1,2,0:0:0:0:
396,132,48394,2,0,P|388:80|368:41,1,85
220,6,48714,6,0,P|228:58|248:97,1,85
361,209,49033,2,0,P|288:204|247:215,1,85
160,253,49352,1,0,0:0:0:0:
323,296,49511,1,0,0:0:0:0:
198,346,49671,2,0,P|149:346|90:325,1,85
43,206,49990,6,0,P|92:206|151:227,1,85
239,249,50309,2,0,P|280:259|322:258,1,85
432,218,50628,1,2,0:0:0:0:
262,166,50788,1,2,0:0:0:0:
441,116,50948,2,0,P|369:96|320:92,1,85
245,93,51267,6,0,P|203:84|162:71,1,85
57,9,51586,2,0,P|48:64|48:129,1,85
142,155,51905,2,0,P|151:210|151:275,1,85
146,341,52224,1,8,0:0:0:0:
337,90,52543,5,12,0:0:0:0:
326,300,52703,1,8,0:0:0:0:
175,90,52862,5,12,0:0:0:0:
186,300,53022,1,8,0:0:0:0:
357,78,53182,6,0,L|352:178,1,85,12|8,0:0|0:0,0:0:0:0:
173,312,53501,2,0,L|169:222,1,85,12|8,0:0|0:0,0:0:0:0:
179,68,53820,5,12,0:0:0:0:
376,285,53980,1,8,0:0:0:0:
134,146,54139,5,12,0:0:0:0:
420,206,54299,1,8,0:0:0:0:
170,43,54458,6,0,L|266:99,1,85,12|8,0:0|0:0,0:0:0:0:
387,308,54777,2,0,L|291:252,1,85,12|8,0:0|0:0,0:0:0:0:
139,165,55097,5,12,0:0:0:0:
432,140,55256,1,0,0:0:0:0:
197,304,55416,5,8,0:0:0:0:
331,10,55575,1,0,0:0:0:0:
316,333,55735,5,8,0:0:0:0:
206,0,55894,1,8,0:0:0:0:
439,262,56054,5,8,0:0:0:0:
85,142,56214,1,8,0:0:0:0:
461,112,56373,5,12,0:0:0:0:
233,69,57011,1,0,0:0:0:0:
234,77,57091,1,0,0:0:0:0:
235,85,57171,1,0,0:0:0:0:
236,93,57251,1,0,0:0:0:0:
237,101,57331,1,0,0:0:0:0:
238,109,57410,1,0,0:0:0:0:
239,117,57490,1,0,0:0:0:0:
240,125,57570,1,0,0:0:0:0:
242,134,57650,2,0,P|338:159|425:134,1,187.000005706787
498,50,58128,5,0,0:0:0:0:
334,72,58288,2,0,P|269:42|210:39,1,93.5000028533936
71,92,58607,2,0,P|136:122|195:125,1,93.5000028533936
268,159,58926,6,0,P|320:167|379:192,1,93.5000028533936
421,320,59245,2,0,P|369:312|310:287,1,93.5000028533936
202,251,59565,6,0,P|196:203|206:147,1,93.5000028533936,2|2,0:0|0:0,0:0:0:0:
348,68,59884,2,0,P|355:122|351:165,1,93.5000028533936,8|0,0:0|0:0,0:0:0:0:
293,324,60203,5,0,0:0:0:0:
197,50,60362,1,0,0:0:0:0:
174,315,60522,5,0,0:0:0:0:
326,54,60682,1,0,0:0:0:0:
335,334,60841,6,0,L|324:232,1,93.5000028533936
177,50,61160,2,0,L|188:152,1,93.5000028533936
381,356,61480,6,0,L|361:140,1,187.000005706787
351,44,61958,1,0,0:0:0:0:
288,263,62118,2,0,L|175:254,1,93.5000028533936
90,245,62437,1,8,0:0:0:0:
229,165,62597,1,0,0:0:0:0:
89,80,62756,6,0,L|110:184,1,93.5000028533936
135,279,63075,1,8,0:0:0:0:
184,94,63235,2,0,P|233:95|285:103,1,93.5000028533936
392,221,63554,2,0,P|343:220|291:212,1,93.5000028533936
199,195,63873,1,0,0:0:0:0:
364,124,64033,6,0,B|358:7|358:7|338:23,1,140.25000428009
314,36,64352,2,0,L|278:153,1,93.5000028533936
242,279,64671,2,0,P|169:276|119:258,1,93.5000028533936
85,135,64990,2,0,P|158:138|208:156,1,93.5000028533936
396,244,65309,5,0,0:0:0:0:
101,219,65469,1,0,0:0:0:0:
386,106,65628,5,0,0:0:0:0:
167,341,65788,1,0,0:0:0:0:
167,52,65948,6,0,L|169:165,1,93.5000028533936
342,322,66267,2,0,L|340:209,1,93.5000028533936
309,35,66586,5,0,0:0:0:0:
213,330,66745,1,0,0:0:0:0:
196,24,66905,5,0,0:0:0:0:
317,336,67065,1,0,0:0:0:0:
338,20,67224,5,0,0:0:0:0:
172,332,67384,1,0,0:0:0:0:
212,41,67543,6,0,L|245:104,3,46.7500014266968
193,44,67862,2,0,L|167:158,1,93.5000028533936
230,316,68182,2,0,L|256:202,1,93.5000028533936
291,65,68501,2,0,P|356:82|407:122,1,93.5000028533936
454,172,68820,5,8,0:0:0:0:
302,158,68980,1,0,0:0:0:0:
408,260,69139,2,0,L|307:262,1,93.5000028533936
58,212,69458,5,8,0:0:0:0:
210,226,69618,1,0,0:0:0:0:
104,124,69777,2,0,L|205:122,1,93.5000028533936
389,226,70097,2,0,L|288:228,1,93.5000028533936
153,172,70416,6,0,L|168:330,1,140.25000428009
171,334,70735,1,0,0:0:0:0:
238,215,70894,2,0,L|352:224,1,93.5000028533936
427,225,71214,1,0,0:0:0:0:
291,137,71373,1,8,0:0:0:0:
405,125,71533,1,8,0:0:0:0:
335,29,71692,2,0,P|235:14|158:58,1,187.000005706787
271,130,72171,1,0,0:0:0:0:
161,183,72331,6,0,P|109:163|65:102,1,93.5000028533936
38,40,72650,1,8,0:0:0:0:
209,114,72809,1,0,0:0:0:0:
151,24,72969,2,0,P|233:27|304:60,1,136
375,128,73448,1,0,0:0:0:0:
424,17,73607,1,8,0:0:0:0:
465,250,73926,2,0,L|459:181,1,68,2|0,0:0|0:0,0:0:0:0:
442,76,74245,6,0,P|358:95|319:143,1,136
279,238,74724,5,0,0:0:0:0:
233,86,74884,1,8,0:0:0:0:
184,329,75203,2,0,L|194:257,1,68
203,152,75522,6,0,P|127:187|83:242,1,136
305,238,76160,2,0,P|381:203|425:148,1,136
299,123,76639,1,0,0:0:0:0:
299,123,76799,2,0,P|246:154|225:174,1,68
224,304,77118,2,0,P|277:273|298:253,1,68
377,209,77437,2,0,P|395:144|392:61,1,136
276,288,77916,1,0,0:0:0:0:
324,49,78075,5,8,0:0:0:0:
346,334,78235,1,0,0:0:0:0:
227,48,78394,5,8,0:0:0:0:
208,334,78554,1,0,0:0:0:0:
307,29,78714,5,8,0:0:0:0:
127,364,78873,1,0,0:0:0:0:
151,25,79033,5,8,0:0:0:0:
282,363,79192,1,0,0:0:0:0:
334,29,79352,5,8,0:0:0:0:
127,364,79511,1,0,0:0:0:0:
471,133,79671,5,8,0:0:0:0:
26,166,79831,1,0,0:0:0:0:
473,225,79990,5,8,0:0:0:0:
28,70,80150,1,0,0:0:0:0:
474,100,80309,5,8,0:0:0:0:
25,257,80469,1,0,0:0:0:0:
474,287,80628,5,14,0:0:0:0:
262,188,81999,1,0,0:0:0:0:
256,192,83436,12,0,86338,0:0:0:0:
