osu file format v14

[General]
AudioFilename: audio.mp3
AudioLeadIn: 0
PreviewTime: 52572
Countdown: 0
SampleSet: Soft
StackLeniency: 0.5
Mode: 0
LetterboxInBreaks: 0
WidescreenStoryboard: 1

[Editor]
DistanceSpacing: 1.8
BeatDivisor: 4
GridSize: 32
TimelineZoom: 1.299999

[Metadata]
Title:Daisy Blue
TitleUnicode:Daisy Blue
Artist:Kano
ArtistUnicode:鹿乃
Creator:SquareTude
Version:Bloom
Source:
Tags:Pop Japanese alstroemeria アルストロメリア Agatsu Minorsonek M2Usonek RVMathew Nelliel
BeatmapID:1853005
BeatmapSetID:886402

[Difficulty]
HPDrainRate:5.5
CircleSize:4
OverallDifficulty:9.1
ApproachRate:9.2
SliderMultiplier:2
SliderTickRate:1

[Events]
//Background and Video events
0,0,"cover.jpg",0,0
//Break Periods
//Storyboard Layer 0 (Background)
//Storyboard Layer 1 (Fail)
//Storyboard Layer 2 (Pass)
//Storyboard Layer 3 (Foreground)
//Storyboard Sound Samples

[TimingPoints]
1051,326.086956521739,4,2,0,30,1,0
1051,-200,4,2,0,30,0,0
1947,-200,4,2,0,5,0,0
2029,-200,4,2,0,30,0,0
3252,-200,4,2,0,5,0,0
3333,-200,4,2,0,30,0,0
4556,-200,4,2,0,5,0,0
4637,-200,4,2,0,30,0,0
7328,-200,4,2,0,5,0,0
7409,-200,4,2,0,30,0,0
11485,-100,4,2,0,80,0,0
14338,-100,4,2,0,5,0,0
14420,-100,4,2,0,80,0,0
16947,-100,4,2,0,5,0,0
17029,-100,4,2,0,80,0,0
17436,-100,4,2,0,5,0,0
17518,-100,4,2,0,80,0,0
17925,-100,4,2,0,5,0,0
18007,-100,4,2,0,80,0,0
19555,-100,4,2,0,5,0,0
19637,-100,4,2,0,80,0,0
20616,-133.333333333333,4,2,0,50,0,0
24447,-133.333333333333,4,2,0,5,0,0
24529,-133.333333333333,4,2,0,50,0,0
29664,-133.333333333333,4,2,0,5,0,0
29746,-133.333333333333,4,2,0,50,0,0
31050,-200,4,2,0,50,0,0
32029,-133.333333333333,4,2,0,50,0,0
32355,-100,4,2,0,60,0,0
32925,-100,4,2,0,5,0,0
33007,-100,4,2,0,60,0,0
36186,-100,4,2,0,5,0,0
36268,-100,4,2,0,60,0,0
36838,-100,4,2,0,5,0,0
36920,-100,4,2,0,60,0,0
37572,-86.9565217391304,4,2,0,60,0,0
40099,-86.9565217391304,4,2,0,5,0,0
40181,-86.9565217391304,4,2,0,75,0,0
43034,-86.9565217391304,4,2,0,5,0,0
43116,-86.9565217391304,4,2,0,75,0,0
43523,-86.9565217391304,4,2,0,5,0,0
43605,-86.9565217391304,4,2,0,75,0,0
45642,-86.9565217391304,4,2,0,5,0,0
45724,-86.9565217391304,4,2,0,75,0,0
46131,-86.9565217391304,4,2,0,5,0,0
46214,-86.9565217391304,4,2,0,75,0,0
48251,-86.9565217391304,4,2,0,5,0,0
48333,-86.9565217391304,4,2,0,75,0,0
48740,-86.9565217391304,4,2,0,5,0,0
48822,-86.9565217391304,4,2,0,75,0,0
50860,-86.9565217391304,4,2,0,5,0,0
50942,-86.9565217391304,4,2,0,30,0,0
51105,-86.9565217391304,4,2,0,40,0,0
51268,-86.9565217391304,4,2,0,50,0,0
51431,-86.9565217391304,4,2,0,60,0,0
51594,-86.9565217391304,4,2,0,70,0,0
51757,-86.9565217391304,4,2,0,80,0,0
51920,-86.9565217391304,4,2,0,50,0,0
52246,-133.333333333333,4,2,0,50,0,0
52898,-86.9565217391304,4,2,0,50,0,0
53224,-76.9230769230769,4,2,0,80,0,1
58686,-76.9230769230769,4,2,0,5,0,1
58768,-76.9230769230769,4,2,0,80,0,1
60398,-70.4225352112676,4,2,0,80,0,1
61050,-76.9230769230769,4,2,0,80,0,1
63659,-66.6666666666667,4,2,0,80,0,1
66268,-76.9230769230769,4,2,0,80,0,1
69121,-76.9230769230769,4,2,0,5,0,1
69203,-76.9230769230769,4,2,0,80,0,1
71485,-100,4,2,0,60,0,0
72790,-76.9230769230769,4,2,0,60,0,0
73116,-76.9230769230769,4,2,0,60,0,0
73442,-76.9230769230769,4,2,0,60,0,0
74094,-100,4,2,0,60,0,0
74339,-100,4,2,0,5,0,0
74420,-100,4,2,0,60,0,0
75806,-100,4,2,0,5,0,0
75887,-100,4,2,0,60,0,0
79311,-200,4,2,0,60,0,0
80616,-149.253731343284,4,2,0,60,0,0
81920,-86.9565217391304,4,2,0,70,0,0
84529,-76.9230769230769,4,2,0,80,0,0
89990,-76.9230769230769,4,2,0,5,0,0
90072,-76.9230769230769,4,2,0,80,0,0
90479,-76.9230769230769,4,2,0,5,0,0
90561,-76.9230769230769,4,2,0,80,0,0
92355,333.333333333333,4,2,0,80,1,0
92355,-76.9230769230769,4,2,0,80,0,0
92605,-76.9230769230769,4,2,0,5,0,0
92688,-76.9230769230769,4,2,0,80,0,0
93688,340.909090909091,4,2,0,80,1,0
93688,-76.9230769230769,4,2,0,80,0,0
93773,-76.9230769230769,4,2,0,5,0,0
93858,-76.9230769230769,4,2,0,80,0,0
94369,375,4,2,0,80,1,0
94369,-76.9230769230769,4,2,0,80,0,0
94462,-76.9230769230769,4,2,0,5,0,0
94556,379.746835443038,4,2,0,80,1,0
94556,-76.9230769230769,4,2,0,80,0,0
94650,-76.9230769230769,4,2,0,5,0,0
94745,384.615384615385,4,2,0,80,1,0
94745,-76.9230769230769,4,2,0,80,0,0
94841,-76.9230769230769,4,2,0,5,0,0
94937,413.793103448276,4,2,0,80,1,0
94937,-76.9230769230769,4,2,0,80,0,0
95040,-76.9230769230769,4,2,0,5,0,0
95764,-100,4,2,0,30,0,0
100937,-100,4,2,0,5,0,0

[Colours]
Combo1 : 128,255,255
Combo2 : 255,128,128

[HitObjects]
219,14,724,5,0,0:0:0:0:
219,14,1051,2,0,P|211:73|211:124,1,100,2|0,0:0|0:0,0:0:0:0:
307,83,1703,2,0,P|315:142|315:176,1,75,2|0,0:0|0:0,0:0:0:0:
310,185,2029,1,0,0:0:0:0:
204,138,2192,1,0,0:0:0:0:
234,319,2355,6,0,L|238:219,1,100,2|0,0:0|0:0,0:0:0:0:
165,115,3007,2,0,P|124:116|78:123,1,75,2|0,0:0|0:0,0:0:0:0:
60,137,3333,1,0,0:0:0:0:
117,219,3496,1,0,0:0:0:0:
0,340,3659,6,0,P|48:332|113:335,1,100,2|0,0:0|0:0,0:0:0:0:
216,372,4311,2,0,P|258:371|294:360,1,75,2|0,0:0|0:0,0:0:0:0:
318,347,4637,1,0,0:0:0:0:
256,271,4800,1,0,0:0:0:0:
424,285,4964,6,0,P|427:252|425:224,1,50,2|0,0:0|0:0,0:0:0:0:
367,161,5290,2,0,P|364:128|366:100,1,50,2|0,0:0|0:0,0:0:0:0:
455,42,5616,2,0,P|439:12|421:-10,1,50,2|0,0:0|0:0,0:0:0:0:
288,0,5942,2,0,P|271:19|257:40,1,50,2|0,0:0|0:0,0:0:0:0:
285,171,6268,6,0,L|289:284,1,100,2|0,0:0|0:0,0:0:0:0:
398,355,6920,2,0,P|440:360|499:305,1,125,2|0,0:0|0:0,0:0:0:0:
505,278,7409,1,0,0:0:0:0:
441,181,7572,6,0,P|429:229|425:289,1,100,2|0,0:0|0:0,0:0:0:0:
377,118,8224,2,0,P|360:76|364:49,1,50,2|0,0:0|0:0,0:0:0:0:
476,6,8550,2,0,P|462:27|443:42,1,50,0|0,0:0|0:0,0:0:0:0:
139,8,8877,5,2,0:0:0:0:
256,192,8958,12,0,11322,0:0:0:0:
37,356,11485,6,0,L|51:237,1,100,4|0,3:0|0:0,0:0:0:0:
126,122,11811,2,0,P|173:99|251:129,1,100,0|0,1:0|0:0,0:0:0:0:
318,268,12137,1,4,3:0:0:0:
189,185,12300,1,4,3:0:0:0:
220,361,12464,2,0,L|234:242,1,100,0|0,1:0|0:0,0:0:0:0:
126,122,12790,6,0,L|26:110,1,100,4|0,3:0|0:0,0:0:0:0:
189,185,13116,2,0,P|212:141|208:92,1,100,0|0,1:0|0:0,0:0:0:0:
37,0,13442,1,4,3:0:0:0:
126,122,13605,1,4,3:0:0:0:
260,15,13768,2,0,L|382:12,1,100,0|0,1:0|0:0,0:0:0:0:
469,108,14094,6,0,P|488:178|458:246,1,150,4|0,3:0|0:0,0:0:0:0:
482,315,14420,2,0,P|444:285|395:282,1,100,0|0,1:0|0:0,0:0:0:0:
202,353,14746,1,4,3:0:0:0:
415,364,14909,1,4,3:0:0:0:
216,257,15072,1,0,1:0:0:0:
360,172,15235,1,0,0:0:0:0:
163,177,15398,6,0,L|31:183,1,100,4|0,3:0|0:0,0:0:0:0:
260,67,15724,2,0,L|160:62,1,100,0|0,1:0|0:0,0:0:0:0:
3,227,16050,1,4,3:0:0:0:
160,62,16214,1,4,3:0:0:0:
267,325,16377,1,0,1:0:0:0:
70,60,16540,1,0,1:0:0:0:
146,365,16703,6,0,L|159:201,1,150,4|0,1:0|0:0,0:0:0:0:
163,177,17029,1,4,3:0:0:0:
417,337,17192,2,0,L|267:325,1,150,0|0,1:0|0:0,0:0:0:0:
235,319,17518,1,0,1:0:0:0:
479,268,17681,6,0,P|511:186|478:129,1,150,4|0,0:0|0:0,0:0:0:0:
454,113,18007,1,4,3:0:0:0:
241,235,18170,1,0,1:0:0:0:
428,198,18333,1,2,0:0:0:0:
229,86,18496,1,4,3:0:0:0:
349,294,18659,5,0,1:0:0:0:
390,42,18822,1,0,1:0:0:0:
325,188,18985,1,2,0:0:0:0:
152,3,19148,1,4,3:0:0:0:
316,86,19311,6,0,L|499:80,1,150,4|0,1:0|0:0,0:0:0:0:
500,77,19637,1,0,1:0:0:0:
277,16,19800,1,0,1:0:0:0:
431,282,19964,1,0,1:0:0:0:
467,2,20127,1,0,1:0:0:0:
241,235,20290,2,0,P|181:250|118:215,1,100,0|0,1:0|0:0,0:0:0:0:
0,94,20616,6,0,L|10:242,1,150.000005722046,4|0,3:0|0:0,0:0:0:0:
96,351,21105,1,2,0:0:0:0:
96,351,21186,1,2,0:0:0:0:
96,351,21268,1,2,0:0:0:0:
82,183,21431,1,4,3:0:0:0:
230,310,21594,2,0,L|315:297,1,75.0000028610231,0|0,1:0|0:0,0:0:0:0:
351,105,21920,6,0,L|347:195,1,75.0000028610231,4|0,0:0|0:0,0:0:0:0:
428,259,22246,2,0,L|424:184,1,75.0000028610231,0|0,3:0|0:0,0:0:0:0:
504,265,22572,2,0,L|514:354,1,75.0000028610231,0|0,3:0|0:0,0:0:0:0:
328,265,22898,1,0,3:0:0:0:
428,259,23061,1,0,0:0:0:0:
318,343,23224,6,0,L|219:337,1,75.0000028610231,2|0,0:0|0:0,0:0:0:0:
149,263,23550,2,0,L|223:258,1,75.0000028610231,0|0,3:0|0:0,0:0:0:0:
124,345,23877,2,0,L|49:340,1,75.0000028610231,2|0,0:0|0:0,0:0:0:0:
0,262,24203,2,0,P|-11:211|14:151,1,112.500004291535,0|0,3:0|0:0,0:0:0:0:
33,137,24529,6,0,P|76:128|110:137,1,75.0000028610231,2|0,0:0|0:0,0:0:0:0:
190,189,24855,2,0,P|181:146|190:112,1,75.0000028610231,0|0,3:0|0:0,0:0:0:0:
279,3,25181,2,0,P|286:39|276:75,1,75.0000028610231,0|0,3:0|0:0,0:0:0:0:
188,116,25507,1,0,3:0:0:0:
317,165,25670,1,0,3:0:0:0:
317,165,25752,1,0,3:0:0:0:
317,165,25833,6,0,L|400:158,1,75.0000028610231,2|0,0:0|0:0,0:0:0:0:
280,310,26159,2,0,L|273:235,1,75.0000028610231,2|0,0:0|0:0,0:0:0:0:
457,239,26485,2,0,L|450:313,1,75.0000028610231,2|0,0:0|0:0,0:0:0:0:
329,384,26811,1,2,0:0:0:0:
372,248,26974,1,0,0:0:0:0:
193,325,27137,6,0,P|156:338|94:321,1,75.0000028610231,2|0,0:0|0:0,0:0:0:0:
42,193,27464,2,0,L|40:268,1,75.0000028610231,0|0,3:0|0:0,0:0:0:0:
143,142,27790,2,0,L|140:67,1,75.0000028610231,2|0,0:0|0:0,0:0:0:0:
26,0,28116,1,0,3:0:0:0:
63,112,28279,1,0,0:0:0:0:
203,10,28442,6,0,P|240:-3|303:17,1,75.0000028610231,2|0,0:0|0:0,0:0:0:0:
337,143,28768,1,0,3:0:0:0:
248,88,28931,1,0,0:0:0:0:
410,0,29094,2,0,L|408:90,1,75.0000028610231,2|0,0:0|0:0,0:0:0:0:
397,259,29420,2,0,P|352:223|279:230,1,112.500004291535,0|0,3:0|0:0,0:0:0:0:
267,236,29746,6,0,L|275:328,1,75.0000028610231,2|0,0:0|0:0,0:0:0:0:
136,216,30072,2,0,L|142:141,1,75.0000028610231,0|0,3:0|0:0,0:0:0:0:
273,310,30398,2,0,L|181:318,1,75.0000028610231,2|0,0:0|0:0,0:0:0:0:
141,141,30724,2,0,L|233:149,1,75.0000028610231,0|2,3:0|0:0,0:0:0:0:
293,158,30969,1,2,0:0:0:0:
293,158,31050,6,0,P|332:72|247:7,1,200,2|0,3:0|0:0,0:0:0:0:
253,87,31866,1,4,3:0:0:0:
141,26,32029,2,0,P|90:15|40:22,1,75.0000028610231,0|0,1:0|0:0,0:0:0:0:
0,157,32355,6,0,L|11:297,1,100,4|0,0:0|0:0,0:0:0:0:
139,367,32681,2,0,L|290:353,1,150,0|0,1:0|0:0,0:0:0:0:
321,349,33007,1,4,3:0:0:0:
214,204,33170,1,4,3:0:0:0:
7,256,33333,2,0,L|18:396,1,100,0|0,1:0|0:0,0:0:0:0:
98,207,33659,6,0,L|106:77,1,100,4|0,3:0|0:0,0:0:0:0:
293,11,33985,2,0,L|299:110,1,100,0|0,1:0|0:0,0:0:0:0:
216,240,34311,1,4,3:0:0:0:
184,59,34474,1,4,3:0:0:0:
356,168,34637,2,0,L|477:155,1,100,0|0,1:0|0:0,0:0:0:0:
299,110,34964,6,0,P|273:165|302:232,1,100,4|0,3:0|0:0,0:0:0:0:
450,330,35290,2,0,P|454:281|430:238,1,100,0|0,1:0|0:0,0:0:0:0:
279,201,35616,1,4,3:0:0:0:
374,297,35779,1,4,3:0:0:0:
455,157,35942,2,0,L|446:-2,1,150,0|0,1:0|0:0,0:0:0:0:
416,82,36268,6,0,P|380:101|318:94,1,100,4|0,3:0|0:0,0:0:0:0:
153,8,36594,2,0,L|150:163,1,150,0|0,1:0|0:0,0:0:0:0:
149,196,36920,1,4,3:0:0:0:
245,28,37083,1,4,3:0:0:0:
422,235,37246,1,0,1:0:0:0:
352,15,37409,1,0,1:0:0:0:
248,267,37572,6,0,L|241:115,1,115.000002193451,4|0,0:0|0:0,0:0:0:0:
107,10,37898,2,0,P|48:-9|-24:36,1,115.000002193451,0|0,1:0|0:0,0:0:0:0:
11,219,38224,1,4,3:0:0:0:
155,81,38387,1,4,3:0:0:0:
36,200,38550,2,0,L|51:68,1,115.000002193451,0|0,1:0|0:0,0:0:0:0:
243,19,38877,6,0,P|298:10|347:38,1,115.000002193451,4|0,3:0|0:0,0:0:0:0:
205,271,39203,2,0,P|196:215|224:166,1,115.000002193451,0|0,1:3|0:0,0:0:0:0:
438,202,39529,1,4,3:0:0:0:
285,233,39692,1,4,3:0:0:0:
481,117,39855,2,0,L|471:289,1,172.500003290176,0|0,1:0|0:0,0:0:0:0:
437,321,40181,6,0,L|301:311,1,115.000002193451,4|0,1:0|0:0,0:0:0:0:
157,260,40507,1,0,1:0:0:0:
370,191,40670,1,4,3:0:0:0:
136,60,40833,1,0,1:0:0:0:
285,233,40996,2,0,L|292:96,1,115.000002193451,0|0,1:0|0:0,0:0:0:0:
81,11,41322,6,0,L|218:18,1,115.000002193451,4|0,3:0|0:0,0:0:0:0:
370,191,41648,1,0,1:0:0:0:
206,129,41811,2,0,L|91:134,1,115.000002193451,4|0,3:0|0:0,0:0:0:0:
270,60,42137,1,0,1:0:0:0:
285,233,42300,1,0,1:0:0:0:
136,59,42464,1,0,1:0:0:0:
403,109,42627,1,4,3:0:0:0:
196,302,42790,6,0,L|207:126,1,172.500003290176,4|0,1:0|0:0,0:0:0:0:
214,53,43116,1,4,3:0:0:0:
431,262,43279,2,0,P|365:285|279:223,1,172.500003290176,0|0,1:0|0:0,0:0:0:0:
278,156,43605,1,0,1:0:0:0:
487,205,43768,6,0,L|482:353,1,115.000002193451,4|0,1:0|0:0,0:0:0:0:
370,191,44094,1,4,3:0:0:0:
205,382,44257,1,0,1:0:0:0:
210,203,44420,1,2,0:0:0:0:
286,351,44583,5,4,3:0:0:0:
33,274,44746,1,0,1:0:0:0:
284,232,44909,1,0,1:0:0:0:
117,271,45072,1,2,0:0:0:0:
244,89,45235,1,0,1:0:0:0:
356,293,45398,6,0,L|372:96,1,172.500003290176,4|0,1:0|0:0,0:0:0:0:
380,45,45724,1,4,3:0:0:0:
436,311,45887,2,0,P|405:360|291:346,1,172.500003290176,0|0,1:0|0:0,0:0:0:0:
243,306,46214,1,0,1:0:0:0:
398,207,46377,6,0,L|529:221,1,115.000002193451,4|0,1:0|0:0,0:0:0:0:
356,293,46703,1,4,3:0:0:0:
446,122,46866,1,0,1:0:0:0:
512,292,47029,1,2,0:0:0:0:
351,123,47192,5,4,3:0:0:0:
300,355,47355,1,0,1:0:0:0:
446,122,47518,1,0,1:0:0:0:
436,311,47681,1,2,0:0:0:0:
286,192,47844,1,0,1:0:0:0:
508,170,48007,6,0,P|520:87|422:48,1,172.500003290176,4|0,1:0|0:0,0:0:0:0:
382,47,48333,1,4,3:0:0:0:
231,249,48496,2,0,L|245:69,1,172.500003290176,0|0,1:0|0:0,0:0:0:0:
251,1,48822,1,0,1:0:0:0:
446,122,48985,6,0,L|297:111,1,115.000002193451,4|0,1:0|0:0,0:0:0:0:
146,152,49311,1,4,3:0:0:0:
396,199,49474,1,0,1:0:0:0:
244,77,49637,1,2,0:0:0:0:
141,328,49800,5,4,3:0:0:0:
156,61,49964,1,0,1:0:0:0:
278,296,50127,1,0,1:0:0:0:
331,113,50290,1,2,0:0:0:0:
199,264,50453,1,0,1:0:0:0:
75,50,50616,6,0,L|64:231,1,172.500003290176,4|0,1:0|0:0,0:0:0:0:
59,297,50942,1,0,1:0:0:0:
230,127,51105,1,0,1:0:0:0:
280,379,51268,1,0,1:0:0:0:
100,140,51431,1,0,1:0:0:0:
396,250,51594,1,0,1:0:0:0:
77,374,51757,1,0,1:0:0:0:
174,45,51920,5,0,1:0:0:0:
230,127,52083,1,2,0:0:0:0:
297,53,52246,2,2,P|333:30|382:24,1,75.0000028610231,2|2,0:0|0:0,0:0:0:0:
466,24,52572,1,2,0:0:0:0:
174,45,52735,5,4,3:0:0:0:
261,315,52898,2,0,L|269:182,1,115.000002193451,0|0,1:0|0:0,0:0:0:0:
466,24,53224,6,0,L|474:179,1,129.999994049073,4|0,1:0|0:0,0:0:0:0:
378,320,53550,2,0,P|308:341|245:287,1,129.999994049073,0|0,1:0|0:0,0:0:0:0:
217,109,53877,1,4,3:0:0:0:
407,232,54040,1,4,3:0:0:0:
191,256,54203,2,0,L|61:265,1,129.999994049073,0|0,1:0|0:0,0:0:0:0:
277,222,54529,6,0,L|406:231,1,129.999994049073,4|0,3:0|0:0,0:0:0:0:
245,0,54855,2,0,L|235:129,1,129.999994049073,0|0,1:0|0:0,0:0:0:0:
80,324,55181,1,4,3:0:0:0:
23,112,55344,1,4,3:0:0:0:
213,223,55507,2,0,P|220:295|173:342,1,129.999994049073,0|0,1:0|0:0,0:0:0:0:
23,258,55833,6,0,P|84:236|141:263,1,129.999994049073,4|0,3:0|0:0,0:0:0:0:
302,384,56159,2,0,L|308:236,1,129.999994049073,0|0,1:0|0:0,0:0:0:0:
391,46,56485,1,4,3:0:0:0:
494,259,56648,1,4,3:0:0:0:
305,123,56811,2,0,L|459:120,1,129.999994049073,0|0,1:0|0:0,0:0:0:0:
295,15,57137,6,0,L|141:12,1,129.999994049073,4|0,3:0|0:0,0:0:0:0:
303,253,57464,2,0,L|306:99,1,129.999994049073,0|0,1:0|0:0,0:0:0:0:
201,319,57790,1,4,3:0:0:0:
405,245,57953,1,4,3:0:0:0:
138,150,58116,1,0,1:0:0:0:
401,157,58279,1,0,1:0:0:0:
148,67,58442,6,0,P|63:115|82:213,1,194.999991073609,4|0,1:0|0:0,0:0:0:0:
132,240,58768,2,0,L|296:233,1,129.999994049073,0|0,1:0|0:0,0:0:0:0:
465,314,59094,1,4,3:0:0:0:
305,123,59257,1,4,3:0:0:0:
211,331,59420,2,0,L|377:322,1,129.999994049073,0|0,1:0|0:0,0:0:0:0:
225,156,59746,5,0,0:0:0:0:
424,159,59909,1,4,3:0:0:0:
340,323,60072,2,0,L|195:332,1,129.999994049073,0|0,1:0|0:0,0:0:0:0:
511,236,60398,6,0,L|369:242,1,141.999992849732,4|0,0:0|0:0,0:0:0:0:
29,82,60724,2,0,L|170:88,1,141.999992849732,4|0,0:0|0:0,0:0:0:0:
270,368,61050,6,0,L|278:238,1,129.999994049073,4|0,0:0|0:0,0:0:0:0:
94,0,61377,1,0,1:0:0:0:
194,186,61540,1,0,1:0:0:0:
378,0,61703,1,4,1:0:0:0:
170,88,61866,2,0,L|310:97,1,129.999994049073,0|0,1:0|0:0,0:0:0:0:
113,228,62192,1,4,3:0:0:0:
113,228,62273,1,4,3:0:0:0:
113,228,62355,6,0,P|103:173|140:110,1,129.999994049073,4|0,1:0|0:0,0:0:0:0:
382,165,62681,1,0,1:0:0:0:
265,331,62844,1,0,1:0:0:0:
170,88,63007,1,4,3:0:0:0:
398,255,63170,1,0,1:0:0:0:
135,330,63333,1,4,3:0:0:0:
382,165,63496,1,4,3:0:0:0:
382,165,63578,1,4,3:0:0:0:
382,165,63659,6,0,P|403:93|366:11,1,150.000005722046,4|0,1:0|0:0,0:0:0:0:
148,252,63985,2,0,L|317:230,1,150.000005722046,0|0,1:0|0:0,0:0:0:0:
21,200,64311,5,0,1:0:0:0:
284,100,64474,1,4,3:0:0:0:
28,289,64637,1,0,1:0:0:0:
301,335,64800,1,4,3:0:0:0:
165,45,64964,5,0,1:0:0:0:
233,294,65127,1,0,0:0:0:0:
406,55,65290,1,0,1:0:0:0:
158,151,65453,1,0,0:0:0:0:
427,353,65616,5,0,1:0:0:0:
313,84,65779,1,4,3:0:0:0:
93,318,65942,1,0,1:0:0:0:
165,45,66105,1,4,3:0:0:0:
210,311,66268,6,0,P|153:339|94:319,1,129.999994049073,4|0,0:0|0:0,0:0:0:0:
81,0,66594,1,4,3:0:0:0:
148,252,66757,2,0,L|162:89,1,129.999994049073,0|0,1:0|0:0,0:0:0:0:
406,55,67083,1,4,3:0:0:0:
210,311,67246,1,0,1:0:0:0:
165,45,67409,1,4,3:0:0:0:
510,255,67572,5,4,0:0:0:0:
0,205,67898,1,4,0:0:0:0:
0,205,68224,5,4,3:0:0:0:
209,317,68387,2,0,L|56:331,1,129.999994049073,0|0,1:0|0:0,0:0:0:0:
77,84,68714,1,0,1:0:0:0:
316,243,68877,6,0,L|523:256,1,194.999991073609,4|0,1:0|0:0,0:0:0:0:
403,211,69203,2,0,P|369:141|396:77,1,129.999994049073,0|0,1:0|0:0,0:0:0:0:
512,0,69529,1,4,3:0:0:0:
458,138,69692,1,4,3:0:0:0:
258,16,69855,2,0,L|409:9,1,129.999994049073,0|0,1:0|0:0,0:0:0:0:
220,167,70181,6,0,L|69:160,1,129.999994049073,4|0,3:0|0:0,0:0:0:0:
280,104,70507,2,0,P|308:161|287:221,1,129.999994049073,0|0,1:0|0:0,0:0:0:0:
22,106,70833,1,4,3:0:0:0:
207,50,70996,1,4,3:0:0:0:
73,284,71159,1,0,1:0:0:0:
104,23,71322,1,0,1:0:0:0:
175,354,71485,6,0,B|180:291|180:291|216:238|216:238|213:146,1,200,4|0,0:0|0:0,0:0:0:0:
207,50,71974,1,4,3:0:0:0:
287,220,72137,1,0,1:0:0:0:
125,134,72300,1,4,3:0:0:0:
312,55,72464,2,0,L|445:62,1,100,0|0,1:0|0:0,0:0:0:0:
436,163,72790,5,0,1:0:0:0:
418,146,72898,2,0,L|410:49,1,86.6666626993817,0|0,1:0|1:0,0:0:0:0:
271,208,73116,5,4,3:0:0:0:
287,220,73224,2,0,L|384:212,1,86.6666626993817,4|4,3:0|3:0,0:0:0:0:
346,10,73442,6,0,L|239:5,2,86.6666626993817,0|0|0,1:0|3:0|3:0,3:0:0:0:
411,60,73768,1,0,1:0:0:0:
170,111,73931,1,0,1:0:0:0:
287,220,74094,6,0,P|301:272|235:348,1,150,4|0,0:0|0:0,0:0:0:0:
212,347,74420,1,0,0:0:0:0:
373,308,74583,1,4,3:0:0:0:
234,160,74746,2,0,P|220:112|235:65,1,100,0|0,1:0|0:0,0:0:0:0:
338,0,75072,2,0,P|378:25|398:70,1,100,4|0,3:0|0:0,0:0:0:0:
404,204,75398,5,4,3:0:0:0:
313,80,75561,2,0,L|320:264,1,150,0|0,1:0|0:0,0:0:0:0:
320,265,75887,1,4,3:0:0:0:
234,160,76050,1,0,1:0:0:0:
389,146,76214,1,0,0:0:0:0:
238,239,76377,1,0,0:0:0:0:
313,80,76540,1,0,1:0:0:0:
419,270,76703,6,0,L|302:264,1,100,4|0,3:0|0:0,0:0:0:0:
160,195,77029,1,0,0:0:0:0:
196,308,77192,1,4,3:0:0:0:
49,239,77355,2,0,L|43:139,1,100,0|0,1:0|0:0,0:0:0:0:
148,0,77681,1,4,3:0:0:0:
123,123,77844,1,0,1:0:0:0:
61,39,78007,5,4,3:0:0:0:
196,75,78170,2,2,L|315:68,1,100,0|0,1:0|0:0,0:0:0:0:
148,0,78496,1,4,3:0:0:0:
44,140,78659,2,2,L|51:259,1,100,0|0,1:0|0:0,0:0:0:0:
178,321,78985,1,0,0:0:0:0:
129,256,79148,1,0,1:0:0:0:
50,240,79311,6,0,P|82:325|185:315,1,200,4|0,1:0|0:0,0:0:0:0:
337,153,80453,1,0,3:0:0:0:
337,153,80534,1,0,3:0:0:0:
337,153,80616,6,0,P|310:241|178:177,1,267.999987322999,4|0,1:0|0:0,0:0:0:0:
136,8,81594,1,0,0:0:0:0:
268,178,81757,1,4,3:0:0:0:
268,178,81839,1,0,3:0:0:0:
268,178,81920,6,0,L|282:22,1,115.000002193451,4|0,1:0|0:0,0:0:0:0:
450,170,82246,2,0,L|460:284,1,115.000002193451,0|0,1:0|0:0,0:0:0:0:
173,127,82572,5,0,1:0:0:0:
450,170,82735,1,4,3:0:0:0:
152,294,82898,1,0,1:0:0:0:
192,16,83061,1,4,3:0:0:0:
460,284,83224,5,4,0:0:0:0:
278,63,83387,1,0,1:0:0:0:
260,305,83550,1,0,1:0:0:0:
460,105,83714,1,0,3:0:0:0:
460,105,83795,1,0,3:0:0:0:
460,105,83877,5,0,1:0:0:0:
192,206,84040,1,4,3:0:0:0:
460,284,84203,1,0,1:0:0:0:
373,35,84366,1,0,1:0:0:0:
360,331,84529,6,0,L|375:166,1,129.999994049073,4|0,1:0|0:0,0:0:0:0:
233,12,84855,2,0,L|103:0,1,129.999994049073,0|0,1:0|0:0,0:0:0:0:
34,218,85181,1,4,3:0:0:0:
195,84,85344,1,4,3:0:0:0:
121,305,85507,2,0,L|111:115,1,129.999994049073,0|0,1:0|0:0,0:0:0:0:
233,12,85833,6,0,P|277:85|255:138,1,129.999994049073,4|0,3:0|0:0,0:0:0:0:
34,218,86159,2,0,P|24:155|64:100,1,129.999994049073,0|0,1:0|0:0,0:0:0:0:
280,335,86485,1,4,3:0:0:0:
114,175,86648,1,4,3:0:0:0:
164,384,86811,2,0,P|210:326|184:253,1,129.999994049073,0|0,1:0|0:0,0:0:0:0:
1,311,87137,6,0,L|140:309,1,129.999994049073,4|0,3:0|0:0,0:0:0:0:
308,357,87464,2,0,L|437:358,1,129.999994049073,0|0,1:0|0:0,0:0:0:0:
310,45,87790,2,0,L|308:174,1,129.999994049073,4|4,3:0|3:0,0:0:0:0:
490,298,88116,1,0,1:0:0:0:
425,74,88279,1,0,0:0:0:0:
355,240,88442,6,0,P|284:251|232:194,1,129.999994049073,4|0,3:0|0:0,0:0:0:0:
382,4,88768,2,0,P|453:-7|505:50,1,129.999994049073,0|0,1:0|0:0,0:0:0:0:
241,217,89094,1,4,3:0:0:0:
443,227,89257,1,4,3:0:0:0:
248,107,89420,1,0,1:0:0:0:
307,384,89583,1,0,1:0:0:0:
331,89,89746,6,0,P|253:24|165:90,1,194.999991073609,4|0,1:0|0:0,0:0:0:0:
141,129,90072,1,4,3:0:0:0:
441,229,90235,2,0,L|219:237,1,194.999991073609,0|0,1:0|0:0,0:0:0:0:
170,239,90561,1,0,1:0:0:0:
250,106,90724,6,0,L|245:259,1,129.999994049073,4|0,3:0|0:0,0:0:0:0:
131,374,91050,1,4,3:0:0:0:
141,129,91214,1,0,1:0:0:0:
289,308,91377,1,2,0:0:0:0:
109,292,91540,1,4,3:0:0:0:
328,145,91703,5,0,1:0:0:0:
228,369,91866,1,0,1:0:0:0:
76,194,92029,1,2,0:0:0:0:
328,145,92192,1,0,1:0:0:0:
109,292,92355,6,0,L|120:71,1,194.999991073609,4|0,1:0|0:0,0:0:0:0:
124,20,92688,1,0,1:0:0:0:
194,177,92855,1,0,1:0:0:0:
323,2,93021,1,0,1:0:0:0:
119,97,93188,1,0,1:0:0:0:
332,207,93355,1,0,1:0:0:0:
230,8,93521,1,0,1:0:0:0:
96,255,93688,6,0,P|100:223|112:184,1,64.9999970245363,0|0,1:0|0:0,0:0:0:0:
323,2,93858,1,0,1:0:0:0:
52,53,94028,1,0,1:0:0:0:
284,296,94199,1,0,1:0:0:0:
230,8,94369,6,0,P|215:47|205:108,1,64.9999970245363,0|0,1:0|0:0,0:0:0:0:
219,296,94556,2,0,P|264:299|296:292,1,64.9999970245363,0|0,1:0|0:0,0:0:0:0:
386,9,94745,2,0,P|354:1|299:8,1,64.9999970245363,0|0,1:0|0:0,0:0:0:0:
96,255,94937,2,0,P|106:298|117:325,1,64.9999970245363,0|0,1:0|0:0,0:0:0:0:
170,372,95764,1,4,2:0:0:0:
256,192,95868,12,0,100937,0:0:0:0:
