osu file format v14

[General]
AudioFilename: audio.mp3
AudioLeadIn: 0
PreviewTime: 52737
Countdown: 0
SampleSet: Soft
StackLeniency: 0.2
Mode: 0
LetterboxInBreaks: 0
WidescreenStoryboard: 1

[Editor]
DistanceSpacing: 0.5
BeatDivisor: 4
GridSize: 4
TimelineZoom: 1.4

[Metadata]
Title:Daisy Blue
TitleUnicode:Daisy Blue
Artist:Kano
ArtistUnicode:鹿乃
Creator:Rieri
Version:Hope
Source:
Tags:アルストロメリア すこっぷ
BeatmapID:1778560
BeatmapSetID:850717

[Difficulty]
HPDrainRate:6
CircleSize:4
OverallDifficulty:8.8
ApproachRate:9.2
SliderMultiplier:1.8
SliderTickRate:1

[Events]
//Background and Video events
0,0,"bg53.jpg",0,0
//Break Periods
2,160382,168743
//Storyboard Layer 0 (Background)
//Storyboard Layer 1 (Fail)
//Storyboard Layer 2 (Pass)
//Storyboard Layer 3 (Foreground)
//Storyboard Layer 4 (Overlay)
//Storyboard Sound Samples

[TimingPoints]
-252,326.086956521739,4,2,1,50,1,0
1052,-142.857142857143,4,2,1,30,0,0
10182,-666.666666666667,4,2,1,20,0,0
11405,-666.666666666667,4,2,1,5,0,0
11487,-100,4,2,2,60,0,0
21921,-125,4,3,1,40,0,0
31867,-125,4,2,2,40,0,0
32356,-100,4,2,2,50,0,0
42791,-111.111111111111,4,2,2,50,0,0
52084,-200,4,2,1,50,0,0
53226,-83.3333333333333,4,2,2,70,0,1
63497,-83.3333333333333,4,2,2,70,0,0
63661,-83.3333333333333,4,2,2,70,0,1
71487,-100,4,2,2,70,0,1
74095,-111.111111111111,4,2,2,60,0,0
84530,-99.9999999999999,4,2,2,50,0,0
94965,-125,4,2,2,40,0,0
104095,-166.666666666667,4,2,2,50,0,0
105074,-333.333333333333,4,3,1,50,0,0
105318,-333.333333333333,4,3,1,5,0,0
105400,-99.9999999999999,4,2,2,50,0,0
115834,-111.111111111111,4,2,2,50,0,0
126269,-83.3333333333333,4,2,2,70,0,1
136541,-83.3333333333333,4,2,2,70,0,0
136704,-83.3333333333333,4,2,2,70,0,1
144530,-100,4,2,2,70,0,1
147139,-111.111111111111,4,2,2,50,0,0
160182,-111.111111111111,4,2,1,50,0,0
169313,-666.666666666667,4,2,1,30,0,0
170536,-666.666666666667,4,2,1,5,0,0
170617,-99.9999999999999,4,2,2,50,0,0
178443,-142.857142857143,4,2,2,50,0,0
179095,-125,4,2,2,50,0,0
179747,-111.111111111111,4,2,2,50,0,0
181052,-125,4,2,2,50,0,0
184965,-111.111111111111,4,2,2,50,0,0
186269,-100,4,2,2,50,0,0
191487,-111.111111111111,4,2,2,50,0,0
204530,-111.111111111111,4,2,1,50,0,0
209747,-200,4,2,2,50,0,0
211704,-142.857142857143,4,2,2,50,0,0
212030,-99.9999999999999,4,2,2,50,0,0
213661,-500,4,2,1,50,0,0
214802,-500,4,2,1,5,0,0
214965,-83.3333333333333,4,2,2,80,0,1
222791,-100,4,2,2,80,0,1
225400,-200,4,2,1,40,0,0
229965,-333.333333333333,4,2,1,40,0,0
230536,-333.333333333333,4,2,1,5,0,0
230617,-142.857142857143,4,2,2,40,0,1
230699,-142.857142857143,4,2,2,40,0,0
231921,-142.857142857143,4,2,2,40,0,1
232003,-142.857142857143,4,2,2,40,0,0
233226,-76.923076923077,4,2,2,80,0,1
235671,-76.923076923077,4,2,2,80,0,0
235834,-90.9090909090909,4,2,2,50,0,1
235997,-90.9090909090909,4,2,2,50,0,0
243675,314.13612565445,4,2,2,50,1,0
244152,329.67032967033,4,2,2,50,1,0
244811,338.983050847458,4,2,2,50,1,0
245658,377.358490566038,4,2,2,50,1,0
245846,384.615384615385,4,2,2,50,1,0
246230,413.793103448276,4,2,2,50,1,0
247057,645.161290322581,4,2,2,50,1,0
252218,-100,4,2,1,5,0,0

[Colours]
Combo1 : 222,136,255
Combo2 : 255,128,131
Combo3 : 244,255,117
Combo4 : 148,255,77
Combo5 : 89,255,189
Combo6 : 104,150,255

[HitObjects]
36,58,1052,5,2,0:1:0:0:
61,143,1704,1,0,0:0:0:0:
121,33,2356,1,2,0:0:0:0:
145,118,3008,1,0,0:0:0:0:
36,58,3661,5,2,0:1:0:0:
86,228,4313,1,0,0:0:0:0:
145,118,4965,5,2,0:0:0:0:
169,203,5291,1,0,0:0:0:0:
193,288,5617,1,2,0:0:0:0:
169,203,5943,1,0,0:0:0:0:
278,264,6269,5,2,0:1:0:0:
363,240,6921,1,0,0:0:0:0:
217,373,7574,5,2,0:0:0:0:
278,264,8226,1,0,0:0:0:0:
339,155,8878,1,4,0:0:0:0:
339,155,10182,6,0,P|290:149|248:176,1,101.249996910095
166,198,11487,6,0,P|227:259|316:227,1,180,6|8,0:0|0:0,0:0:0:0:
471,145,11976,1,0,0:0:0:0:
388,196,12139,2,0,P|375:146|388:97,1,90,8|8,0:3|0:3,0:0:0:0:
473,242,12465,2,0,P|436:278|387:291,1,90,8|0,0:0|0:0,0:0:0:0:
316,257,12791,5,8,0:3:0:0:
400,290,12954,1,8,0:3:0:0:
330,348,13117,2,0,L|237:344,1,90,10|0,0:0|0:0,0:0:0:0:
83,303,13443,2,0,L|176:299,1,90,10|8,0:3|0:3,0:0:0:0:
326,233,13769,2,0,L|233:229,1,90,10|0,0:0|0:0,0:0:0:0:
37,157,14095,6,0,P|103:183|192:130,1,180,2|8,0:0|0:0,0:0:0:0:
106,87,14584,1,0,0:0:0:0:
26,158,14747,2,8,P|17:215|41:270,1,90,10|8,0:3|0:3,0:3:0:0:
150,283,15074,1,8,0:0:0:0:
54,380,15237,6,0,L|247:366,1,180,2|0,0:0|0:0,0:0:0:0:
408,304,15726,2,0,P|379:354|325:371,1,90,10|0,0:0|0:0,0:0:0:0:
244,273,16052,2,0,P|283:294|328:291,1,90,10|8,0:3|0:3,0:0:0:0:
180,189,16378,1,10,0:0:0:0:
233,366,16541,1,8,0:0:0:0:
303,200,16704,6,0,L|297:92,1,90,6|0,0:0|0:0,0:0:0:0:
293,24,17030,1,8,0:3:0:0:
419,121,17193,2,0,L|413:229,1,90,8|0,0:0|0:0,0:0:0:0:
430,347,17519,1,8,0:0:0:0:
237,275,17682,6,0,P|291:258|338:275,1,90,4|0,0:0|0:0,0:0:0:0:
188,358,18008,1,10,0:3:0:0:
156,199,18171,1,8,0:0:0:0:
101,298,18334,1,2,0:0:0:0:
156,199,18497,1,0,0:0:0:0:
0,141,18661,5,10,0:0:0:0:
101,298,18824,1,8,0:0:0:0:
78,170,18987,1,10,0:3:0:0:
28,346,19150,1,8,0:0:0:0:
190,122,19313,6,0,P|247:115|297:136,1,90,6|0,0:0|0:0,0:0:0:0:
341,184,19639,1,8,0:0:0:0:
414,74,19802,1,0,0:0:0:0:
437,256,19965,1,8,0:0:0:0:
326,53,20128,1,0,0:0:0:0:
265,263,20291,1,8,0:0:0:0:
498,50,20617,5,6,0:0:0:0:
488,58,20943,1,2,0:1:0:0:
485,157,21106,1,2,0:1:0:0:
482,154,21188,1,2,0:1:0:0:
479,152,21269,1,2,0:1:0:0:
402,100,21432,1,8,0:3:0:0:
512,245,21595,1,8,0:0:0:0:
256,354,21921,6,0,P|320:317|398:344,2,144,14|8|8,0:0|0:0|0:0,0:0:0:0:
176,319,22737,1,0,0:0:0:0:
100,360,22900,2,0,L|92:276,1,72,8|0,0:0|0:0,0:0:0:0:
26,233,23226,6,0,P|81:256|172:216,1,144,10|8,0:0|0:0,0:0:0:0:
223,174,23715,2,0,L|219:87,1,72,0|10,0:0|0:0,0:0:0:0:
136,77,24041,2,0,L|140:164,1,72,0|8,0:0|0:0,0:0:0:0:
223,174,24367,1,0,0:0:0:0:
293,123,24530,6,0,P|333:113|382:128,1,72,10|0,0:0|0:0,0:0:0:0:
438,159,24856,2,0,P|397:113|416:20,2,144,8|8|8,0:0|0:0|0:0,0:0:0:0:
503,240,25671,1,0,0:0:0:0:
503,240,25753,1,0,0:0:0:0:
503,240,25834,6,0,P|458:232|415:246,1,72,10|0,0:0|0:0,0:0:0:0:
350,264,26161,2,0,P|308:274|260:262,1,72,10|0,0:0|0:0,0:0:0:0:
230,199,26487,2,0,L|237:350,1,144,10|10,0:0|0:0,0:0:0:0:
155,373,26976,1,0,0:0:0:0:
33,273,27139,6,0,P|82:309|165:272,2,144,10|8|10,0:0|0:0|0:0,0:0:0:0:
67,193,27954,1,0,0:0:0:0:
16,123,28117,2,0,P|51:108|96:111,1,72,8|0,0:0|0:0,0:0:0:0:
149,164,28443,6,0,P|219:191|296:149,1,144,10|8,0:0|0:0,0:0:0:0:
335,100,28932,1,0,0:0:0:0:
405,149,29095,2,0,L|494:154,1,72,10|0,0:0|0:0,0:0:0:0:
482,66,29421,2,0,L|393:61,1,72,8|0,0:0|0:0,0:0:0:0:
213,27,29747,6,0,P|259:35|305:20,1,72,10|0,0:0|0:0,0:0:0:0:
335,100,30074,2,0,L|324:262,2,144,8|10|8,0:0|0:0|0:0,0:0:0:0:
340,14,30889,1,0,0:0:0:0:
342,7,30970,1,0,0:0:0:0:
344,0,31052,1,10,0:0:0:0:
347,8,31867,5,8,0:3:0:0:
380,204,32030,1,8,0:0:0:0:
132,180,32356,5,6,0:0:0:0:
72,244,32519,1,0,0:0:0:0:
56,132,32682,2,0,L|68:40,1,90,8|0,0:0|0:0,0:0:0:0:
140,92,33008,1,8,0:3:0:0:
220,52,33171,1,8,0:3:0:0:
292,104,33334,2,0,L|280:196,1,90,8|0,0:0|0:0,0:0:0:0:
224,276,33661,6,0,P|268:268|324:308,1,90,2|0,0:0|0:0,0:0:0:0:
344,360,33987,1,8,0:0:0:0:
476,292,34150,2,0,P|432:280|373:315,1,90,0|8,0:0|0:3,0:0:0:0:
344,360,34476,1,8,0:3:0:0:
356,224,34639,2,0,L|364:120,1,90,8|0,0:0|0:0,0:0:0:0:
372,8,34965,5,10,0:3:0:0:
432,76,35128,1,0,0:0:0:0:
304,66,35291,2,0,L|200:58,1,90,8|0,0:0|0:0,0:0:0:0:
122,133,35617,1,8,0:3:0:0:
90,52,35780,1,8,0:3:0:0:
34,120,35943,2,0,L|44:221,1,90,8|0,0:0|0:0,0:0:0:0:
12,301,36269,6,0,P|62:305|107:283,1,90,10|0,0:3|0:0,0:0:0:0:
205,174,36595,2,0,L|196:281,1,90,8|0,0:0|0:0,0:0:0:0:
346,362,36921,1,10,0:3:0:0:
310,224,37084,1,8,0:3:0:0:
346,362,37247,1,8,0:0:0:0:
415,179,37411,1,8,0:0:0:0:
254,332,37574,6,0,L|151:338,1,90,6|0,0:0|0:0,0:0:0:0:
16,288,37900,1,8,0:0:0:0:
66,364,38063,1,0,0:0:0:0:
93,238,38226,2,8,L|85:134,1,90,8|8,0:3|0:3,0:3:0:0:
191,75,38552,1,8,0:0:0:0:
175,163,38715,1,0,0:0:0:0:
104,59,38878,5,10,0:3:0:0:
191,75,39041,1,0,0:0:0:0:
86,148,39204,2,0,L|92:237,1,90,10|0,0:0|0:0,0:0:0:0:
221,334,39530,1,8,0:3:0:0:
215,245,39693,1,8,0:3:0:0:
309,328,39856,2,0,L|412:320,1,90,8|0,0:0|0:0,0:0:0:0:
463,183,40182,6,0,P|480:242|451:304,1,90,6|0,0:0|0:0,0:0:0:0:
344,90,40508,1,8,0:0:0:0:
330,246,40671,1,8,0:3:0:0:
357,86,40834,1,10,0:0:0:0:
227,195,40997,2,0,L|238:309,1,90,8|0,0:0|0:0,0:0:0:0:
406,354,41324,6,0,P|351:343|300:377,1,90,10|0,0:3|0:0,0:0:0:0:
163,323,41650,1,10,0:0:0:0:
229,371,41813,2,0,P|244:320|219:261,1,90,8|0,0:3|0:0,0:0:0:0:
42,212,42139,1,10,0:0:0:0:
213,177,42302,1,8,0:3:0:0:
86,111,42465,1,8,0:3:0:0:
156,45,42628,1,8,0:0:0:0:
116,266,42791,6,0,P|180:242|258:305,1,161.999995056153,6|8,0:0|0:3,0:0:0:0:
35,322,43280,2,0,L|24:220,1,80.9999975280763,10|0,0:0|0:0,0:0:0:0:
26,241,43606,1,8,0:0:0:0:
204,66,43769,6,0,L|184:256,1,161.999995056153,6|8,0:0|0:3,0:0:0:0:
39,97,44258,2,0,P|84:118|125:109,1,80.9999975280763,10|0,0:0|0:0,0:0:0:0:
204,66,44584,1,8,0:3:0:0:
278,241,44747,1,8,0:0:0:0:
301,27,44911,1,10,0:0:0:0:
204,66,45074,1,8,0:3:0:0:
374,206,45237,1,10,0:0:0:0:
134,165,45400,6,0,P|185:156|227:174,1,80.9999975280763,6|0,0:0|0:0,0:0:0:0:
278,241,45726,1,8,0:3:0:0:
378,125,45889,2,0,L|387:26,1,80.9999975280763,10|0,0:0|0:0,0:0:0:0:
283,229,46215,1,8,0:0:0:0:
497,270,46378,6,0,P|461:257|397:269,1,80.9999975280763,6|0,0:0|0:0,0:0:0:0:
345,302,46704,1,8,0:3:0:0:
262,137,46867,1,10,0:0:0:0:
192,202,47030,1,2,0:0:0:0:
350,164,47193,1,8,0:3:0:0:
172,109,47356,1,8,0:0:0:0:
213,291,47519,1,10,0:0:0:0:
283,229,47682,1,8,0:3:0:0:
102,171,47845,1,10,0:0:0:0:
418,212,48008,6,0,P|355:183|274:260,1,161.999995056153,6|8,0:0|0:3,0:0:0:0:
495,268,48497,2,0,L|509:168,1,80.9999975280763,10|0,0:0|0:0,0:0:0:0:
506,187,48824,1,8,0:0:0:0:
266,53,48987,6,0,L|451:41,1,161.999995056153,6|8,0:0|0:3,0:0:0:0:
506,187,49476,1,10,0:0:0:0:
430,227,49639,2,0,P|422:183|440:130,1,80.9999975280763,2|8,0:0|0:3,0:0:0:0:
512,9,49965,1,8,0:0:0:0:
328,140,50128,1,10,0:0:0:0:
266,53,50291,1,2,0:0:0:0:
497,105,50454,1,10,0:0:0:0:
260,205,50617,6,0,L|160:200,1,80.9999975280763,4|0,0:0|0:0,0:0:0:0:
24,105,50943,1,8,0:0:0:0:
57,264,51106,1,8,0:3:0:0:
153,59,51269,5,8,0:0:0:0:
65,276,51432,1,8,0:3:0:0:
278,198,51595,1,8,0:0:0:0:
12,114,51758,1,8,0:3:0:0:
162,366,51921,5,8,0:0:0:0:
239,347,52084,2,0,P|264:348|293:361,2,45,0|2|0,0:0|0:0|0:0,0:0:0:0:
182,288,52574,1,2,0:0:0:0:
162,366,52737,1,0,0:0:0:0:
327,191,52900,1,10,0:1:0:0:
327,191,53226,6,0,P|373:223|445:193,1,107.999996704102,6|0,0:0|0:0,0:0:0:0:
459,53,53552,2,0,P|413:21|341:51,1,107.999996704102,10|0,0:0|0:0,0:0:0:0:
211,155,53878,1,10,0:3:0:0:
274,279,54041,1,8,0:3:0:0:
314,102,54204,1,10,0:0:0:0:
133,193,54367,1,2,0:0:0:0:
274,279,54530,6,0,L|391:267,1,107.999996704102,8|0,0:3|0:0,0:0:0:0:
314,102,54856,2,0,L|197:114,1,107.999996704102,10|0,0:0|0:0,0:0:0:0:
22,150,55182,1,8,0:3:0:0:
105,40,55345,1,10,0:3:0:0:
133,193,55508,2,0,L|123:315,1,107.999996704102,10|2,0:0|0:0,0:0:0:0:
373,283,55834,6,0,P|306:264|252:304,1,107.999996704102,10|0,0:3|0:0,0:0:0:0:
167,107,56161,2,0,P|229:137|289:107,1,107.999996704102,8|0,0:0|0:0,0:0:0:0:
434,24,56487,1,10,0:3:0:0:
351,129,56650,1,8,0:3:0:0:
307,8,56813,1,10,0:0:0:0:
474,140,56976,1,2,0:0:0:0:
297,214,57139,6,0,L|180:203,1,107.999996704102,8|0,0:3|0:0,0:0:0:0:
45,38,57465,2,0,L|162:49,1,107.999996704102,10|0,0:0|0:0,0:0:0:0:
76,230,57791,1,10,0:3:0:0:
57,133,57954,1,8,0:3:0:0:
172,270,58117,1,10,0:0:0:0:
217,115,58280,1,10,0:0:0:0:
100,331,58443,6,0,P|143:360|213:356,1,107.999996704102,4|0,0:0|0:0,0:0:0:0:
361,273,58769,2,0,P|309:269|250:307,1,107.999996704102,8|2,0:0|0:0,0:0:0:0:
462,346,59095,2,8,L|473:223,1,107.999996704102,10|8,0:3|0:3,0:3:0:0:
426,64,59421,1,8,0:0:0:0:
512,136,59584,1,2,0:0:0:0:
408,181,59747,6,0,L|284:166,1,107.999996704102,10|0,0:3|0:0,0:0:0:0:
154,302,60074,2,0,L|278:287,1,107.999996704102,8|0,0:0|0:0,0:0:0:0:
68,192,60400,5,6,0:0:0:0:
32,364,60563,1,0,0:0:0:0:
176,164,60726,5,6,0:0:0:0:
220,384,60889,1,0,0:0:0:0:
300,148,61052,6,0,L|316:20,1,107.999996704102,6|0,0:0|0:0,0:0:0:0:
176,164,61378,1,10,0:0:0:0:
256,268,61541,1,8,0:0:0:0:
217,68,61704,2,0,L|91:57,1,107.999996704102,4|8,0:0|0:0,0:0:0:0:
176,164,62030,1,2,0:0:0:0:
57,271,62193,1,8,0:0:0:0:
57,271,62275,1,0,0:0:0:0:
57,271,62356,6,0,P|107:251|184:280,1,107.999996704102,6|0,0:0|0:0,0:0:0:0:
241,368,62682,1,8,0:0:0:0:
276,159,62845,1,10,0:0:0:0:
354,273,63008,1,10,0:3:0:0:
164,180,63171,1,8,0:0:0:0:
386,121,63334,1,0,0:0:0:0:
460,339,63497,1,8,0:3:0:0:
452,348,63579,1,8,0:3:0:0:
444,357,63661,5,6,0:0:0:0:
502,193,63824,1,8,0:3:0:0:
343,359,63987,5,10,0:0:0:0:
286,155,64150,1,8,0:3:0:0:
174,354,64313,5,10,0:0:0:0:
362,259,64476,1,8,0:3:0:0:
140,200,64639,5,10,0:0:0:0:
368,250,64802,1,10,0:3:0:0:
227,100,64965,5,8,0:0:0:0:
254,310,65128,1,8,0:3:0:0:
111,94,65291,5,10,0:0:0:0:
58,307,65454,1,8,0:3:0:0:
101,90,65617,5,10,0:0:0:0:
260,302,65780,1,8,0:3:0:0:
4,213,65943,5,10,0:0:0:0:
258,98,66106,1,10,0:3:0:0:
8,13,66269,6,0,L|20:149,1,107.999996704102,4|8,0:0|0:3,0:0:0:0:
83,176,66595,1,8,0:3:0:0:
244,95,66758,2,0,L|235:206,1,107.999996704102,4|10,0:0|0:3,0:0:0:0:
166,257,67084,1,8,0:3:0:0:
332,152,67247,1,6,0:0:0:0:
349,296,67411,1,10,0:3:0:0:
437,98,67574,5,8,0:0:0:0:
128,340,67900,1,10,0:0:0:0:
237,94,68226,2,0,L|247:220,1,107.999996704102,10|0,0:3|0:0,0:0:0:0:
349,296,68552,2,0,L|359:170,1,107.999996704102,10|8,0:3|0:0,0:0:0:0:
175,14,68878,6,0,P|134:42|62:35,1,107.999996704102,6|0,0:0|0:0,0:0:0:0:
0,191,69204,2,0,P|53:189|97:218,1,107.999996704102,8|0,0:0|0:0,0:0:0:0:
199,344,69530,1,8,0:3:0:0:
289,224,69693,1,8,0:3:0:0:
207,353,69856,1,10,0:0:0:0:
364,364,70019,1,2,0:0:0:0:
473,192,70182,6,0,L|341:180,1,107.999996704102,8|0,0:3|0:0,0:0:0:0:
277,41,70508,2,0,L|409:29,1,107.999996704102,8|0,0:0|0:0,0:0:0:0:
214,193,70834,1,8,0:3:0:0:
153,61,70997,1,8,0:3:0:0:
203,201,71161,1,10,0:0:0:0:
18,141,71324,1,8,0:0:0:0:
143,313,71487,6,0,P|211:275|315:313,1,180,6|0,0:0|0:0,0:0:0:0:
304,302,71976,1,8,0:3:0:0:
491,189,72139,2,0,P|479:247|443:295,1,90,10|8,0:0|0:3,0:0:0:0:
358,187,72465,2,0,P|301:205|242:198,1,90,8|8,0:0|0:3,0:0:0:0:
292,64,72791,5,10,0:0:0:0:
266,74,72900,1,8,0:0:0:0:
239,74,73008,1,8,0:0:0:0:
215,62,73117,2,8,P|197:33|210:-23,2,60,10|8|8,0:3|0:3|0:3,0:3:0:0:
167,139,73443,2,0,P|201:137|243:177,2,60,10|8|8,0:0|0:3|0:3,0:0:0:0:
123,60,73769,1,10,0:0:0:0:
86,189,73932,1,8,0:0:0:0:
12,37,74095,6,0,P|28:84|32:123,1,80.9999975280763,6|0,0:0|0:0,0:0:0:0:
86,189,74421,2,0,P|84:246|66:293,1,80.9999975280763,2|8,0:0|0:3,0:0:0:0:
22,342,74747,2,0,P|75:299|180:348,1,161.999995056153,10|2,0:0|0:0,0:0:0:0:
160,319,75237,1,0,0:0:0:0:
286,271,75400,5,10,0:3:0:0:
248,354,75563,2,0,L|441:341,1,161.999995056153,8|8,0:0|0:3,0:0:0:0:
457,222,76052,1,10,0:0:0:0:
490,302,76215,1,0,0:0:0:0:
369,232,76378,1,2,0:0:0:0:
457,222,76541,1,10,0:0:0:0:
481,96,76704,6,0,L|302:108,2,161.999995056153,2|2|10,0:0|0:0|0:0,0:0:0:0:
481,96,77519,1,2,0:0:0:0:
435,15,77682,2,0,L|341:21,1,80.9999975280763,2|8,0:0|0:0,0:0:0:0:
180,74,78008,5,10,0:3:0:0:
254,23,78171,2,0,L|263:195,1,161.999995056153,8|0,0:0|0:0,0:0:0:0:
187,254,78661,2,0,P|242:262|275:290,1,80.9999975280763,10|2,0:0|0:0,0:0:0:0:
287,358,78987,1,0,0:0:0:0:
338,221,79150,1,10,0:0:0:0:
136,340,79313,5,4,0:0:0:0:
464,64,80617,5,4,0:0:0:0:
45,88,81921,5,10,0:0:0:0:
280,168,82084,1,8,0:3:0:0:
59,83,82247,5,10,0:0:0:0:
80,292,82411,1,8,0:3:0:0:
235,70,82574,5,10,0:0:0:0:
176,252,82737,1,8,0:3:0:0:
351,92,82900,5,10,0:0:0:0:
152,164,83063,1,8,0:3:0:0:
313,304,83226,5,14,0:0:0:0:
152,164,83389,1,8,0:3:0:0:
180,376,83552,1,0,0:0:0:0:
282,219,83715,1,2,0:0:0:0:
282,219,83796,1,0,0:0:0:0:
282,219,83878,2,0,P|324:213|378:239,1,80.9999975280763,8|0,0:0|0:0,0:0:0:0:
504,140,84204,2,0,P|462:146|408:120,1,80.9999975280763,2|10,0:0|0:0,0:0:0:0:
209,34,84530,6,0,L|404:27,1,180,6|8,0:0|0:0,0:0:0:0:
504,140,85019,1,0,0:0:0:0:
414,203,85182,2,8,P|394:146|405:97,1,90,8|8,0:3|0:3,0:3:0:0:
512,249,85508,2,0,P|472:294|424:309,1,90,8|2,0:0|0:0,0:0:0:0:
294,234,85834,5,8,0:3:0:0:
354,304,85997,1,0,0:0:0:0:
294,234,86161,2,0,P|247:231|198:250,1,90,10|0,0:0|0:0,0:0:0:0:
50,194,86487,2,8,P|97:191|146:210,1,90,10|8,0:3|0:3,0:3:0:0:
294,146,86813,2,0,P|247:143|198:162,1,90,10|0,0:0|0:0,0:0:0:0:
41,43,87139,6,0,P|96:82|208:23,1,180,10|8,0:3|0:0,0:0:0:0:
194,47,87628,1,0,0:0:0:0:
294,146,87791,2,8,L|284:269,1,90,10|8,0:3|0:3,0:3:0:0:
194,297,88117,1,8,0:0:0:0:
13,253,88280,6,0,P|76:198|188:249,1,180,2|0,0:0|0:0,0:0:0:0:
278,325,88769,2,0,L|287:221,1,90,10|0,0:0|0:0,0:0:0:0:
368,75,89095,2,8,L|377:179,1,90,10|10,0:3|0:3,0:3:0:0:
456,315,89421,1,10,0:0:0:0:
481,151,89584,1,10,0:0:0:0:
356,358,89747,6,0,P|312:327|247:335,1,90,6|0,0:0|0:0,0:0:0:0:
200,368,90074,1,8,0:3:0:0:
6,302,90237,2,0,P|50:333|114:325,1,90,8|0,0:0|0:0,0:0:0:0:
205,284,90564,1,8,0:0:0:0:
169,103,90726,6,0,L|165:215,1,90,4|0,0:0|0:0,0:0:0:0:
249,30,91052,1,10,0:3:0:0:
300,187,91215,1,8,0:0:0:0:
372,24,91378,1,2,0:0:0:0:
275,109,91541,1,0,0:0:0:0:
437,177,91704,5,10,0:0:0:0:
382,20,91867,1,8,0:0:0:0:
492,95,92030,1,10,0:3:0:0:
386,255,92193,1,8,0:0:0:0:
275,109,92356,6,0,L|179:104,1,90,6|0,0:0|0:0,0:0:0:0:
7,52,92682,1,8,0:0:0:0:
26,200,92845,1,0,0:0:0:0:
110,25,93008,1,8,0:0:0:0:
130,225,93171,1,0,0:0:0:0:
7,52,93334,1,8,0:0:0:0:
205,118,93497,1,0,0:0:0:0:
50,299,93661,5,6,0:0:0:0:
271,231,93987,1,2,0:1:0:0:
211,304,94150,1,2,0:1:0:0:
208,303,94231,1,2,0:1:0:0:
205,302,94313,1,2,0:1:0:0:
271,231,94476,1,2,0:1:0:0:
352,374,94639,1,8,0:0:0:0:
411,174,94965,6,0,L|420:330,1,144,6|8,0:0|0:0,0:0:0:0:
352,374,95454,1,0,0:0:0:0:
281,324,95617,2,8,P|267:285|291:235,1,72,10|8,0:3|0:3,0:3:0:0:
316,180,95943,2,0,P|330:145|309:93,1,72,8|0,0:0|0:0,0:0:0:0:
272,42,96269,6,0,P|336:82|420:65,1,144,10|0,0:3|0:0,0:0:0:0:
476,32,96758,2,0,L|481:127,1,72,0|10,0:0|0:3,0:0:0:0:
415,162,97084,2,0,L|410:257,1,72,8|8,0:3|0:0,0:0:0:0:
436,317,97411,6,0,P|395:305|354:313,1,72,0|10,0:0|0:3,0:0:0:0:
302,366,97737,1,0,0:0:0:0:
236,309,97900,2,0,P|160:334|89:302,2,144,8|10|8,0:0|0:3|0:0,0:0:0:0:
306,258,98715,1,0,0:0:0:0:
306,258,98878,6,0,L|303:178,1,72,2|0,0:0|0:0,0:0:0:0:
221,157,99204,1,10,0:0:0:0:
228,70,99367,1,8,0:3:0:0:
221,157,99530,2,0,L|216:242,1,72,8|0,3:2|0:0,0:0:0:0:
137,194,99856,1,10,0:3:0:0:
4,248,100019,1,8,0:0:0:0:
14,155,100182,6,0,L|24:10,2,144,10|8|10,0:3|0:0|0:3,0:0:0:0:
64,226,100997,1,8,0:3:0:0:
13,297,101161,2,0,P|51:300|93:319,1,72,8|0,0:0|0:0,0:0:0:0:
146,370,101487,6,0,L|302:366,1,144,10|8,0:3|0:0,0:0:0:0:
375,377,101976,2,0,P|367:337|378:291,1,72,0|10,0:0|0:3,0:0:0:0:
413,231,102302,1,8,0:3:0:0:
463,160,102465,2,0,P|479:121|470:75,1,72,8|0,0:0|0:0,0:0:0:0:
412,33,102791,6,0,L|268:36,1,144,10|8,0:3|0:0,0:0:0:0:
206,96,103280,1,0,0:0:0:0:
131,51,103443,2,8,P|119:93|126:136,1,72,10|8,0:3|0:3,0:3:0:0:
181,182,103769,1,8,0:0:0:0:
153,264,103932,1,8,0:0:0:0:
155,266,104014,1,8,0:0:0:0:
157,268,104095,5,2,0:1:0:0:
217,315,104258,2,0,L|214:354,2,26.9999991760254,2|2|2,0:1|0:1|0:1,0:1:0:0:
282,273,104584,2,0,L|279:234,2,26.9999991760254,2|2|2,0:1|0:1|0:1,0:1:0:0:
345,340,104911,1,2,0:1:0:0:
343,342,104993,1,2,0:1:0:0:
342,343,105074,6,0,P|364:336|392:340,1,40.4999987640381
423,349,105400,6,0,P|386:272|464:221,1,180,6|8,0:0|0:0,0:0:0:0:
512,128,105889,1,0,0:0:0:0:
361,97,106052,1,10,0:3:0:0:
429,148,106215,1,8,0:3:0:0:
360,11,106378,2,0,L|240:18,1,90,8|0,0:0|0:0,0:0:0:0:
109,71,106704,6,0,P|192:54|226:130,1,180,2|8,0:0|0:0,0:0:0:0:
36,130,107193,2,0,L|26:22,1,90,0|10,0:0|0:3,0:0:0:0:
106,188,107519,1,8,0:3:0:0:
226,128,107682,2,0,L|215:236,1,90,8|0,0:0|0:0,0:0:0:0:
116,282,108008,5,10,0:3:0:0:
106,188,108171,1,8,0:3:0:0:
206,294,108334,2,0,L|302:301,1,90,8|0,0:0|0:0,0:0:0:0:
434,360,108661,2,8,L|335:367,1,90,10|8,0:3|0:3,0:3:0:0:
366,198,108987,2,0,L|373:300,1,90,8|0,0:0|0:0,0:0:0:0:
494,113,109313,5,6,0:0:0:0:
471,223,109476,1,0,0:0:0:0:
388,90,109639,2,0,L|394:0,1,90,8|0,0:0|0:0,0:0:0:0:
279,158,109965,2,0,L|287:254,1,90,6|0,0:0|0:0,0:0:0:0:
203,42,110291,1,8,0:0:0:0:
144,226,110454,1,8,0:0:0:0:
16,74,110617,6,0,P|92:64|148:166,1,180,6|8,0:0|0:0,0:0:0:0:
73,183,111106,1,0,0:0:0:0:
185,293,111269,2,8,L|298:288,1,90,10|8,0:3|0:3,0:3:0:0:
355,205,111595,1,8,0:0:0:0:
399,294,111758,1,0,0:0:0:0:
437,149,111921,5,10,0:3:0:0:
355,205,112084,1,0,0:0:0:0:
298,68,112247,2,0,L|201:60,1,90,8|0,0:0|0:0,0:0:0:0:
140,167,112574,1,10,0:3:0:0:
223,180,112737,1,8,0:3:0:0:
46,67,112900,2,0,L|56:171,1,90,8|0,0:0|0:0,0:0:0:0:
68,321,113226,6,0,L|86:214,1,90,6|0,0:0|0:0,0:0:0:0:
194,108,113552,1,8,0:0:0:0:
292,257,113715,1,8,0:3:0:0:
374,100,113878,1,10,0:0:0:0:
200,218,114041,2,0,L|207:312,1,90,8|8,0:0|0:3,0:0:0:0:
293,352,114367,1,8,0:3:0:0:
485,297,114530,6,0,P|432:278|378:292,1,90,2|8,0:0|0:3,0:0:0:0:
293,352,114856,1,8,0:0:0:0:
313,254,115019,1,0,0:0:0:0:
152,312,115182,1,10,0:3:0:0:
152,312,115345,1,8,0:3:0:0:
200,76,115508,1,8,0:0:0:0:
57,222,115671,1,8,0:0:0:0:
312,164,115834,6,0,L|150:157,1,161.999995056153,6|8,0:0|0:3,0:0:0:0:
16,64,116324,2,0,P|64:48|112:64,1,80.9999975280763,10|0,0:0|0:0,0:0:0:0:
92,53,116650,1,8,0:0:0:0:
104,212,116813,6,0,B|88:252|88:252|64:124,1,161.999995056153,6|8,0:0|0:3,0:0:0:0:
180,308,117302,2,0,P|104:288|36:348,1,161.999995056153,8|8,0:0|0:3,0:0:0:0:
248,228,117791,1,8,0:0:0:0:
268,376,117954,1,10,0:0:0:0:
348,192,118117,1,8,0:3:0:0:
180,308,118280,1,10,0:0:0:0:
416,344,118443,6,0,P|424:304|408:260,1,80.9999975280763,6|0,0:0|0:0,0:0:0:0:
348,192,118769,1,10,0:3:0:0:
280,40,118932,2,0,P|272:80|288:124,1,80.9999975280763,10|0,0:0|0:0,0:0:0:0:
348,192,119258,1,10,0:0:0:0:
512,24,119421,6,0,L|424:28,1,80.9999975280763,6|0,0:0|0:0,0:0:0:0:
348,76,119747,1,8,0:3:0:0:
485,182,119911,2,0,P|447:155|339:210,1,161.999995056153,8|8,0:0|0:3,0:0:0:0:
498,302,120400,1,8,0:0:0:0:
293,369,120563,2,0,L|463:374,1,161.999995056153,4|8,0:0|0:0,0:0:0:0:
227,196,121052,6,0,P|257:270|187:327,1,161.999995056153,6|8,0:0|0:3,0:0:0:0:
34,320,121541,2,0,L|126:310,1,80.9999975280763,10|0,0:0|0:0,0:0:0:0:
114,311,121867,1,8,0:0:0:0:
123,142,122030,6,0,B|98:109|98:109|112:254,1,161.999995056153,6|8,0:0|0:3,0:0:0:0:
22,99,122519,2,0,P|53:47|168:77,1,161.999995056153,8|8,0:0|0:3,0:0:0:0:
280,148,123008,1,8,0:0:0:0:
306,6,123171,1,10,0:0:0:0:
378,143,123334,1,2,0:0:0:0:
216,21,123497,1,10,0:0:0:0:
130,199,123661,6,0,L|116:298,1,80.9999975280763,6|0,0:0|0:0,0:0:0:0:
207,359,123987,1,8,0:0:0:0:
32,221,124150,1,10,0:3:0:0:
270,192,124313,5,8,0:0:0:0:
47,355,124476,1,8,0:3:0:0:
338,326,124639,1,8,0:0:0:0:
162,117,124802,1,8,0:3:0:0:
242,370,124965,5,10,0:0:0:0:
286,103,125128,1,8,0:0:0:0:
249,376,125291,5,8,0:0:0:0:
295,100,125454,1,8,0:0:0:0:
255,381,125617,5,8,0:0:0:0:
304,96,125780,1,8,0:0:0:0:
512,263,125943,2,0,L|412:267,1,80.9999975280763,10|0,0:0|0:0,0:0:0:0:
127,185,126269,6,0,P|166:156|251:187,1,107.999996704102,6|0,0:0|0:0,0:0:0:0:
337,346,126595,2,0,P|298:375|213:344,1,107.999996704102,10|0,0:0|0:0,0:0:0:0:
365,164,126921,1,10,0:3:0:0:
274,298,127084,1,8,0:3:0:0:
476,179,127247,1,10,0:0:0:0:
247,81,127411,1,2,0:0:0:0:
437,263,127574,6,0,L|431:375,1,107.999996704102,8|0,0:3|0:0,0:0:0:0:
274,298,127900,2,0,L|280:186,1,107.999996704102,10|0,0:0|0:0,0:0:0:0:
367,15,128226,1,10,0:3:0:0:
419,137,128389,1,8,0:3:0:0:
247,81,128552,2,0,L|114:93,1,107.999996704102,10|2,0:0|0:0,0:0:0:0:
19,288,128878,6,0,P|85:284|127:324,1,107.999996704102,8|0,0:3|0:0,0:0:0:0:
319,188,129204,2,0,P|263:224|207:210,1,107.999996704102,8|0,0:0|0:0,0:0:0:0:
65,80,129530,1,10,0:3:0:0:
134,232,129693,1,8,0:3:0:0:
181,39,129856,1,10,0:0:0:0:
23,176,130019,1,2,0:0:0:0:
262,108,130182,6,0,L|397:117,1,107.999996704102,8|0,0:3|0:0,0:0:0:0:
491,331,130508,2,0,L|356:322,1,107.999996704102,10|0,0:0|0:0,0:0:0:0:
238,224,130834,1,10,0:3:0:0:
286,374,130997,1,8,0:3:0:0:
343,178,131161,1,10,0:0:0:0:
175,352,131324,1,10,0:0:0:0:
114,139,131487,6,0,L|242:127,1,107.999996704102,4|0,0:0|0:0,0:0:0:0:
77,257,131813,1,8,0:0:0:0:
8,88,131976,1,0,0:0:0:0:
184,244,132139,2,8,L|174:362,1,107.999996704102,10|8,0:3|0:3,0:3:0:0:
5,183,132465,1,8,0:0:0:0:
45,349,132628,1,0,0:0:0:0:
249,182,132791,6,0,P|198:157|140:169,1,107.999996704102,10|0,0:3|0:0,0:0:0:0:
45,349,133117,2,0,P|96:374|154:362,1,107.999996704102,8|0,0:0|0:0,0:0:0:0:
351,236,133443,5,6,0:0:0:0:
252,358,133606,1,0,0:3:0:0:
317,131,133769,5,6,0:0:0:0:
391,351,133932,1,0,0:3:0:0:
512,150,134095,6,0,L|382:137,1,107.999996704102,6|0,0:0|0:0,0:0:0:0:
234,48,134421,1,10,0:0:0:0:
430,25,134584,1,8,0:0:0:0:
223,180,134747,1,10,0:3:0:0:
340,5,134911,1,8,0:0:0:0:
367,212,135074,1,2,0:0:0:0:
139,96,135237,1,8,0:0:0:0:
139,96,135318,1,8,0:0:0:0:
139,96,135400,6,0,L|18:91,1,107.999996704102,6|0,0:0|0:0,0:0:0:0:
223,180,135726,1,8,0:0:0:0:
46,223,135889,1,10,0:0:0:0:
263,273,136052,1,10,0:3:0:0:
139,96,136215,1,8,0:0:0:0:
92,331,136378,1,8,0:0:0:0:
40,129,136541,1,8,0:3:0:0:
27,135,136622,1,8,0:3:0:0:
20,144,136704,5,6,0:0:0:0:
92,331,136867,1,0,0:0:0:0:
149,55,137030,5,10,0:0:0:0:
54,254,137193,1,0,0:0:0:0:
300,52,137356,5,10,0:0:0:0:
79,170,137519,1,10,0:3:0:0:
420,171,137682,5,10,0:0:0:0:
157,133,137845,1,10,0:3:0:0:
426,157,138008,5,8,0:0:0:0:
172,271,138171,1,0,0:0:0:0:
339,37,138334,5,10,0:0:0:0:
316,295,138497,1,0,0:0:0:0:
318,54,138661,5,10,0:0:0:0:
335,282,138824,1,10,0:3:0:0:
297,74,138987,5,10,0:0:0:0:
356,268,139150,1,10,0:3:0:0:
132,131,139313,6,0,L|266:141,1,107.999996704102,4|0,0:0|0:0,0:0:0:0:
297,74,139639,1,8,0:3:0:0:
463,259,139802,2,0,L|329:269,1,107.999996704102,4|2,0:0|0:0,0:0:0:0:
298,202,140128,1,8,0:3:0:0:
177,348,140291,1,6,0:0:0:0:
286,361,140454,1,2,0:0:0:0:
84,279,140617,5,8,0:0:0:0:
310,30,140943,1,8,0:0:0:0:
34,165,141269,2,8,P|86:148|147:171,1,107.999996704102,10|8,0:3|0:3,0:3:0:0:
324,256,141595,2,0,P|272:270|222:253,1,107.999996704102,2|8,0:0|0:0,0:0:0:0:
411,45,141921,6,0,L|421:178,1,107.999996704102,6|0,0:0|0:0,0:0:0:0:
479,355,142247,1,8,0:0:0:0:
497,238,142411,1,0,0:0:0:0:
351,346,142574,2,8,L|241:356,1,107.999996704102,8|8,0:3|0:3,0:3:0:0:
26,258,142900,1,10,0:0:0:0:
85,356,143063,1,2,0:0:0:0:
178,272,143226,6,0,P|241:250|316:280,1,107.999996704102,8|0,0:3|0:0,0:0:0:0:
150,89,143552,2,0,P|87:111|12:81,1,107.999996704102,8|0,0:0|0:0,0:0:0:0:
226,9,143878,1,8,0:3:0:0:
257,122,144041,1,8,0:3:0:0:
116,193,144204,1,10,0:0:0:0:
235,14,144367,1,8,0:0:0:0:
348,238,144530,6,0,L|363:53,1,180,6|0,0:0|0:0,0:0:0:0:
362,58,145019,1,8,0:3:0:0:
510,140,145182,2,0,L|502:244,1,90,10|0,0:0|0:0,0:0:0:0:
423,290,145508,2,0,L|431:186,1,90,8|0,0:0|0:0,0:0:0:0:
314,202,145834,5,10,0:0:0:0:
280,217,145943,1,8,0:0:0:0:
243,211,146052,1,8,0:0:0:0:
214,188,146161,2,8,L|218:269,2,60,10|8|8,0:3|0:3|0:3,0:3:0:0:
142,131,146487,2,8,L|192:98,2,60,10|8|8,0:3|0:3|0:3,0:3:0:0:
134,216,146813,1,10,0:0:0:0:
62,97,146976,1,8,0:0:0:0:
26,266,147139,6,0,P|64:268|119:312,1,80.9999975280763,6|0,0:0|0:0,0:0:0:0:
173,365,147465,2,0,P|213:333|259:324,1,80.9999975280763,2|8,0:0|0:3,0:0:0:0:
341,360,147791,2,0,B|363:265|305:290|327:177,1,161.999995056153,10|10,0:0|0:3,0:0:0:0:
323,202,148280,1,0,0:0:0:0:
372,47,148443,5,10,0:3:0:0:
397,163,148606,2,0,P|351:124|246:168,1,161.999995056153,8|8,0:0|0:3,0:0:0:0:
188,277,149095,1,10,0:0:0:0:
165,193,149258,1,0,0:0:0:0:
134,341,149421,2,0,P|173:356|234:350,1,80.9999975280763,2|0,0:0|0:0,0:0:0:0:
401,285,149747,6,0,P|352:256|264:311,2,161.999995056153,10|10|10,0:3|0:3|0:0,0:0:0:0:
401,285,150563,1,0,0:0:0:0:
495,200,150726,2,0,L|488:300,1,80.9999975280763,10|8,0:3|0:0,0:0:0:0:
411,153,151052,5,10,0:3:0:0:
485,65,151215,2,0,B|397:92|416:29|321:58,1,161.999995056153,8|8,0:0|0:3,0:0:0:0:
184,116,151704,2,0,P|241:111|281:135,1,80.9999975280763,10|0,0:0|0:0,0:0:0:0:
306,266,152030,1,0,0:0:0:0:
357,158,152193,1,8,0:0:0:0:
255,376,152356,5,4,0:0:0:0:
444,56,153661,5,4,0:0:0:0:
60,216,154965,5,10,0:0:0:0:
140,32,155128,1,0,0:0:0:0:
204,264,155291,5,10,0:0:0:0:
226,64,155454,1,0,0:0:0:0:
356,228,155617,5,10,0:0:0:0:
128,132,155780,1,0,0:0:0:0:
384,104,155943,5,10,0:0:0:0:
120,268,156106,1,0,0:0:0:0:
404,344,156269,5,14,0:0:0:0:
280,72,156432,1,0,0:0:0:0:
204,356,156595,1,8,0:0:0:0:
408,196,156758,1,2,0:0:0:0:
408,196,156840,1,0,0:0:0:0:
408,196,156921,2,0,L|312:192,1,80.9999975280763,10|0,0:0|0:0,0:0:0:0:
132,280,157247,1,10,0:0:0:0:
304,328,157411,1,10,0:0:0:0:
21,154,157574,6,0,L|37:334,1,161.999995056153,4|0,0:0|0:0,0:0:0:0:
124,104,158063,1,8,0:3:0:0:
221,258,158226,5,8,0:3:0:0:
35,315,158389,1,0,0:0:0:0:
274,153,158552,5,8,0:3:0:0:
170,351,158715,1,0,0:0:0:0:
235,53,158878,5,8,0:0:0:0:
347,321,159041,1,8,0:0:0:0:
348,12,159204,5,8,0:0:0:0:
88,242,159367,1,8,0:0:0:0:
430,222,159530,5,10,0:0:0:0:
36,28,159693,1,10,0:0:0:0:
484,33,159856,5,10,0:0:0:0:
90,227,160019,1,10,0:0:0:0:
264,72,160182,5,4,0:0:0:0:
207,136,169313,6,0,P|159:130|116:164,1,101.249996910095,2|0,0:0|0:0,0:0:0:0:
33,167,170617,6,0,P|51:211|183:218,1,180,6|8,0:0|0:0,0:0:0:0:
271,77,171106,1,2,0:0:0:0:
337,172,171269,2,8,L|468:178,1,90,8|8,0:3|0:3,0:3:0:0:
263,83,171595,1,10,0:0:0:0:
362,22,171758,1,2,0:0:0:0:
167,13,171921,5,8,0:3:0:0:
253,89,172084,2,0,L|243:199,1,90,2|8,0:0|0:0,0:0:0:0:
236,268,172411,1,0,0:0:0:0:
59,243,172574,2,8,P|107:215|172:233,1,90,10|8,0:3|0:3,0:3:0:0:
189,358,172900,2,0,P|141:386|76:368,1,90,10|2,0:0|0:0,0:0:0:0:
236,268,173226,6,0,B|343:238|311:308|444:268,1,180,10|8,0:3|0:0,0:0:0:0:
483,208,173715,1,0,0:0:0:0:
346,116,173878,2,8,P|410:107|455:140,1,90,8|8,0:3|0:3,0:3:0:0:
284,197,174204,1,10,0:0:0:0:
259,82,174367,1,2,0:0:0:0:
176,164,174530,6,0,L|185:273,1,90,10|0,0:3|0:0,0:0:0:0:
192,344,174856,1,10,0:0:0:0:
0,154,175019,2,0,P|24:207|19:264,1,90,10|0,0:3|0:0,0:0:0:0:
259,82,175345,2,0,P|274:25|315:-14,1,90,10|8,0:3|0:0,0:0:0:0:
293,1,175671,1,10,0:0:0:0:
439,193,175834,6,0,L|226:178,1,180,6|8,0:0|0:0,0:0:0:0:
181,138,176324,1,0,0:0:0:0:
37,190,176487,2,8,L|44:293,1,90,8|8,0:3|0:3,0:3:0:0:
193,311,176813,2,0,L|186:208,1,90,10|2,0:0|0:0,0:0:0:0:
181,138,177139,5,10,0:3:0:0:
323,71,177302,2,0,L|228:65,1,90,2|8,0:0|0:0,0:0:0:0:
288,217,177628,1,2,0:0:0:0:
459,128,177791,1,10,0:3:0:0:
484,281,177954,2,0,L|477:370,1,90,10|0,0:0|0:0,0:0:0:0:
471,133,178280,1,10,0:0:0:0:
390,313,178443,6,0,B|363:331|363:331|373:218,1,125.999996154785,6|0,0:0|0:0,0:0:0:0:
143,36,178932,1,8,0:0:0:0:
143,36,179014,1,8,0:0:0:0:
143,36,179095,6,0,P|207:61|281:15,1,144,6|0,0:0|0:0,0:0:0:0:
6,237,179584,1,8,0:0:0:0:
6,237,179666,1,8,0:0:0:0:
6,237,179747,6,0,B|105:214|69:268|172:241,1,161.999995056153,6|2,0:0|0:0,0:0:0:0:
382,273,180400,1,6,0:0:0:0:
247,193,180563,1,8,0:0:0:0:
359,356,180726,1,10,0:3:0:0:
335,148,180889,1,8,0:0:0:0:
231,339,181052,6,0,L|80:347,1,144,6|2,0:0|0:0,0:0:0:0:
87,346,181541,1,8,0:3:0:0:
31,216,181704,2,0,P|12:259|17:289,1,72,10|0,0:0|0:0,0:0:0:0:
131,212,182030,1,10,0:3:0:0:
78,123,182193,1,8,0:3:0:0:
206,23,182356,5,10,0:3:0:0:
254,177,182519,1,8,0:0:0:0:
377,86,182682,5,10,0:3:0:0:
283,86,182845,1,2,0:0:0:0:
330,231,183008,1,10,0:0:0:0:
405,176,183171,1,0,0:0:0:0:
283,86,183334,1,2,0:0:0:0:
254,177,183497,1,8,0:0:0:0:
331,319,183661,6,0,L|479:325,1,144,10|2,0:3|0:0,0:0:0:0:
474,324,184150,1,8,0:3:0:0:
354,233,184313,2,0,L|256:242,1,72,10|2,0:0|0:0,0:0:0:0:
163,298,184639,1,10,0:3:0:0:
247,336,184802,1,10,0:0:0:0:
62,209,184965,6,0,P|89:245|-1:270,1,161.999995056153,6|0,0:0|0:0,0:0:0:0:
413,51,185617,2,0,P|386:87|476:112,1,161.999995056153,6|0,0:0|0:0,0:0:0:0:
27,38,186269,6,0,P|94:18|194:92,1,180,6|8,0:0|0:0,0:0:0:0:
23,173,186758,1,0,0:0:0:0:
163,246,186921,2,8,P|104:263|57:245,1,90,8|8,0:3|0:3,0:3:0:0:
259,127,187247,2,0,P|318:141|350:180,1,90,8|0,0:0|0:0,0:0:0:0:
262,379,187574,6,0,B|237:260|302:317|269:188,1,180,10|8,0:3|0:0,0:0:0:0:
184,70,188063,1,0,0:0:0:0:
342,2,188226,2,8,P|346:56|323:104,1,90,8|8,0:3|0:3,0:3:0:0:
128,223,188552,2,0,P|151:174|195:144,1,90,8|0,0:0|0:0,0:0:0:0:
424,102,188878,5,6,0:0:0:0:
362,305,189041,1,0,0:0:0:0:
333,88,189204,5,8,0:0:0:0:
473,251,189367,1,8,0:3:0:0:
218,192,189530,5,10,0:0:0:0:
435,111,189693,1,10,0:3:0:0:
241,282,189856,5,8,0:0:0:0:
473,243,190019,1,10,0:3:0:0:
322,81,190182,5,6,0:0:0:0:
379,327,190345,1,8,0:3:0:0:
202,89,190508,1,0,0:0:0:0:
146,288,190671,1,8,0:0:0:0:
146,288,190753,1,8,0:0:0:0:
146,288,190834,1,8,0:0:0:0:
254,274,190997,1,10,0:0:0:0:
81,198,191161,1,8,0:3:0:0:
105,384,191324,1,10,0:0:0:0:
202,89,191487,6,0,B|222:53|222:53|241:191,1,161.999995056153,6|2,0:0|0:0,0:0:0:0:
238,172,191976,1,8,0:3:0:0:
389,136,192139,2,0,P|337:119|290:133,1,80.9999975280763,10|0,0:0|0:0,0:0:0:0:
333,214,192465,1,2,0:0:0:0:
481,138,192628,1,8,0:0:0:0:
430,234,192791,6,8,P|478:222|520:241,2,80.9999975280763,10|8|10,0:3|0:3|0:3,0:3:0:0:
291,279,193443,1,10,0:0:0:0:
323,358,193606,1,0,0:0:0:0:
373,295,193769,1,10,0:3:0:0:
242,346,193932,1,8,0:0:0:0:
261,205,194095,6,0,L|273:115,1,80.9999975280763,10|0,0:3|0:0,0:0:0:0:
206,26,194421,2,0,L|194:116,1,80.9999975280763,10|2,0:3|0:0,0:0:0:0:
108,179,194747,2,0,L|118:98,1,80.9999975280763,10|2,0:0|0:0,0:0:0:0:
52,8,195074,1,10,0:3:0:0:
26,161,195237,1,8,0:0:0:0:
114,261,195400,6,8,P|166:248|213:275,2,80.9999975280763,10|8|10,0:3|0:3|0:3,0:3:0:0:
280,360,196052,1,10,0:0:0:0:
280,360,196215,1,0,0:0:0:0:
190,352,196378,1,10,0:3:0:0:
339,290,196541,1,8,0:0:0:0:
354,87,196704,6,0,B|331:52|331:52|319:171,1,161.999995056153,6|2,0:0|0:0,0:0:0:0:
319,171,197193,1,8,0:3:0:0:
172,148,197356,2,0,P|211:121|255:126,1,80.9999975280763,10|0,0:0|0:0,0:0:0:0:
164,234,197682,1,10,0:3:0:0:
91,118,197845,1,8,0:0:0:0:
71,240,198008,6,8,P|34:219|-17:231,2,80.9999975280763,10|8|10,0:3|0:3|0:3,0:3:0:0:
212,363,198661,1,10,0:0:0:0:
259,279,198824,1,0,0:0:0:0:
169,283,198987,1,10,0:3:0:0:
303,357,199150,1,8,0:0:0:0:
311,207,199313,5,4,0:0:0:0:
303,198,199965,5,10,0:3:0:0:
334,295,200291,1,8,0:3:0:0:
412,123,200617,5,10,0:3:0:0:
460,277,200943,1,8,0:3:0:0:
297,61,201269,5,10,0:3:0:0:
238,276,201595,1,8,0:3:0:0:
169,7,201921,5,4,0:0:0:0:
0,152,202084,1,8,0:0:0:0:
217,182,202247,1,8,0:0:0:0:
106,75,202411,5,8,0:3:0:0:
309,184,202574,1,8,0:0:0:0:
101,272,202737,1,8,0:0:0:0:
283,333,202900,5,8,0:3:0:0:
122,173,203063,1,8,0:0:0:0:
378,113,203226,5,8,0:0:0:0:
324,139,203334,1,8,0:3:0:0:
309,184,203443,1,8,0:3:0:0:
320,215,203552,2,8,P|347:226|392:222,2,53.9999983520508,8|8|8,0:3|0:3|0:3,0:3:0:0:
141,227,203878,5,8,0:0:0:0:
178,257,203987,1,8,0:3:0:0:
185,286,204095,1,8,0:3:0:0:
180,303,204204,2,8,P|156:319|124:318,2,53.9999983520508,8|8|8,0:3|0:3|0:3,0:3:0:0:
388,343,204530,5,4,0:3:0:0:
300,185,205182,1,2,0:0:0:0:
512,24,205834,5,2,0:0:0:0:
445,267,206486,1,2,0:1:0:0:
0,383,207139,5,4,0:3:0:0:
285,262,207791,1,2,0:0:0:0:
1,3,208443,5,4,0:3:0:0:
99,256,209095,1,2,0:0:0:0:
475,51,209747,5,6,0:0:0:0:
387,204,210074,2,0,L|400:258,1,45,8|0,0:3|0:0,0:0:0:0:
388,169,210400,2,0,L|426:209,1,45,10|0,0:3|0:0,0:0:0:0:
380,135,210726,2,0,L|433:150,1,45,8|0,0:3|0:0,0:0:0:0:
227,126,211052,6,0,L|211:178,1,45,10|0,0:3|0:0,0:0:0:0:
214,97,211378,2,0,L|174:134,1,45,8|0,0:3|0:0,0:0:0:0:
215,69,211704,6,0,L|145:82,1,62.9999980773926,10|0,0:3|0:0,0:0:0:0:
239,31,212030,2,0,L|136:9,1,90,10|8,0:3|0:3,0:0:0:0:
51,249,212356,5,6,0:0:0:0:
54,259,212682,5,10,0:3:0:0:
281,307,212845,1,0,0:0:0:0:
20,348,213008,5,10,0:3:0:0:
302,192,213171,1,8,0:0:0:0:
80,86,213334,5,10,0:0:0:0:
181,373,213497,1,8,0:0:0:0:
236,34,213661,6,0,P|270:72|344:63,1,126,2|0,0:1|0:0,0:0:0:0:
440,16,214965,5,6,0:0:0:0:
487,229,215128,1,0,0:0:0:0:
339,66,215291,5,10,0:0:0:0:
339,321,215454,1,0,0:0:0:0:
236,34,215617,5,10,0:0:0:0:
159,304,215780,1,8,0:3:0:0:
64,52,215943,5,10,0:0:0:0:
346,211,216106,1,10,0:3:0:0:
6,159,216269,5,8,0:0:0:0:
337,80,216432,1,0,0:0:0:0:
5,293,216595,5,10,0:0:0:0:
236,34,216758,1,0,0:0:0:0:
114,369,216921,5,10,0:0:0:0:
156,92,217084,1,8,0:3:0:0:
285,375,217247,5,10,0:0:0:0:
112,173,217411,1,10,0:3:0:0:
410,143,217574,6,0,L|426:36,1,107.999996704102,4|0,0:0|0:0,0:0:0:0:
456,224,217900,1,8,0:0:0:0:
222,159,218063,2,0,L|239:278,1,107.999996704102,4|2,0:0|0:0,0:0:0:0:
149,98,218389,1,8,0:0:0:0:
375,224,218552,1,6,0:0:0:0:
180,368,218715,1,2,0:0:0:0:
325,315,218878,6,0,L|461:303,1,107.999996704102,8|0,0:0|0:0,0:0:0:0:
148,138,219204,2,0,L|12:126,1,107.999996704102,10|0,0:0|0:0,0:0:0:0:
362,31,219530,1,10,0:3:0:0:
332,124,219693,1,0,0:0:0:0:
428,107,219856,1,10,0:0:0:0:
263,54,220019,1,8,0:0:0:0:
357,254,220182,6,0,P|411:237|482:281,1,107.999996704102,6|0,0:0|0:0,0:0:0:0:
277,365,220508,1,8,0:0:0:0:
251,167,220671,1,0,0:0:0:0:
102,295,220834,2,8,P|155:323|215:313,1,107.999996704102,8|8,0:3|0:3,0:3:0:0:
5,184,221161,1,10,0:0:0:0:
39,365,221324,1,2,0:0:0:0:
170,228,221487,6,0,L|191:101,1,107.999996704102,8|0,0:3|0:0,0:0:0:0:
31,19,221813,1,8,0:0:0:0:
97,122,221976,1,0,0:0:0:0:
292,38,222139,2,8,L|275:157,1,107.999996704102,8|8,0:3|0:3,0:3:0:0:
493,251,222465,1,10,0:0:0:0:
408,79,222628,1,8,0:0:0:0:
349,351,222791,6,0,P|437:332|508:397,1,180,6|0,0:0|0:0,0:0:0:0:
502,384,223280,1,8,0:3:0:0:
252,205,223443,6,0,B|226:313|283:273|255:395,1,180,6|8,0:0|0:0,0:0:0:0:
258,382,223932,1,0,0:0:0:0:
5,342,224095,6,0,B|28:341|47:322|47:322|108:371|192:322,1,180,6|2,0:0|0:0,0:0:0:0:
171,332,224584,1,0,0:0:0:0:
129,141,224747,1,10,0:0:0:0:
278,313,224911,1,8,0:0:0:0:
244,116,225074,1,10,0:0:0:0:
98,249,225237,1,8,0:0:0:0:
207,225,225400,5,4,0:0:0:0:
390,167,225726,2,0,P|378:194|382:222,1,45
395,231,226052,1,2,0:0:0:0:
333,288,226378,2,0,P|350:311|376:322,1,45
390,315,226704,1,2,0:0:0:0:
468,349,227030,1,0,0:0:0:0:
500,223,227356,2,0,L|496:178,1,45,2|0,0:0|0:0,0:0:0:0:
471,149,227682,2,0,L|475:104,1,45
501,68,228008,5,2,0:1:0:0:
382,24,228334,2,0,P|394:52|392:73,1,45
383,88,228660,1,2,0:0:0:0:
296,76,228987,2,0,P|277:100|258:109,1,45
239,97,229313,2,0,P|208:93|191:81,2,45,2|0|0,0:0|0:0|0:0,0:0:0:0:
139,154,229802,1,0,0:0:0:0:
139,154,229965,6,0,P|110:157|80:212,1,94.4999971160889,2|0,0:0|0:0,0:0:0:0:
120,313,230617,5,4,0:0:0:0:
448,36,231921,5,4,0:0:0:0:
400,360,233226,5,10,0:0:0:0:
447,141,233389,1,0,0:0:0:0:
295,351,233552,5,10,0:0:0:0:
274,59,233715,1,0,0:0:0:0:
196,355,233878,5,10,0:0:0:0:
88,37,234041,1,8,0:3:0:0:
41,342,234204,5,10,0:0:0:0:
367,180,234367,1,10,0:3:0:0:
24,145,234530,5,14,0:0:0:0:
367,359,234693,1,8,0:0:0:0:
304,29,234856,5,8,0:0:0:0:
135,267,235019,1,2,0:0:0:0:
135,267,235101,1,0,0:0:0:0:
135,267,235182,6,0,L|144:393,1,116.999994644165,10|8,0:0|0:3,0:0:0:0:
373,103,235508,1,8,0:0:0:0:
358,365,235671,1,10,0:0:0:0:
196,141,235834,6,0,P|123:172|7:110,1,198.000006042481,6|8,0:0|0:0,0:0:0:0:
114,45,236324,1,0,0:0:0:0:
287,102,236487,2,8,P|292:154|259:222,1,99.0000030212403,8|8,0:3|0:3,0:3:0:0:
104,291,236813,2,0,P|99:239|132:171,1,99.0000030212403,8|0,0:0|0:0,0:0:0:0:
251,334,237139,5,8,0:3:0:0:
113,374,237302,1,0,0:0:0:0:
251,334,237465,2,0,L|356:339,1,99.0000030212403,10|0,0:0|0:0,0:0:0:0:
503,241,237791,2,8,L|398:246,1,99.0000030212403,10|8,0:3|0:3,0:3:0:0:
297,146,238117,2,0,L|402:151,1,99.0000030212403,10|0,0:0|0:0,0:0:0:0:
499,17,238443,6,0,P|420:66|303:30,1,198.000006042481,10|8,0:3|0:0,0:0:0:0:
128,85,238932,1,0,0:0:0:0:
206,35,239095,2,8,P|218:93|191:155,1,99.0000030212403,10|8,0:3|0:3,0:3:0:0:
53,38,239421,1,8,0:0:0:0:
118,190,239584,6,0,L|340:176,1,198.000006042481,2|0,0:0|0:0,0:0:0:0:
486,224,240074,2,0,P|428:220|381:257,1,99.0000030212403,10|0,0:0|0:0,0:0:0:0:
275,311,240400,2,8,P|332:311|383:349,1,99.0000030212403,10|8,0:3|0:3,0:3:0:0:
242,196,240726,1,10,0:0:0:0:
189,370,240889,1,8,0:0:0:0:
18,130,241052,6,0,P|77:132|117:177,1,99.0000030212403,6|0,0:0|0:0,0:0:0:0:
154,244,241378,1,8,0:3:0:0:
330,222,241541,2,0,P|270:219|230:174,1,99.0000030212403,8|0,0:0|0:0,0:0:0:0:
183,65,241867,1,8,0:0:0:0:
395,33,242030,6,0,L|295:22,1,99.0000030212403,4|0,0:0|0:0,0:0:0:0:
496,154,242356,1,10,0:3:0:0:
330,222,242519,1,8,0:0:0:0:
390,335,242682,2,0,L|505:342,1,99.0000030212403,2|0,0:0|0:0,0:0:0:0:
315,210,243008,1,10,0:0:0:0:
178,382,243171,1,8,0:0:0:0:
160,265,243334,1,10,0:3:0:0:
380,326,243497,1,8,0:0:0:0:
246,96,243675,6,0,L|360:108,1,90,6|0,0:0|0:0,0:0:0:0:
493,58,243989,1,8,0:0:0:0:
435,239,244152,1,0,0:0:0:0:
395,36,244316,5,8,0:0:0:0:
447,237,244481,1,0,0:0:0:0:
247,175,244646,5,8,0:0:0:0:
407,342,244811,1,0,0:0:0:0:
149,329,244980,5,10,0:0:0:0:
437,149,245149,1,8,0:0:0:0:
58,128,245319,5,8,0:0:0:0:
320,383,245488,1,8,0:0:0:0:
205,27,245658,5,10,0:0:0:0:
43,358,245846,1,10,0:0:0:0:
354,13,246038,5,10,0:0:0:0:
504,384,246230,1,10,0:0:0:0:
256,190,247057,5,6,0:0:0:0:
256,192,247218,12,4,252218,0:0:0:0:
