osu file format v14

[General]
AudioFilename: audio.mp3
AudioLeadIn: 0
PreviewTime: 52737
Countdown: 0
SampleSet: Soft
StackLeniency: 0.4
Mode: 0
LetterboxInBreaks: 0
WidescreenStoryboard: 1

[Editor]
DistanceSpacing: 1.2
BeatDivisor: 4
GridSize: 4
TimelineZoom: 1

[Metadata]
Title:Daisy Blue
TitleUnicode:Daisy Blue
Artist:Kano
ArtistUnicode:鹿乃
Creator:Rieri
Version:Hard
Source:
Tags:アルストロメリア すこっぷ
BeatmapID:1802875
BeatmapSetID:850717

[Difficulty]
HPDrainRate:5
CircleSize:4
OverallDifficulty:7
ApproachRate:8
SliderMultiplier:1.4
SliderTickRate:1

[Events]
//Background and Video events
0,0,"bg55.jpg",0,0
//Break Periods
2,160382,169867
//Storyboard Layer 0 (Background)
//Storyboard Layer 1 (Fail)
//Storyboard Layer 2 (Pass)
//Storyboard Layer 3 (Foreground)
//Storyboard Layer 4 (Overlay)
//Storyboard Sound Samples

[TimingPoints]
-252,326.086956521739,4,2,1,50,1,0
1052,-100,4,2,1,30,0,0
10508,-100,4,2,1,20,0,0
11487,-100,4,2,2,60,0,0
21921,-125,4,3,1,40,0,0
31867,-100,4,2,2,40,0,0
32356,-100,4,2,2,50,0,0
42791,-100,4,2,2,50,0,0
52084,-100,4,2,1,50,0,0
53226,-90.9090909090909,4,2,2,70,0,1
63497,-90.9090909090909,4,2,2,70,0,0
63661,-90.9090909090909,4,2,2,70,0,1
71487,-90.9090909090909,4,2,2,70,0,1
74095,-100,4,2,2,60,0,0
84530,-100,4,2,2,50,0,0
94965,-125,4,2,2,40,0,0
104095,-100,4,2,2,50,0,0
105074,-100,4,3,1,50,0,0
105400,-100,4,2,2,50,0,0
115834,-100,4,2,2,50,0,0
126269,-90.9090909090909,4,2,2,70,0,1
136541,-90.9090909090909,4,2,2,70,0,0
136704,-90.9090909090909,4,2,2,70,0,1
144530,-90.9090909090909,4,2,2,70,0,1
147139,-100,4,2,2,50,0,0
160182,-100,4,2,1,50,0,0
169639,-100,4,2,1,10,0,0
170617,-100,4,2,2,50,0,0
178443,-125,4,2,2,50,0,0
181052,-100,4,2,2,50,0,0
184965,-125,4,2,2,50,0,0
186269,-100,4,2,2,50,0,0
191487,-111.111111111111,4,2,2,50,0,0
204530,-100,4,2,1,50,0,0
209747,-125,4,2,2,50,0,0
211704,-100,4,2,2,50,0,0
212030,-100,4,2,2,50,0,0
213661,-100,4,2,1,50,0,0
214965,-90.9090909090909,4,2,2,80,0,1
222791,-90.9090909090909,4,2,2,80,0,1
225400,-125,4,2,1,40,0,0
230291,-100,4,2,1,40,0,0
230617,-100,4,2,2,40,0,0
233226,-100,4,2,2,80,0,1
235834,-100,4,2,2,50,0,0
243675,314.13612565445,4,2,2,50,1,0
244152,329.67032967033,4,2,2,50,1,0
244811,338.983050847458,4,2,2,50,1,0
245658,377.358490566038,4,2,2,50,1,0
245846,384.615384615385,4,2,2,50,1,0
246230,413.793103448276,4,2,2,50,1,0
247057,645.161290322581,4,2,2,50,1,0
252218,-100,4,2,1,5,0,0

[Colours]
Combo1 : 222,136,255
Combo2 : 255,128,131
Combo3 : 244,255,117
Combo4 : 148,255,77
Combo5 : 89,255,189
Combo6 : 104,150,255

[HitObjects]
447,67,1052,5,2,0:1:0:0:
480,231,1704,1,0,0:0:0:0:
321,174,2356,1,2,0:0:0:0:
447,67,3008,1,0,0:0:0:0:
288,9,3661,5,2,0:1:0:0:
162,116,4313,1,0,0:0:0:0:
321,174,4965,5,2,0:0:0:0:
257,228,5291,1,0,0:0:0:0:
192,281,5617,1,2,0:0:0:0:
174,198,5943,1,0,0:0:0:0:
162,116,6269,5,2,0:1:0:0:
32,222,6921,1,0,0:0:0:0:
192,281,7574,1,2,0:0:0:0:
321,174,8226,1,0,0:0:0:0:
256,19,8878,1,4,0:0:0:0:
33,341,11487,6,0,P|87:309|171:333,1,140,6|8,0:0|0:0,0:0:0:0:
227,373,11976,1,0,0:0:0:0:
241,290,12139,2,0,L|231:197,1,70,8|8,0:3|0:3,0:0:0:0:
316,231,12465,2,0,L|326:324,1,70,8|0,0:0|0:0,0:0:0:0:
312,383,12791,5,8,0:3:0:0:
392,359,12954,1,8,0:3:0:0:
473,336,13117,2,0,P|486:295|480:263,1,70,10|0,0:0|0:0,0:0:0:0:
508,189,13443,2,0,P|478:157|448:146,1,70,10|8,0:3|0:3,0:0:0:0:
409,76,13769,2,0,P|366:85|342:106,1,70,10|0,0:0|0:0,0:0:0:0:
357,184,14095,6,0,L|204:178,1,140,2|8,0:0|0:0,0:0:0:0:
140,143,14584,1,0,0:0:0:0:
149,226,14747,2,0,L|159:307,1,70,10|8,0:3|0:3,0:0:0:0:
106,362,15074,1,8,0:0:0:0:
34,317,15237,6,0,P|72:285|171:308,1,140,2|0,0:0|0:0,0:0:0:0:
219,351,15726,2,0,P|256:369|304:363,1,70,10|0,0:0|0:0,0:0:0:0:
349,315,16052,2,0,P|386:308|427:332,1,70,10|8,0:3|0:3,0:0:0:0:
479,373,16378,1,10,0:0:0:0:
479,373,16541,1,8,0:0:0:0:
500,257,16704,6,0,L|496:183,1,70,6|0,0:0|0:0,0:0:0:0:
434,130,17030,1,8,0:3:0:0:
471,54,17193,2,0,P|426:76|329:53,1,140,8|8,0:0|0:0,0:0:0:0:
265,22,17682,2,0,P|214:10|169:28,1,70,4|0,0:0|0:0,0:0:0:0:
126,57,18008,5,10,0:3:0:0:
46,30,18171,1,8,0:0:0:0:
126,57,18334,2,0,L|128:132,1,70,2|0,0:0|0:0,0:0:0:0:
53,166,18661,1,10,0:0:0:0:
53,166,18824,1,8,0:0:0:0:
99,235,18987,2,0,L|102:319,1,70,10|8,0:3|0:0,0:0:0:0:
68,382,19313,6,0,P|116:387|153:369,1,70,6|0,0:0|0:0,0:0:0:0:
192,318,19639,1,8,0:0:0:0:
250,377,19802,1,0,0:0:0:0:
321,333,19965,2,0,L|400:337,1,70,8|0,0:0|0:0,0:0:0:0:
461,382,20291,1,8,0:0:0:0:
417,219,20617,5,6,0:0:0:0:
379,55,20943,1,2,0:1:0:0:
437,115,21106,2,0,L|474:122,2,35,2|2|2,0:1|0:1|0:1,0:0:0:0:
379,55,21432,1,8,0:3:0:0:
353,134,21595,1,8,0:0:0:0:
196,37,21921,6,0,L|78:30,2,112,14|8|8,0:0|0:0|0:0,0:0:0:0:
257,94,22737,1,0,0:0:0:0:
257,94,22900,2,0,P|248:129|257:169,1,56,8|0,0:0|0:0,0:0:0:0:
277,227,23226,2,0,P|240:196|165:204,1,112,10|8,0:0|0:0,0:0:0:0:
119,256,23715,2,0,L|123:335,1,56,0|10,0:0|0:0,0:0:0:0:
201,286,24041,2,0,L|197:365,1,56,0|8,0:0|0:0,0:0:0:0:
279,322,24367,1,0,0:0:0:0:
279,322,24530,6,0,P|322:315|355:329,1,56,10|0,0:0|0:0,0:0:0:0:
406,275,24856,2,0,P|414:328|378:394,2,112,8|8|8,0:0|0:0|0:0,0:0:0:0:
392,192,25671,1,0,0:0:0:0:
392,192,25753,1,0,0:0:0:0:
392,192,25834,2,0,L|387:124,1,56,10|0,0:0|0:0,0:0:0:0:
400,52,26161,2,0,P|356:65|332:63,1,56,10|0,0:0|0:0,0:0:0:0:
274,20,26487,2,0,P|218:5|154:37,1,112,10|10,0:0|0:0,0:0:0:0:
223,86,26976,1,0,0:0:0:0:
276,147,27139,6,0,L|405:134,2,112,10|8|10,0:0|0:0|0:0,0:0:0:0:
150,258,28117,2,0,P|149:304|162:331,1,56,8|0,0:0|0:0,0:0:0:0:
234,334,28443,2,0,L|361:324,1,112,10|8,0:0|0:0,0:0:0:0:
429,321,28932,1,0,0:0:0:0:
429,321,29095,2,0,P|446:250|423:205,1,112,10|8,0:0|0:0,0:0:0:0:
322,88,29747,6,0,L|209:84,2,112,10|8|10,0:0|0:0|0:0,0:0:0:0:
445,202,30726,1,8,0:0:0:0:
394,269,30889,1,0,0:0:0:0:
394,269,30970,1,0,0:0:0:0:
394,269,31052,1,10,0:0:0:0:
394,269,31867,5,8,0:3:0:0:
292,240,32030,1,8,0:0:0:0:
91,358,32356,6,0,L|85:278,1,70,6|0,0:0|0:0,0:0:0:0:
21,234,32682,2,0,P|94:250|142:205,1,140,8|8,0:0|0:3,0:0:0:0:
169,132,33171,1,8,0:3:0:0:
222,196,33334,2,0,L|219:287,1,70,8|0,0:0|0:0,0:0:0:0:
170,334,33661,6,0,P|223:303|301:338,1,140,2|8,0:0|0:0,0:0:0:0:
369,294,34150,1,0,0:0:0:0:
425,355,34313,2,0,P|473:350|505:327,1,70,8|8,0:3|0:3,0:0:0:0:
498,255,34639,2,0,L|488:178,1,70,8|0,0:0|0:0,0:0:0:0:
496,101,34965,6,0,P|442:121|371:72,1,140,10|8,0:3|0:0,0:0:0:0:
303,38,35454,1,0,0:0:0:0:
300,121,35617,2,0,L|296:216,1,70,8|8,0:3|0:3,0:0:0:0:
325,270,35943,2,0,P|290:275|257:264,1,70,8|0,0:0|0:0,0:0:0:0:
175,246,36269,6,0,P|131:238|84:256,1,70,10|0,0:3|0:0,0:0:0:0:
57,311,36595,2,0,L|65:160,1,140,8|10,0:0|0:3,0:0:0:0:
29,94,37084,1,8,0:3:0:0:
112,99,37247,1,8,0:0:0:0:
72,24,37411,1,8,0:0:0:0:
190,12,37574,6,0,L|335:23,1,140,6|8,0:0|0:0,0:0:0:0:
411,5,38063,2,0,P|402:42|408:79,1,70,0|8,0:0|0:3,0:0:0:0:
469,128,38389,1,8,0:3:0:0:
501,205,38552,2,0,P|508:247|495:286,1,70,8|0,0:0|0:0,0:0:0:0:
488,356,38878,6,0,P|454:347|418:349,1,70,10|0,0:3|0:0,0:0:0:0:
336,360,39204,2,0,L|192:367,1,140,10|8,0:0|0:3,0:0:0:0:
125,321,39693,1,8,0:3:0:0:
46,350,39856,2,0,P|41:306|52:277,1,70,8|0,0:0|0:0,0:0:0:0:
150,229,40182,6,0,L|322:235,1,140,6|8,0:0|0:0,0:0:0:0:
363,192,40671,1,8,0:3:0:0:
427,245,40834,1,10,0:0:0:0:
487,187,40997,2,0,P|492:147|488:111,1,70,8|0,0:0|0:0,0:0:0:0:
430,56,41324,1,10,0:3:0:0:
430,56,41487,6,0,L|338:63,1,70,0|10,0:0|0:0,0:0:0:0:
287,104,41813,2,0,L|203:98,1,70,8|0,0:3|0:0,0:0:0:0:
166,31,42139,1,10,0:0:0:0:
166,31,42302,1,8,0:3:0:0:
92,71,42465,2,0,L|95:158,1,70,8|8,0:3|0:0,0:0:0:0:
27,258,42791,6,0,P|77:221|158:261,1,140,6|8,0:0|0:3,0:0:0:0:
223,210,43280,2,0,L|208:363,1,140,10|8,0:0|0:0,0:0:0:0:
325,326,43769,2,0,B|351:298|351:298|459:309,1,140,6|8,0:0|0:3,0:0:0:0:
498,378,44258,1,10,0:0:0:0:
498,378,44584,1,8,0:3:0:0:
452,308,44747,2,0,L|459:224,1,70,8|10,0:0|0:0,0:0:0:0:
505,168,45074,2,0,L|498:90,1,70,8|10,0:3|0:0,0:0:0:0:
481,0,45400,6,0,P|402:44|350:10,1,140,6|8,0:0|0:3,0:0:0:0:
325,101,45889,2,0,P|273:71|193:115,1,140,10|8,0:0|0:0,0:0:0:0:
99,131,46378,2,0,B|132:150|132:150|128:268,1,140,6|8,0:0|0:3,0:0:0:0:
69,311,46867,1,10,0:0:0:0:
69,311,47193,1,8,0:3:0:0:
128,251,47356,2,0,P|169:245|206:261,1,70,8|10,0:0|0:0,0:0:0:0:
251,316,47682,2,0,P|292:328|341:305,1,70,8|10,0:3|0:0,0:0:0:0:
395,231,48008,6,0,L|390:371,1,140,6|8,0:0|0:3,0:0:0:0:
473,366,48497,2,0,L|478:226,1,140,10|8,0:0|0:0,0:0:0:0:
494,113,48987,2,0,B|466:136|466:136|356:123,1,140,6|8,0:0|0:3,0:0:0:0:
314,55,49476,1,10,0:0:0:0:
314,55,49802,1,8,0:3:0:0:
263,120,49965,2,0,P|225:137|178:129,1,70,8|10,0:0|0:0,0:0:0:0:
137,76,50291,1,2,0:0:0:0:
137,76,50454,1,10,0:0:0:0:
40,116,50617,5,4,0:0:0:0:
16,279,50943,1,8,0:0:0:0:
28,362,51106,1,8,0:3:0:0:
111,351,51269,1,8,0:0:0:0:
99,268,51432,1,8,0:3:0:0:
181,253,51595,2,0,L|271:241,1,70,8|8,0:0|0:3,0:0:0:0:
262,326,51921,1,8,0:0:0:0:
262,326,52737,5,0,0:0:0:0:
380,354,52900,1,10,0:1:0:0:
460,187,53226,6,0,L|472:343,2,154.000004699707,6|10|10,0:0|0:0|0:3,0:0:0:0:
508,108,54041,1,8,0:3:0:0:
508,108,54204,2,0,P|462:95|413:103,1,77.0000023498536,10|2,0:0|0:0,0:0:0:0:
373,167,54530,6,0,L|206:156,1,154.000004699707,8|10,0:3|0:0,0:0:0:0:
158,226,55019,1,0,0:0:0:0:
158,226,55182,2,0,P|200:232|249:276,1,77.0000023498536,8|10,0:3|0:3,0:0:0:0:
196,336,55508,2,0,P|153:329|104:285,1,77.0000023498536,10|2,0:0|0:0,0:0:0:0:
67,240,55834,6,0,P|79:166|40:99,2,154.000004699707,10|8|10,0:3|0:0|0:3,0:0:0:0:
18,319,56650,1,8,0:3:0:0:
18,319,56813,2,0,P|64:318|120:337,1,77.0000023498536,10|2,0:0|0:0,0:0:0:0:
177,364,57139,6,0,P|233:377|334:349,1,154.000004699707,8|10,0:3|0:0,0:0:0:0:
350,265,57628,1,0,0:0:0:0:
416,328,57791,2,0,P|462:337|509:328,1,77.0000023498536,10|8,0:3|0:3,0:0:0:0:
459,247,58117,1,10,0:0:0:0:
459,247,58280,1,10,0:0:0:0:
507,168,58443,6,0,P|454:155|370:221,1,154.000004699707,4|8,0:0|0:0,0:0:0:0:
288,237,58932,1,2,0:0:0:0:
229,165,59095,2,0,L|238:69,1,77.0000023498536,10|8,0:3|0:3,0:0:0:0:
327,71,59421,2,0,L|318:167,1,77.0000023498536,8|2,0:0|0:0,0:0:0:0:
288,237,59747,6,0,P|235:258|188:252,1,77.0000023498536,10|0,0:3|0:0,0:0:0:0:
140,203,60074,1,8,0:0:0:0:
140,203,60400,2,0,L|134:294,1,77.0000023498536,6|0,0:0|0:0,0:0:0:0:
51,240,60726,2,0,L|57:149,1,77.0000023498536,6|0,0:0|0:0,0:0:0:0:
136,65,61052,6,0,P|193:82|270:26,1,154.000004699707,6|10,0:0|0:0,0:0:0:0:
344,83,61541,1,8,0:0:0:0:
409,17,61704,1,4,0:0:0:0:
445,102,61867,2,0,L|439:198,1,77.0000023498536,8|2,0:0|0:0,0:0:0:0:
506,242,62193,1,8,0:0:0:0:
506,242,62275,1,0,0:0:0:0:
506,242,62356,6,0,P|442:222|366:276,1,154.000004699707,6|8,0:0|0:0,0:0:0:0:
449,314,62845,1,10,0:0:0:0:
370,362,63008,2,0,L|263:357,1,77.0000023498536,10|8,0:3|0:0,0:0:0:0:
237,284,63334,1,0,0:0:0:0:
181,357,63497,1,8,0:3:0:0:
181,357,63579,1,8,0:3:0:0:
181,357,63661,6,0,P|133:368|94:358,1,77.0000023498536,6|8,0:0|0:3,0:0:0:0:
140,277,63987,2,0,P|106:240|95:202,1,77.0000023498536,10|8,0:0|0:3,0:0:0:0:
188,197,64313,1,10,0:0:0:0:
189,104,64476,1,8,0:3:0:0:
266,154,64639,2,0,P|277:201|267:241,1,77.0000023498536,10|10,0:0|0:3,0:0:0:0:
222,306,64965,6,0,L|322:304,1,77.0000023498536,8|8,0:0|0:3,0:0:0:0:
378,350,65291,2,0,L|426:262,1,77.0000023498536,10|8,0:0|0:3,0:0:0:0:
500,246,65617,1,10,0:0:0:0:
468,159,65780,1,8,0:3:0:0:
382,194,65943,2,0,L|305:164,1,77.0000023498536,10|10,0:0|0:3,0:0:0:0:
216,60,66269,6,0,P|240:110|196:201,1,154.000004699707,4|8,0:0|0:3,0:0:0:0:
117,163,66758,2,0,P|93:213|137:304,1,154.000004699707,4|8,0:0|0:3,0:0:0:0:
197,360,67247,2,0,L|297:357,1,77.0000023498536,6|10,0:0|0:3,0:0:0:0:
332,285,67574,5,8,0:0:0:0:
494,373,67900,1,10,0:0:0:0:
495,188,68226,1,10,0:3:0:0:
448,267,68389,1,0,0:0:0:0:
495,188,68552,2,0,L|476:103,1,77.0000023498536,10|8,0:3|0:0,0:0:0:0:
501,23,68878,6,0,P|428:49|346:23,1,154.000004699707,6|8,0:0|0:0,0:0:0:0:
282,85,69367,1,0,0:0:0:0:
210,26,69530,2,0,P|157:15|114:27,1,77.0000023498536,8|8,0:3|0:3,0:0:0:0:
54,63,69856,1,10,0:0:0:0:
54,63,70019,1,2,0:0:0:0:
104,140,70182,6,0,L|264:131,2,154.000004699707,8|8|8,0:3|0:0|0:3,0:0:0:0:
23,185,70997,1,8,0:3:0:0:
100,236,71161,2,0,P|107:277|93:317,1,77.0000023498536,10|8,0:0|0:0,0:0:0:0:
28,372,71487,6,0,P|83:340|178:360,1,154.000004699707,6|0,0:0|0:0,0:0:0:0:
249,308,71976,1,8,0:3:0:0:
328,354,72139,2,0,P|372:380|473:349,1,154.000004699707,10|8,0:0|0:0,0:0:0:0:
505,271,72628,1,8,0:3:0:0:
469,185,72791,6,0,L|298:200,1,154.000004699707,10|10,0:0|0:3,0:0:0:0:
256,269,73280,1,0,0:0:0:0:
187,206,73443,2,0,L|181:123,1,77.0000023498536,10|0,0:0|0:0,0:0:0:0:
97,166,73769,2,0,L|103:249,1,77.0000023498536,10|8,0:0|0:0,0:0:0:0:
20,225,74095,6,0,L|9:76,1,140,6|2,0:0|0:0,0:0:0:0:
64,21,74584,1,8,0:3:0:0:
64,21,74747,2,0,P|106:33|139:29,1,70,10|0,0:0|0:0,0:0:0:0:
216,31,75074,2,0,P|259:27|297:32,1,70,2|0,0:0|0:0,0:0:0:0:
362,62,75400,5,10,0:3:0:0:
434,20,75563,2,0,P|409:84|472:144,1,140,8|8,0:0|0:3,0:0:0:0:
493,207,76052,2,0,P|459:210|414:236,1,70,10|0,0:0|0:0,0:0:0:0:
361,172,76378,2,0,P|346:202|346:254,1,70,2|10,0:0|0:0,0:0:0:0:
362,320,76704,6,0,L|203:315,1,140,2|2,0:0|0:0,0:0:0:0:
148,355,77193,1,0,0:0:0:0:
148,355,77356,2,0,P|139:309|152:265,1,70,10|2,0:0|0:0,0:0:0:0:
209,235,77682,2,0,P|218:189|205:145,1,70,2|8,0:0|0:0,0:0:0:0:
140,126,78008,5,10,0:3:0:0:
78,68,78171,2,0,P|143:84|206:39,1,140,8|0,0:0|0:0,0:0:0:0:
272,92,78661,2,0,P|332:49|403:66,1,140,10|0,0:0|0:0,0:0:0:0:
450,121,79150,1,10,0:0:0:0:
486,17,79313,5,4,0:0:0:0:
363,343,80617,1,4,0:0:0:0:
143,74,81921,6,0,L|222:67,1,70,10|8,0:0|0:3,0:0:0:0:
248,143,82247,2,0,L|169:150,1,70,10|8,0:0|0:3,0:0:0:0:
136,222,82574,2,0,L|57:215,1,70,10|8,0:0|0:3,0:0:0:0:
31,291,82900,2,0,L|110:298,1,70,10|8,0:0|0:3,0:0:0:0:
157,358,83226,5,14,0:0:0:0:
229,316,83389,2,0,L|221:233,1,70,8|0,0:3|0:0,0:0:0:0:
275,181,83715,1,2,0:0:0:0:
275,181,83796,1,0,0:0:0:0:
275,181,83878,2,0,P|313:172|364:182,1,70,8|0,0:0|0:0,0:0:0:0:
421,206,84204,1,2,0:0:0:0:
421,206,84367,1,10,0:0:0:0:
441,85,84530,6,0,P|382:101|287:61,1,140,6|8,0:0|0:0,0:0:0:0:
240,29,85019,1,0,0:0:0:0:
168,73,85182,2,0,L|78:69,1,70,8|8,0:3|0:3,0:0:0:0:
72,149,85508,2,0,L|162:153,1,70,8|2,0:0|0:0,0:0:0:0:
191,220,85834,5,8,0:3:0:0:
191,220,85997,1,0,0:0:0:0:
122,269,86161,2,0,L|139:356,1,70,10|0,0:0|0:0,0:0:0:0:
216,316,86487,2,0,L|299:344,1,70,10|8,0:3|0:3,0:0:0:0:
300,256,86813,2,0,L|366:197,1,70,10|0,0:0|0:0,0:0:0:0:
290,154,87139,6,0,P|303:96|245:24,1,140,10|8,0:3|0:0,0:0:0:0:
219,104,87628,1,0,0:0:0:0:
167,37,87791,2,0,L|80:42,1,70,10|8,0:3|0:3,0:0:0:0:
53,112,88117,1,8,0:0:0:0:
104,178,88280,6,0,P|52:159|19:241,1,140,2|0,0:0|0:0,0:0:0:0:
56,290,88769,2,0,L|150:281,1,70,10|0,0:0|0:0,0:0:0:0:
194,331,89095,2,0,L|282:342,1,70,10|10,0:3|0:3,0:0:0:0:
323,281,89421,1,10,0:0:0:0:
323,281,89584,1,10,0:0:0:0:
400,347,89747,6,0,L|402:272,1,70,6|0,0:0|0:0,0:0:0:0:
481,249,90074,1,8,0:3:0:0:
451,172,90237,2,0,P|397:202|314:187,1,140,8|8,0:0|0:0,0:0:0:0:
243,162,90726,2,0,P|205:154|163:164,1,70,4|0,0:0|0:0,0:0:0:0:
99,195,91052,5,10,0:3:0:0:
109,278,91215,1,8,0:0:0:0:
99,195,91378,2,0,L|93:108,1,70,2|0,0:0|0:0,0:0:0:0:
155,67,91704,1,10,0:0:0:0:
155,67,91867,1,8,0:0:0:0:
213,126,92030,2,0,L|208:195,1,70,10|8,0:3|0:0,0:0:0:0:
204,279,92356,5,6,0:0:0:0:
204,279,92682,2,0,L|295:272,1,70,8|0,0:0|0:0,0:0:0:0:
332,340,93008,1,8,0:0:0:0:
332,340,93171,1,0,0:0:0:0:
406,304,93334,2,0,L|403:222,1,70,8|0,0:0|0:0,0:0:0:0:
322,146,93661,5,6,0:0:0:0:
481,92,93987,1,2,0:1:0:0:
417,37,94150,2,0,L|424:-1,2,35,2|2|2,0:1|0:1|0:1,0:0:0:0:
402,119,94476,1,2,0:1:0:0:
481,92,94639,1,8,0:0:0:0:
369,240,94965,5,6,0:0:0:0:
266,374,95291,2,0,L|259:295,1,56,8|0,0:0|0:0,0:0:0:0:
195,265,95617,1,10,0:3:0:0:
195,265,95780,1,8,0:3:0:0:
138,326,95943,2,0,L|145:406,1,56,8|0,0:0|0:0,0:0:0:0:
61,361,96269,5,10,0:3:0:0:
3,197,96595,2,0,P|41:188|80:194,1,56,0|0,0:0|0:0,0:0:0:0:
111,124,96921,1,10,0:3:0:0:
111,124,97084,1,8,0:3:0:0:
162,57,97247,2,0,P|200:70|235:69,1,56,8|0,0:0|0:0,0:0:0:0:
295,43,97574,5,10,0:3:0:0:
446,115,97900,2,0,L|448:185,1,56,8|0,0:0|0:0,0:0:0:0:
366,148,98226,1,10,0:3:0:0:
366,148,98389,1,0,0:0:0:0:
284,125,98552,2,0,L|287:190,1,56,8|0,0:0|0:0,0:0:0:0:
322,256,98878,5,2,0:0:0:0:
182,351,99204,1,10,0:0:0:0:
99,337,99367,1,8,0:3:0:0:
182,351,99530,2,0,L|314:371,1,112,8|10,3:2|0:3,0:0:0:0:
371,338,100019,1,8,0:0:0:0:
448,371,100182,5,10,0:3:0:0:
405,208,100508,2,0,P|360:219|331:216,1,56,8|0,0:0|0:0,0:0:0:0:
365,136,100834,1,10,0:3:0:0:
365,136,100997,1,8,0:3:0:0:
385,53,101161,2,0,P|350:50|319:61,1,56,8|0,0:0|0:0,0:0:0:0:
275,119,101487,5,10,0:3:0:0:
134,27,101813,2,0,L|60:33,1,56,8|0,0:0|0:0,0:0:0:0:
18,90,102139,1,10,0:3:0:0:
18,90,102302,1,8,0:3:0:0:
78,148,102465,2,0,L|145:152,1,56,8|0,0:0|0:0,0:0:0:0:
176,223,102791,5,10,0:3:0:0:
26,300,103117,2,0,P|23:340|33:368,1,56,8|0,0:0|0:0,0:0:0:0:
103,320,103443,2,0,P|136:342|164:349,1,56,10|8,0:3|0:3,0:0:0:0:
219,297,103769,1,8,0:0:0:0:
305,355,103932,1,8,0:0:0:0:
305,355,104014,1,8,0:0:0:0:
305,355,104095,5,2,0:1:0:0:
382,307,104258,2,0,L|426:312,2,35,2|2|2,0:1|0:1|0:1,0:0:0:0:
327,242,104584,2,0,L|292:245,2,35,2|2|2,0:1|0:1|0:1,0:0:0:0:
380,175,104911,1,2,0:1:0:0:
380,175,104992,1,2,0:1:0:0:
380,175,105074,5,0,0:0:0:0:
501,16,105400,6,0,P|445:44|350:23,1,140,6|8,0:0|0:0,0:0:0:0:
296,74,105889,1,0,0:0:0:0:
218,42,106052,2,0,P|213:82|230:131,1,70,10|8,0:3|0:3,0:0:0:0:
287,160,106378,2,0,L|390:152,1,70,8|0,0:0|0:0,0:0:0:0:
440,149,106704,6,0,P|494:203|472:279,1,140,2|8,0:0|0:0,0:0:0:0:
420,313,107193,2,0,L|341:309,1,70,0|10,0:0|0:3,0:0:0:0:
282,259,107519,1,8,0:3:0:0:
213,308,107682,2,0,P|198:264|206:226,1,70,8|0,0:0|0:0,0:0:0:0:
256,179,108008,6,0,L|253:103,1,70,10|8,0:3|0:3,0:0:0:0:
189,54,108334,2,0,P|236:79|320:29,2,140,8|10|8,0:0|0:3|0:0,0:0:0:0:
105,40,109150,1,0,0:0:0:0:
41,94,109313,6,0,L|46:187,1,70,6|0,0:0|0:0,0:0:0:0:
105,221,109639,2,0,L|187:218,1,70,8|0,0:0|0:0,0:0:0:0:
256,199,109965,2,0,L|251:292,1,70,6|0,0:0|0:0,0:0:0:0:
269,351,110291,1,8,0:0:0:0:
269,351,110454,1,8,0:0:0:0:
166,372,110617,6,0,P|134:338|41:357,1,140,6|8,0:0|0:0,0:0:0:0:
3,278,111106,1,0,0:0:0:0:
54,211,111269,2,0,L|144:217,1,70,10|8,0:3|0:3,0:0:0:0:
191,265,111595,2,0,L|281:261,1,70,8|0,0:0|0:0,0:0:0:0:
328,212,111921,5,10,0:3:0:0:
328,212,112084,1,0,0:0:0:0:
405,244,112247,2,0,L|399:387,2,140,8|10|8,0:0|0:3|0:0,0:0:0:0:
484,95,113226,6,0,P|437:122|394:114,1,70,6|0,0:0|0:0,0:0:0:0:
363,62,113552,2,0,P|328:41|278:46,1,70,8|8,0:0|0:3,0:0:0:0:
227,83,113878,1,10,0:0:0:0:
146,58,114041,2,0,L|152:146,1,70,8|8,0:0|0:3,0:0:0:0:
88,184,114367,6,0,P|182:176|224:229,1,140,8|8,0:3|0:3,0:0:0:0:
234,283,114856,1,8,0:0:0:0:
234,283,115019,1,0,0:0:0:0:
175,343,115182,2,0,L|92:345,1,70,10|8,0:3|0:3,0:0:0:0:
41,289,115508,1,8,0:0:0:0:
41,289,115671,1,8,0:0:0:0:
83,184,115834,6,0,B|109:214|109:214|234:202,1,140,6|8,0:0|0:3,0:0:0:0:
270,147,116324,2,0,P|247:212|304:284,1,140,10|8,0:0|0:0,0:0:0:0:
384,223,116813,2,0,L|394:77,1,140,6|8,0:0|0:3,0:0:0:0:
349,11,117302,1,8,0:0:0:0:
349,11,117628,1,8,0:3:0:0:
274,49,117791,2,0,L|200:43,1,70,8|10,0:0|0:0,0:0:0:0:
127,9,118117,2,0,L|59:52,1,70,8|10,0:3|0:0,0:0:0:0:
10,141,118443,6,0,B|51:130|51:130|152:168,1,140,6|10,0:0|0:3,0:0:0:0:
210,114,118932,2,0,P|223:189|167:245,1,140,10|10,0:0|0:0,0:0:0:0:
93,308,119421,2,0,L|253:312,1,140,6|8,0:0|0:3,0:0:0:0:
297,366,119911,1,8,0:0:0:0:
297,366,120237,1,8,0:3:0:0:
349,300,120400,1,8,0:0:0:0:
435,359,120563,2,0,L|448:210,1,140,4|8,0:0|0:0,0:0:0:0:
512,122,121052,6,0,B|485:97|485:97|365:115,1,140,6|8,0:0|0:3,0:0:0:0:
341,185,121541,2,0,P|351:119|272:73,1,140,10|8,0:0|0:0,0:0:0:0:
197,24,122030,2,0,L|41:38,1,140,6|8,0:0|0:3,0:0:0:0:
16,119,122519,1,8,0:0:0:0:
16,119,122845,1,8,0:3:0:0:
82,183,123008,2,0,L|166:176,1,70,8|10,0:0|0:0,0:0:0:0:
228,128,123334,1,0,0:0:0:0:
228,128,123497,1,0,0:0:0:0:
326,170,123661,5,6,0:0:0:0:
410,23,123987,2,0,L|414:117,1,70,8|10,0:0|0:3,0:0:0:0:
495,110,124313,2,0,L|488:188,1,70,8|8,0:0|0:3,0:0:0:0:
413,215,124639,2,0,L|418:293,1,70,8|8,0:0|0:3,0:0:0:0:
465,353,124965,6,0,P|418:367|375:354,1,70,10|8,0:0|0:0,0:0:0:0:
321,328,125291,1,8,0:0:0:0:
321,328,125454,1,8,0:0:0:0:
241,300,125617,2,0,P|193:293|155:307,1,70,8|8,0:0|0:0,0:0:0:0:
140,376,125943,1,0,0:0:0:0:
16,263,126269,6,0,P|60:250|114:259,1,77.0000023498536,6|0,0:0|0:0,0:0:0:0:
172,298,126595,2,0,L|158:141,1,154.000004699707,10|10,0:0|0:3,0:0:0:0:
109,66,127084,1,8,0:3:0:0:
109,66,127247,2,0,P|154:50|196:62,1,77.0000023498536,10|2,0:0|0:0,0:0:0:0:
253,114,127574,6,0,P|327:131|399:88,1,154.000004699707,8|10,0:3|0:0,0:0:0:0:
448,25,128063,1,0,0:0:0:0:
502,99,128226,2,0,L|496:192,1,77.0000023498536,10|8,0:3|0:3,0:0:0:0:
410,207,128552,2,0,L|416:300,1,77.0000023498536,10|2,0:0|0:0,0:0:0:0:
357,356,128878,6,0,P|426:322|512:364,2,154.000004699707,8|8|10,0:3|0:0|0:3,0:0:0:0:
277,308,129693,1,8,0:3:0:0:
202,363,129856,2,0,L|108:357,1,77.0000023498536,10|2,0:0|0:0,0:0:0:0:
36,384,130182,6,0,P|33:342|55:293,1,77.0000023498536,8|0,0:3|0:0,0:0:0:0:
127,269,130508,2,0,P|130:227|108:178,1,77.0000023498536,10|0,0:0|0:0,0:0:0:0:
40,146,130834,2,0,L|228:153,1,154.000004699707,10|10,0:3|0:0,0:0:0:0:
264,91,131324,1,10,0:0:0:0:
392,168,131487,6,0,P|415:221|364:332,1,154.000004699707,4|8,0:0|0:0,0:0:0:0:
297,297,131976,1,0,0:0:0:0:
214,335,132139,2,0,L|51:341,1,154.000004699707,10|8,0:3|0:0,0:0:0:0:
8,263,132628,1,0,0:0:0:0:
76,200,132791,6,0,P|126:203|168:191,1,77.0000023498536,10|0,0:3|0:0,0:0:0:0:
220,135,133117,1,8,0:0:0:0:
220,135,133443,2,0,L|214:49,1,77.0000023498536,6|0,0:0|0:3,0:0:0:0:
300,92,133769,2,0,L|306:178,1,77.0000023498536,6|0,0:0|0:3,0:0:0:0:
296,294,134095,6,0,P|339:262|375:266,1,77.0000023498536,6|0,0:0|0:0,0:0:0:0:
400,350,134421,1,10,0:0:0:0:
400,350,134584,1,8,0:0:0:0:
479,302,134747,2,0,L|483:207,1,77.0000023498536,10|8,0:3|0:0,0:0:0:0:
432,146,135074,1,2,0:0:0:0:
483,69,135237,1,8,0:0:0:0:
483,69,135318,1,8,0:0:0:0:
483,69,135400,6,0,P|431:103|322:72,1,154.000004699707,6|8,0:0|0:0,0:0:0:0:
275,27,135889,1,10,0:0:0:0:
230,107,136052,2,0,L|134:108,1,77.0000023498536,10|8,0:3|0:0,0:0:0:0:
91,38,136378,1,8,0:0:0:0:
32,98,136541,1,8,0:3:0:0:
32,98,136622,1,8,0:3:0:0:
32,98,136704,6,0,L|37:197,1,77.0000023498536,6|0,0:0|0:0,0:0:0:0:
40,267,137030,2,0,P|82:254|130:268,1,77.0000023498536,10|0,0:0|0:0,0:0:0:0:
166,183,137356,2,0,P|200:186|239:171,1,77.0000023498536,10|10,0:0|0:3,0:0:0:0:
232,262,137682,2,0,L|238:344,1,77.0000023498536,10|10,0:0|0:3,0:0:0:0:
325,367,138008,6,0,P|368:356|414:365,1,77.0000023498536,8|0,0:0|0:0,0:0:0:0:
490,378,138334,2,0,L|481:222,1,154.000004699707,10|10,0:0|0:0,0:0:0:0:
398,182,138824,1,10,0:3:0:0:
473,128,138987,2,0,P|481:91|469:52,1,77.0000023498536,10|10,0:0|0:3,0:0:0:0:
376,0,139313,6,0,B|336:25|336:25|218:16,1,154.000004699707,4|8,0:0|0:3,0:0:0:0:
143,51,139802,2,0,P|58:23|7:69,1,154.000004699707,4|8,0:0|0:3,0:0:0:0:
0,149,140291,2,0,L|4:235,1,77.0000023498536,6|2,0:0|0:0,0:0:0:0:
61,297,140617,5,8,0:0:0:0:
226,213,140943,1,8,0:0:0:0:
61,297,141269,2,0,L|52:377,2,77.0000023498536,10|8|2,0:3|0:3|0:0,0:0:0:0:
133,239,141758,1,8,0:0:0:0:
160,325,141921,6,0,P|223:308|296:360,1,154.000004699707,6|8,0:0|0:0,0:0:0:0:
352,283,142411,1,0,0:0:0:0:
412,352,142574,2,0,L|500:349,1,77.0000023498536,8|8,0:3|0:3,0:0:0:0:
512,260,142900,2,0,L|423:264,1,77.0000023498536,10|2,0:0|0:0,0:0:0:0:
352,283,143226,6,0,P|332:237|363:132,2,154.000004699707,8|8|8,0:3|0:0|0:3,0:0:0:0:
279,339,144041,1,8,0:3:0:0:
208,288,144204,1,10,0:0:0:0:
208,288,144367,1,8,0:0:0:0:
127,353,144530,6,0,P|71:366|29:285,1,154.000004699707,6|0,0:0|0:0,0:0:0:0:
84,221,145019,1,8,0:3:0:0:
20,153,145182,2,0,P|54:96|135:111,1,154.000004699707,10|8,0:0|0:0,0:0:0:0:
190,178,145671,1,0,0:0:0:0:
239,101,145834,6,0,L|395:98,1,154.000004699707,10|10,0:0|0:3,0:0:0:0:
446,22,146324,1,0,0:0:0:0:
487,104,146487,2,0,L|479:197,1,77.0000023498536,10|0,0:3|0:0,0:0:0:0:
386,174,146813,2,0,L|393:95,1,77.0000023498536,10|8,0:0|0:0,0:0:0:0:
335,28,147139,6,0,P|273:12|194:56,1,140,6|2,0:0|0:0,0:0:0:0:
162,113,147628,1,8,0:3:0:0:
84,81,147791,2,0,L|95:238,1,140,10|10,0:0|0:3,0:0:0:0:
233,313,148443,5,10,0:3:0:0:
177,376,148606,2,0,P|235:351|315:377,1,140,8|8,0:0|0:3,0:0:0:0:
363,308,149095,2,0,L|356:235,1,70,10|0,0:0|0:0,0:0:0:0:
438,255,149421,2,0,L|445:182,1,70,2|0,0:0|0:0,0:0:0:0:
384,127,149747,6,0,P|442:101|516:141,2,140,10|10|10,0:3|0:3|0:0,0:0:0:0:
316,178,150563,1,0,0:0:0:0:
316,178,150726,2,0,L|221:173,1,70,10|8,0:3|0:0,0:0:0:0:
168,124,151052,5,10,0:3:0:0:
91,157,151215,2,0,P|119:221|65:288,1,140,8|8,0:0|0:3,0:0:0:0:
16,323,151704,2,0,L|161:318,1,140,10|0,0:0|0:0,0:0:0:0:
226,273,152193,1,8,0:0:0:0:
277,368,152356,5,4,0:0:0:0:
120,98,153661,1,4,0:0:0:0:
449,110,154965,6,0,L|442:208,1,70,10|0,0:0|0:0,0:0:0:0:
474,258,155291,2,0,L|376:251,1,70,10|0,0:0|0:0,0:0:0:0:
354,185,155617,2,0,L|256:192,1,70,10|0,0:0|0:0,0:0:0:0:
206,160,155943,2,0,L|213:258,1,70,10|0,0:0|0:0,0:0:0:0:
247,305,156269,6,0,P|194:304|163:320,1,70,14|0,0:0|0:0,0:0:0:0:
120,370,156595,1,8,0:0:0:0:
49,328,156758,1,2,0:0:0:0:
49,328,156840,1,0,0:0:0:0:
49,328,156921,2,0,L|41:170,1,140,10|10,0:0|0:0,0:0:0:0:
99,125,157411,1,10,0:0:0:0:
176,157,157574,5,4,0:0:0:0:
256,192,158226,12,4,160182,0:0:0:0:
272,89,170617,6,0,P|318:111|398:64,1,140,6|8,0:0|0:0,0:0:0:0:
441,5,171106,2,0,L|427:176,1,140,2|8,0:0|0:3,0:0:0:0:
383,215,171595,1,10,0:0:0:0:
383,215,171758,2,0,P|423:220|459:243,1,70,2|8,0:0|0:3,0:0:0:0:
479,312,172084,6,0,P|437:346|338:340,1,140,2|0,0:0|0:0,0:0:0:0:
304,279,172574,2,0,P|260:275|222:282,1,70,10|8,0:3|0:3,0:0:0:0:
169,331,172900,2,0,P|125:335|87:328,1,70,10|2,0:0|0:0,0:0:0:0:
48,265,173226,6,0,L|39:101,1,140,10|8,0:3|0:0,0:0:0:0:
86,55,173715,1,0,0:0:0:0:
86,55,173878,2,0,P|136:72|172:63,1,70,8|8,0:3|0:3,0:0:0:0:
220,118,174204,2,0,P|259:83|269:47,1,70,10|2,0:0|0:0,0:0:0:0:
340,28,174530,6,0,L|345:184,1,140,10|10,0:3|0:0,0:0:0:0:
404,226,175019,1,10,0:3:0:0:
315,368,175345,1,10,0:3:0:0:
224,226,175671,1,10,0:0:0:0:
224,226,175834,6,0,L|71:238,2,140,6|8|8,0:0|0:0|0:3,0:0:0:0:
283,286,176650,1,8,0:3:0:0:
338,222,176813,2,0,P|348:182|340:137,1,70,10|2,0:0|0:0,0:0:0:0:
290,89,177139,5,10,0:3:0:0:
359,42,177302,2,0,P|275:54|205:21,1,140,2|2,0:0|0:0,0:0:0:0:
151,76,177791,1,10,0:3:0:0:
96,12,177954,2,0,L|103:165,1,140,10|10,0:0|0:0,0:0:0:0:
48,229,178443,6,0,P|104:199|162:218,1,112,6|0,0:0|0:0,0:0:0:0:
198,302,178932,1,8,0:0:0:0:
198,302,179014,1,8,0:0:0:0:
198,302,179095,2,0,P|254:323|316:291,1,112,6|0,0:0|0:0,0:0:0:0:
357,210,179584,1,8,0:0:0:0:
357,210,179666,1,8,0:0:0:0:
357,210,179747,5,6,0:0:0:0:
470,283,180074,1,2,0:0:0:0:
476,148,180400,1,6,0:0:0:0:
476,148,180563,1,8,0:0:0:0:
419,77,180726,2,0,L|340:83,1,56,10|8,0:3|0:0,0:0:0:0:
306,19,181052,5,6,0:0:0:0:
144,66,181378,2,0,L|72:63,1,70,2|8,0:0|0:3,0:0:0:0:
9,117,181704,1,10,0:0:0:0:
9,117,181867,1,0,0:0:0:0:
73,170,182030,2,0,L|142:167,1,70,10|8,0:3|0:3,0:0:0:0:
208,219,182356,5,10,0:3:0:0:
155,284,182519,2,0,B|236:263|215:308|319:283,1,140,8|2,0:0|0:0,0:0:0:0:
362,335,183008,2,0,P|395:318|442:317,1,70,10|0,0:0|0:0,0:0:0:0:
475,246,183334,2,0,P|440:242|409:225,1,70,2|8,0:0|0:0,0:0:0:0:
373,149,183661,5,10,0:3:0:0:
260,23,183987,2,0,L|263:99,1,70,2|8,0:0|0:3,0:0:0:0:
193,140,184313,1,10,0:0:0:0:
193,140,184476,1,2,0:0:0:0:
119,180,184639,2,0,L|116:256,1,70,10|10,0:3|0:0,0:0:0:0:
72,321,184965,6,0,P|137:283|212:323,1,168,6|0,0:0|0:0,0:0:0:0:
293,286,185617,2,0,P|318:320|433:302,1,168,6|0,0:0|0:0,0:0:0:0:
456,226,186269,6,0,L|462:78,1,140,6|8,0:0|0:0,0:0:0:0:
403,25,186758,1,0,0:0:0:0:
403,25,186921,2,0,P|360:44|328:45,1,70,8|8,0:3|0:3,0:0:0:0:
254,36,187247,2,0,P|215:23|167:29,1,70,8|0,0:0|0:0,0:0:0:0:
107,54,187574,6,0,L|116:209,1,140,10|8,0:3|0:0,0:0:0:0:
88,273,188063,1,0,0:0:0:0:
88,273,188226,2,0,L|177:266,1,70,8|8,0:3|0:3,0:0:0:0:
224,216,188552,2,0,L|307:224,1,70,8|0,0:0|0:0,0:0:0:0:
345,288,188878,6,0,P|324:225|362:151,1,140,6|8,0:0|0:0,0:0:0:0:
414,103,189367,1,8,0:3:0:0:
473,162,189530,2,0,P|500:224|479:289,1,140,10|8,0:0|0:0,0:0:0:0:
413,341,190019,1,10,0:3:0:0:
345,288,190182,6,0,L|262:291,1,70,6|8,0:0|0:3,0:0:0:0:
209,342,190508,1,0,0:0:0:0:
141,292,190671,2,0,L|138:247,2,35,8|8|8,0:0|0:0|0:0,0:0:0:0:
86,355,190997,1,10,0:0:0:0:
17,305,191161,2,0,L|27:224,1,70,8|10,0:3|0:0,0:0:0:0:
12,152,191487,6,0,P|65:195|143:177,1,125.999996154785,6|2,0:0|0:0,0:0:0:0:
182,150,191976,1,8,0:3:0:0:
182,150,192139,2,0,L|182:73,1,62.9999980773926,10|0,0:0|0:0,0:0:0:0:
232,30,192465,2,0,P|269:24|307:33,1,62.9999980773926,2|8,0:0|0:0,0:0:0:0:
365,52,192791,6,0,P|403:58|437:47,2,62.9999980773926,10|8|10,0:3|0:3|0:3,0:0:0:0:
265,165,193443,1,10,0:0:0:0:
265,165,193606,2,0,L|337:171,2,62.9999980773926,0|10|8,0:0|0:3|0:0,0:0:0:0:
188,134,194095,6,0,P|164:176|187:268,1,125.999996154785,10|10,0:3|0:3,0:0:0:0:
234,296,194584,1,2,0:0:0:0:
234,296,194747,2,0,L|320:292,1,62.9999980773926,10|2,0:0|0:0,0:0:0:0:
364,328,195074,2,0,L|436:331,1,62.9999980773926,10|8,0:3|0:0,0:0:0:0:
475,273,195400,6,0,P|484:237|476:194,2,62.9999980773926,10|8|10,0:3|0:3|0:3,0:0:0:0:
334,218,196052,2,0,L|326:129,1,62.9999980773926,10|0,0:0|0:0,0:0:0:0:
272,104,196378,2,0,L|280:24,1,62.9999980773926,10|8,0:3|0:0,0:0:0:0:
207,15,196704,6,0,P|171:64|92:68,1,125.999996154785,6|2,0:0|0:0,0:0:0:0:
36,56,197193,1,8,0:3:0:0:
36,56,197356,2,0,L|41:136,1,62.9999980773926,10|0,0:0|0:0,0:0:0:0:
88,177,197682,2,0,L|81:243,1,62.9999980773926,10|8,0:3|0:0,0:0:0:0:
90,314,198008,6,0,P|54:310|19:323,2,62.9999980773926,10|8|10,0:3|0:3|0:3,0:0:0:0:
229,373,198661,1,10,0:0:0:0:
229,373,198824,2,0,P|272:369|300:355,2,62.9999980773926,0|10|8,0:0|0:3|0:0,0:0:0:0:
245,299,199313,5,4,0:0:0:0:
502,139,199965,5,10,0:3:0:0:
483,289,200291,1,8,0:3:0:0:
404,159,200617,5,10,0:3:0:0:
390,309,200943,1,8,0:3:0:0:
322,113,201269,5,10,0:3:0:0:
303,263,201595,1,8,0:3:0:0:
236,120,201921,6,0,P|197:130|156:119,1,62.9999980773926,4|8,0:0|0:0,0:0:0:0:
117,79,202247,1,0,0:0:0:0:
117,79,202411,1,0,0:0:0:0:
53,118,202574,2,0,L|47:207,1,62.9999980773926
40,255,202900,1,0,0:0:0:0:
162,343,203226,6,0,P|132:353|110:373,2,41.9999987182618,8|8|8,0:0|0:3|0:3,0:0:0:0:
189,300,203552,2,0,P|165:280|136:270,2,41.9999987182618,8|8|8,0:3|0:3|0:3,0:0:0:0:
238,296,203878,2,0,P|243:265|237:235,2,41.9999987182618,8|8|8,0:0|0:3|0:3,0:0:0:0:
262,340,204204,2,0,P|291:329|313:309,2,41.9999987182618,8|8|8,0:3|0:3|0:3,0:0:0:0:
217,374,204530,5,4,0:3:0:0:
84,127,205182,1,2,0:0:0:0:
16,368,205834,5,2,0:0:0:0:
190,148,206487,1,2,0:1:0:0:
425,367,207139,5,4,0:3:0:0:
462,89,207791,1,2,0:0:0:0:
184,51,208443,5,4,0:3:0:0:
147,329,209095,1,2,0:0:0:0:
331,118,209747,5,6,0:0:0:0:
402,238,210074,2,0,L|331:232,1,56,8|0,0:3|0:0,0:0:0:0:
277,276,210400,2,0,L|217:282,1,56,10|0,0:3|0:0,0:0:0:0:
174,347,210726,2,0,L|110:363,1,56,8|0,0:3|0:0,0:0:0:0:
40,352,211052,6,0,P|28:322|34:284,1,56,10|0,0:3|0:0,0:0:0:0:
82,239,211378,2,0,P|94:209|88:171,1,56,8|0,0:3|0:0,0:0:0:0:
46,126,211704,1,10,0:3:0:0:
146,28,212030,1,10,0:3:0:0:
235,135,212356,5,6,0:0:0:0:
346,50,212682,1,10,0:3:0:0:
346,50,212845,1,0,0:0:0:0:
416,95,213008,2,0,L|409:171,1,70,10|8,0:3|0:0,0:0:0:0:
336,205,213334,2,0,L|344:296,1,70,10|8,0:0|0:0,0:0:0:0:
395,340,213661,5,2,0:1:0:0:
395,340,214965,6,0,P|352:327|293:346,1,77.0000023498536,6|0,0:0|0:0,0:0:0:0:
232,358,215291,2,0,P|186:367|136:351,1,77.0000023498536,10|0,0:0|0:0,0:0:0:0:
87,299,215617,2,0,L|80:133,1,154.000004699707,10|10,0:0|0:0,0:0:0:0:
138,73,216106,1,10,0:3:0:0:
213,126,216269,6,0,L|218:213,1,77.0000023498536,8|0,0:0|0:0,0:0:0:0:
306,179,216595,2,0,L|299:264,1,77.0000023498536,10|0,0:0|0:0,0:0:0:0:
390,238,216921,2,0,P|439:275|502:216,1,154.000004699707,10|10,0:0|0:0,0:0:0:0:
456,143,217411,1,10,0:3:0:0:
508,50,217574,6,0,B|405:62|455:15|336:29,1,154.000004699707,4|8,0:0|0:0,0:0:0:0:
297,96,218063,2,0,B|275:62|275:62|128:56,1,154.000004699707,4|8,0:0|0:0,0:0:0:0:
75,23,218552,2,0,P|83:69|72:107,1,77.0000023498536,6|2,0:0|0:0,0:0:0:0:
11,164,218878,5,8,0:0:0:0:
49,344,219204,1,10,0:0:0:0:
191,225,219530,2,0,L|270:223,1,77.0000023498536,10|0,0:3|0:0,0:0:0:0:
345,272,219856,1,10,0:0:0:0:
262,313,220019,1,8,0:0:0:0:
379,373,220182,6,0,P|418:337|517:364,2,154.000004699707,6|8|8,0:0|0:0|0:3,0:0:0:0:
315,306,220997,1,8,0:3:0:0:
245,367,221161,2,0,P|200:372|159:361,1,77.0000023498536,10|2,0:0|0:0,0:0:0:0:
95,309,221487,6,0,L|85:140,1,154.000004699707,8|8,0:3|0:0,0:0:0:0:
23,87,221976,1,0,0:0:0:0:
92,25,222139,2,0,P|133:44|186:44,1,77.0000023498536,8|8,0:3|0:3,0:0:0:0:
253,21,222465,1,10,0:0:0:0:
253,21,222628,1,8,0:0:0:0:
367,59,222791,6,0,L|360:219,1,154.000004699707,6|0,0:0|0:0,0:0:0:0:
418,284,223280,1,8,0:3:0:0:
358,354,223443,2,0,P|304:320|201:344,1,154.000004699707,6|8,0:0|0:0,0:0:0:0:
136,375,223932,1,0,0:0:0:0:
60,322,224095,6,0,L|52:240,1,77.0000023498536,6|0,0:0|0:0,0:0:0:0:
143,258,224421,2,0,L|151:172,1,77.0000023498536,2|0,0:0|0:0,0:0:0:0:
236,213,224747,1,10,0:0:0:0:
236,213,224911,1,8,0:0:0:0:
229,120,225074,1,10,0:0:0:0:
229,120,225237,1,8,0:0:0:0:
311,160,225400,5,4,0:0:0:0:
421,83,225726,2,0,L|424:20,2,56,0|0|2,0:0|0:0|0:0,0:0:0:0:
311,160,226378,2,0,L|313:231,2,56,0|0|2,0:0|0:0|0:0,0:0:0:0:
238,46,227030,1,0,0:0:0:0:
133,130,227356,2,0,P|168:117|203:135,1,56,2|0,0:0|0:0,0:0:0:0:
197,192,227682,2,0,P|225:215|227:255,1,56,0|0,0:0|0:0,0:0:0:0:
185,290,228008,5,2,0:1:0:0:
59,241,228334,2,0,L|0:244,2,56,0|0|2,0:0|0:0|0:0,0:0:0:0:
160,152,228987,2,0,L|219:155,2,56,0|0|2,0:0|0:0|0:0,0:0:0:0:
38,94,229639,1,0,0:0:0:0:
155,28,229965,2,0,P|237:12|314:62,1,168,2|0,0:0|0:0,0:0:0:0:
339,129,230617,5,4,0:0:0:0:
52,334,231921,1,4,0:0:0:0:
411,317,233226,6,0,L|416:223,1,70,10|0,0:0|0:0,0:0:0:0:
481,195,233552,2,0,L|471:107,1,70,10|0,0:0|0:0,0:0:0:0:
436,49,233878,2,0,P|394:65|352:55,1,70,10|8,0:0|0:3,0:0:0:0:
288,41,234204,2,0,P|246:25|204:35,1,70,10|10,0:0|0:3,0:0:0:0:
145,62,234530,5,14,0:0:0:0:
178,138,234693,2,0,L|260:135,1,70,8|8,0:0|0:0,0:0:0:0:
326,104,235019,1,2,0:0:0:0:
326,104,235101,1,0,0:0:0:0:
326,104,235182,2,0,P|361:132|345:235,1,140,10|8,0:0|0:0,0:0:0:0:
294,274,235671,1,10,0:0:0:0:
335,371,235834,6,0,L|486:365,2,140,6|8|8,0:0|0:0|0:3,0:0:0:0:
260,331,236650,1,8,0:3:0:0:
182,362,236813,2,0,P|145:348|102:349,1,70,8|0,0:0|0:0,0:0:0:0:
36,365,237139,5,8,0:3:0:0:
64,285,237302,1,0,0:0:0:0:
34,206,237465,2,0,P|81:199|110:173,1,70,10|0,0:0|0:0,0:0:0:0:
165,237,237791,2,0,P|182:192|174:154,1,70,10|8,0:3|0:3,0:0:0:0:
257,137,238117,2,0,P|227:99|190:87,1,70,10|0,0:0|0:0,0:0:0:0:
135,48,238443,6,0,L|298:38,1,140,10|8,0:3|0:0,0:0:0:0:
350,74,238932,1,0,0:0:0:0:
423,34,239095,2,0,P|433:72|425:111,1,70,10|8,0:3|0:3,0:0:0:0:
366,158,239421,1,8,0:0:0:0:
286,132,239584,6,0,L|295:287,1,140,2|0,0:0|0:0,0:0:0:0:
312,354,240074,2,0,P|277:344|227:358,1,70,10|0,0:0|0:0,0:0:0:0:
161,334,240400,2,0,P|119:347|78:336,1,70,10|8,0:3|0:3,0:0:0:0:
23,297,240726,1,10,0:0:0:0:
23,297,240889,1,8,0:0:0:0:
55,219,241052,6,0,L|146:211,1,70,6|0,0:0|0:0,0:0:0:0:
208,204,241378,1,8,0:3:0:0:
262,267,241541,2,0,P|319:245|399:283,1,140,8|8,0:0|0:0,0:0:0:0:
457,321,242030,2,0,L|464:237,1,70,4|0,0:0|0:0,0:0:0:0:
425,175,242356,5,10,0:3:0:0:
470,104,242519,1,8,0:0:0:0:
425,175,242682,2,0,L|346:167,1,70,2|0,0:0|0:0,0:0:0:0:
308,98,243008,1,10,0:0:0:0:
308,98,243171,1,8,0:0:0:0:
248,38,243334,2,0,L|152:47,1,70,10|8,0:3|0:0,0:0:0:0:
98,71,243675,5,6,0:0:0:0:
20,220,243989,2,0,L|27:312,1,70,8|0,0:0|0:0,0:0:0:0:
99,332,244316,2,0,L|107:260,1,70,8|0,0:0|0:0,0:0:0:0:
182,226,244646,2,0,L|192:309,1,70,8|0,0:0|0:0,0:0:0:0:
263,347,244980,5,10,0:0:0:0:
263,347,245149,1,8,0:0:0:0:
335,303,245319,2,0,P|383:300|430:320,1,70,8|8,0:0|0:0,0:0:0:0:
477,349,245658,5,10,0:0:0:0:
496,271,245846,1,10,0:0:0:0:
431,215,246038,5,10,0:0:0:0:
452,130,246230,1,10,0:0:0:0:
256,191,247057,5,6,0:0:0:0:
256,192,247218,12,4,252218,0:0:0:0:
