osu file format v14

[General]
AudioFilename: audio.mp3
AudioLeadIn: 0
PreviewTime: 52739
Countdown: 1
SampleSet: Normal
StackLeniency: 0.7
Mode: 0
LetterboxInBreaks: 0
WidescreenStoryboard: 0

[Editor]
Bookmarks: 160185,195076
DistanceSpacing: 1
BeatDivisor: 4
GridSize: 4
TimelineZoom: 2.4

[Metadata]
Title:Daisy Blue
TitleUnicode:Daisy Blue
Artist:Kano
ArtistUnicode:Kano
Creator:Pawlyk here
Version:Extra
Source:
Tags:Alstroemeria Reazen Jval93700
BeatmapID:1589466
BeatmapSetID:755062

[Difficulty]
HPDrainRate:6
CircleSize:4.2
OverallDifficulty:8.5
ApproachRate:9.3
SliderMultiplier:1.8
SliderTickRate:1

[Events]
//Background and Video events
0,0,"21761838_1432547640157188_7425697837025544065_n_waifu2x_art_noise1_scale_tta_1.png",0,0
//Break Periods
2,160385,168745
2,225602,229398
//Storyboard Layer 0 (Background)
//Storyboard Layer 1 (Fail)
//Storyboard Layer 2 (Pass)
//Storyboard Layer 3 (Foreground)
//Storyboard Sound Samples

[TimingPoints]
1055,326.086956521739,4,1,1,100,1,0
1055,-166.666666666667,4,1,1,30,0,0
8881,-133.333333333333,4,1,1,30,0,0
9125,-133.333333333333,4,1,1,5,0,0
9207,-133.333333333333,4,1,1,15,0,0
9451,-133.333333333333,4,1,1,5,0,0
9533,-133.333333333333,4,1,1,15,0,0
9777,-133.333333333333,4,1,1,15,0,0
10103,-133.333333333333,4,1,1,5,0,0
10185,-153.846153846153,4,1,1,25,0,0
11489,-111.111111111111,4,1,1,65,0,0
12060,-111.111111111111,4,1,1,5,0,0
12141,-111.111111111111,4,1,1,65,0,0
14016,-111.111111111111,4,1,1,5,0,0
14098,-111.111111111111,4,1,1,65,0,0
16707,-99.9999999999999,4,1,1,65,0,0
16951,-99.9999999999999,4,1,1,5,0,0
17033,-99.9999999999999,4,1,1,65,0,0
19560,-99.9999999999999,4,1,1,5,0,0
19641,-99.9999999999999,4,1,1,65,0,0
20620,-125,4,1,1,65,0,0
21843,-125,4,1,1,5,0,0
21924,-133.333333333333,4,1,1,45,0,0
24777,-133.333333333333,4,1,1,5,0,0
24859,-133.333333333333,4,1,1,45,0,0
32033,-133.333333333333,4,1,1,55,0,0
32277,-133.333333333333,4,1,1,5,0,0
32359,-117.647058823529,4,1,1,65,0,0
32603,-117.647058823529,4,1,1,5,0,0
32685,-117.647058823529,4,1,1,65,0,0
33908,-117.647058823529,4,1,1,5,0,0
33989,-117.647058823529,4,1,1,65,0,0
37821,-117.647058823529,4,1,1,5,0,0
37902,-117.647058823529,4,1,1,65,0,0
40185,-86.9565217391303,4,1,1,65,0,0
40429,-86.9565217391303,4,1,1,5,0,0
40511,-95.2380952380952,4,1,1,65,0,0
42794,-105.263157894737,4,1,1,55,0,0
44016,-105.263157894737,4,1,1,5,0,0
44098,-105.263157894737,4,1,1,55,0,0
46625,-105.263157894737,4,1,1,5,0,0
46707,-105.263157894737,4,1,1,55,0,0
49234,-105.263157894737,4,1,1,5,0,0
49315,-105.263157894737,4,1,1,55,0,0
50620,-95.2380952380954,4,1,1,65,0,0
52902,-117.647058823529,4,1,1,65,0,0
53147,-117.647058823529,4,1,1,5,0,0
53228,-95.2380952380952,4,1,1,70,0,1
55103,-95.2380952380952,4,1,1,5,0,1
55185,-95.2380952380952,4,1,1,70,0,1
57386,-95.2380952380952,4,1,1,5,0,1
57468,-95.2380952380952,4,1,1,70,0,1
57712,-95.2380952380952,4,1,1,5,0,1
57794,-95.2380952380952,4,1,1,70,0,1
60402,-86.9565217391304,4,1,1,70,0,1
60973,-86.9565217391304,4,1,1,5,0,1
61054,-95.2380952380952,4,1,1,70,0,1
62359,-74.0740740740741,4,1,1,70,0,1
62603,-74.0740740740741,4,1,1,5,0,1
62685,-60.6060606060606,4,1,1,70,0,1
63011,-80,4,1,1,70,0,1
63663,-74.0740740740741,4,1,1,70,0,1
66924,-80,4,1,1,70,0,1
68391,-105.263157894737,4,1,1,70,0,1
68886,-95.2380952380952,4,1,1,70,0,1
69125,-95.2380952380952,4,1,1,5,0,1
69207,-95.2380952380952,4,1,1,70,0,1
72794,-105.263157894737,4,1,1,70,0,1
73935,-95.2380952380952,4,1,1,70,0,1
74098,-105.263157894737,4,1,1,65,0,0
76951,-105.263157894737,4,1,1,5,0,0
77033,-105.263157894737,4,1,1,65,0,0
79315,-105.263157894737,4,1,1,55,0,0
81924,-95.2380952380952,4,1,1,70,0,1
84533,-80,4,1,1,65,0,0
84777,-80,4,1,1,5,0,0
84859,-105.263157894737,4,1,1,65,0,0
87060,-105.263157894737,4,1,1,5,0,0
87141,-105.263157894737,4,1,1,65,0,0
89750,-100,4,1,1,65,0,0
89995,-100,4,1,1,5,0,0
90076,-100,4,1,1,65,0,0
92603,-100,4,1,1,5,0,0
92685,-100,4,1,1,65,0,0
93908,-100,4,1,1,5,0,0
93989,-100,4,1,1,65,0,0
94968,-117.647058823529,4,1,1,45,0,0
97495,-117.647058823529,4,1,1,5,0,0
97576,-117.647058823529,4,1,1,45,0,0
99777,-117.647058823529,4,1,1,5,0,0
99859,-117.647058823529,4,1,1,45,0,0
105076,-100,4,1,1,45,0,0
105402,-105.263157894737,4,1,1,65,0,0
105973,-105.263157894737,4,1,1,5,0,0
106054,-105.263157894737,4,1,1,65,0,0
106951,-105.263157894737,4,1,1,5,0,0
107033,-105.263157894737,4,1,1,65,0,0
109886,-105.263157894737,4,1,1,5,0,0
109968,-105.263157894737,4,1,1,65,0,0
113228,-86.9565217391304,4,1,1,65,0,0
113473,-86.9565217391304,4,1,1,5,0,0
113554,-95.2380952380952,4,1,1,65,0,0
115837,-105.263157894737,4,1,1,55,0,0
117060,-105.263157894737,4,1,1,5,0,0
117141,-105.263157894737,4,1,1,55,0,0
119669,-105.263157894737,4,1,1,5,0,0
119750,-105.263157894737,4,1,1,55,0,0
120565,-95.2380952380952,4,1,1,45,0,0
121054,-105.263157894737,4,1,1,55,0,0
122277,-105.263157894737,4,1,1,5,0,0
122359,-105.263157894737,4,1,1,55,0,0
123663,-95.2380952380952,4,1,1,65,0,0
124968,-95.2380952380952,4,1,1,70,0,0
125946,-117.647058823529,4,1,1,55,0,0
126190,-117.647058823529,4,1,1,5,0,0
126272,-95.2380952380952,4,1,1,70,0,1
128147,-95.2380952380952,4,1,1,5,0,1
128228,-95.2380952380952,4,1,1,70,0,1
130429,-95.2380952380952,4,1,1,5,0,1
130511,-95.2380952380952,4,1,1,70,0,1
130756,-95.2380952380952,4,1,1,5,0,1
130837,-95.2380952380952,4,1,1,70,0,1
133446,-80,4,1,1,70,0,1
134098,-86.9565217391304,4,1,1,70,0,1
134750,-95.2380952380952,4,1,1,70,0,1
135076,-86.9565217391304,4,1,1,70,0,1
135402,-74.0740740740741,4,1,1,70,0,1
135647,-74.0740740740741,4,1,1,5,0,1
135728,-64.5161290322581,4,1,1,70,0,1
136054,-80,4,1,1,70,0,1
136707,-74.0740740740741,4,1,1,70,0,1
140864,-74.0740740740741,4,1,1,5,0,1
140946,-74.0740740740741,4,1,1,70,0,1
141435,-105.263157894737,4,1,1,70,0,1
141679,-105.263157894737,4,1,1,5,0,1
141761,-105.263157894737,4,1,1,70,0,1
141924,-95.2380952380952,4,1,1,70,0,1
145837,-117.647058823529,4,1,1,70,0,1
147141,-117.647058823529,4,1,1,65,0,0
149995,-117.647058823529,4,1,1,5,0,0
150076,-117.647058823529,4,1,1,65,0,0
150402,-95.238095238095,4,1,1,65,0,0
150728,-117.647058823529,4,1,1,65,0,0
153663,-95.238095238095,4,1,1,65,0,0
154315,-105.263157894737,4,1,1,65,0,0
154968,-95.238095238095,4,1,1,70,0,1
157576,-95.2380952380952,4,1,1,60,0,0
158881,-95.2380952380952,4,1,1,70,0,0
159533,-95.2380952380952,4,1,1,75,0,0
160185,-95.2380952380952,4,1,1,45,0,0
170620,-95.2380952380952,4,1,1,65,0,0
170864,-95.2380952380952,4,1,1,5,0,0
170946,-95.2380952380952,4,1,1,65,0,0
173473,-95.2380952380952,4,1,1,5,0,0
173554,-95.2380952380952,4,1,1,65,0,0
174777,-95.2380952380952,4,1,1,5,0,0
174859,-95.2380952380952,4,1,1,65,0,0
175837,-90.9090909090909,4,1,1,65,0,0
176082,-90.9090909090909,4,1,1,5,0,0
176163,-95.2380952380952,4,1,1,65,0,0
179750,-105.263157894737,4,1,1,65,0,0
181054,-111.111111111111,4,1,1,65,0,0
185538,-111.111111111111,4,1,1,5,0,0
185620,-111.111111111111,4,1,1,60,0,0
186190,-111.111111111111,4,1,1,5,0,0
186272,-99.9999999999999,4,1,1,65,0,0
186843,-99.9999999999999,4,1,1,5,0,0
186924,-99.9999999999999,4,1,1,65,0,0
187576,-95.2380952380952,4,1,1,65,0,0
191489,-117.647058823529,4,1,1,65,0,0
194343,-117.647058823529,4,1,1,5,0,0
194424,-117.647058823529,4,1,1,65,0,0
199968,-117.647058823529,4,1,1,45,0,0
200212,-117.647058823529,4,1,1,15,0,0
200294,-117.647058823529,4,1,1,45,0,0
200620,-105.263157894737,4,1,1,65,0,0
200864,-105.263157894737,4,1,1,15,0,0
200946,-105.263157894737,4,1,1,55,0,0
201190,-105.263157894737,4,1,1,15,0,0
201272,-95.238095238095,4,1,1,65,0,0
201516,-95.238095238095,4,1,1,15,0,0
201598,-95.238095238095,4,1,1,75,0,0
201843,-95.238095238095,4,1,1,15,0,0
201924,-86.9565217391304,4,1,1,65,0,0
203228,-86.9565217391304,4,1,1,55,0,0
203881,-86.9565217391304,4,1,1,45,0,0
207141,-133.333333333333,4,1,1,45,0,0
211707,-117.647058823529,4,1,1,45,0,0
212359,-95.2380952380951,4,1,1,45,0,0
214968,-74.0740740740741,4,1,1,70,0,1
219125,-80,4,1,1,5,0,1
219207,-95.2380952380952,4,1,1,70,0,1
223446,-86.9565217391304,4,1,1,70,0,1
223935,-95.2380952380952,4,1,1,70,0,1
224750,-117.647058823529,4,1,1,70,0,1
225402,-80,4,1,1,45,0,0
229968,-133.333333333333,4,1,1,45,0,0
230620,-117.647058823529,4,1,1,45,0,0
233147,-117.647058823529,4,1,1,5,0,0
233228,-80,4,1,1,65,0,1
235837,-105.263157894737,4,1,1,65,0,0
236408,-105.263157894737,4,1,1,5,0,0
236489,-105.263157894737,4,1,1,65,0,0
238364,-105.263157894737,4,1,1,5,0,0
238446,-105.263157894737,4,1,1,65,0,0
240321,-105.263157894737,4,1,1,5,0,0
240402,-105.263157894737,4,1,1,65,0,0
241054,-95.2380952380952,4,1,1,65,0,0
243908,-95.2380952380952,4,1,1,5,0,0
243989,-95.2380952380952,4,1,1,65,0,0
244968,333.333333333333,4,1,1,60,1,0
245301,352.941176470588,4,1,1,60,1,0
245653,375,4,1,1,60,1,0
245653,-83.3333333333333,4,1,1,60,0,0
246028,400,4,1,1,60,1,0
246028,-83.3333333333333,4,1,1,60,0,0
246228,413.793103448276,4,1,1,60,1,0
252124,-100,4,1,1,10,0,0

[HitObjects]
184,288,1055,6,0,P|240:308|328:248,1,161.999995056153
240,212,1707,2,0,L|224:100,1,107.999996704102
382,187,2359,2,0,P|306:231|226:199,1,161.999995056153
155,151,3011,2,0,P|95:143|43:167,1,107.999996704102
67,311,3663,6,0,P|83:231|51:159,1,161.999995056153
140,260,4315,2,0,P|188:280|248:264,1,107.999996704102
320,144,4968,2,0,P|352:192|344:248,1,107.999996704102
241,268,5620,1,0,0:0:0:0:
320,144,5946,1,0,0:0:0:0:
340,352,6272,6,0,B|300:340|300:340|244:368|180:336,1,161.999995056153
132,312,6924,2,0,P|140:260|96:208,1,107.999996704102
60,120,7576,2,0,B|112:104|156:120|156:120|192:128|232:116,1,161.999995056153
280,112,8228,2,0,P|293:61|265:13,1,107.999996704102
196,152,8881,2,0,P|188:196|224:248,1,101.250003862381
296,244,9207,2,0,P|323:203|316:154,1,101.250003862381
343,79,9533,2,0,P|294:74|250:98,1,101.250003862381
156,79,9859,2,0,P|206:74|250:98,1,101.250003862381
256,188,10185,2,0,B|320:218|376:170|376:170|452:174|492:226|468:290|468:290|384:298|387:227,1,409.499981254578
220,280,11489,6,0,P|208:324|228:376,1,80.9999975280763,6|0,0:0|0:0,0:0:0:0:
347,279,11815,2,0,P|368:223|346:167,1,121.499996292114,8|0,0:0|0:0,0:0:0:0:
256,188,12141,2,0,L|152:184,1,80.9999975280763,2|2,0:0|0:0,0:0:0:0:
92,52,12468,1,8,0:0:0:0:
104,208,12631,1,0,0:0:0:0:
196,56,12794,2,0,L|300:56,1,80.9999975280763,2|0,0:0|0:0,0:0:0:0:
408,168,13120,6,0,P|368:184|304:176,1,80.9999975280763,10|0,0:0|0:0,0:0:0:0:
121,111,13446,2,0,P|161:111|198:127,1,80.9999975280763,2|0,0:0|0:0,0:0:0:0:
264,316,13772,2,0,P|234:260|254:179,1,121.499996292114,10|0,0:0|0:0,0:0:0:0:
276,116,14098,2,0,P|244:128|172:116,1,80.9999975280763,4|0,0:0|0:0,0:0:0:0:
76,240,14424,1,8,0:0:0:0:
239,204,14587,1,0,0:0:0:0:
88,324,14750,1,0,0:0:0:0:
152,164,14913,1,0,0:0:0:0:
152,164,14995,1,0,0:0:0:0:
152,164,15076,5,8,0:0:0:0:
208,312,15239,1,0,0:0:0:0:
44,196,15402,2,0,P|36:152|60:100,1,80.9999975280763,2|0,0:0|0:0,0:0:0:0:
212,28,15728,2,0,L|212:132,1,80.9999975280763,8|0,0:0|0:0,0:0:0:0:
236,248,16054,2,0,L|296:260,1,40.4999987640381,2|0,0:0|0:0,0:0:0:0:
376,172,16218,2,0,L|304:160,1,40.4999987640381,2|0,0:0|0:0,0:0:0:0:
212,109,16381,1,8,0:0:0:0:
232,252,16544,1,8,0:0:0:0:
432,236,16707,6,0,P|460:184|416:100,1,135,4|0,0:0|0:0,0:0:0:0:
404,88,17033,1,2,0:0:0:0:
260,161,17196,1,8,0:0:0:0:
329,13,17359,1,0,0:0:0:0:
384,176,17522,1,8,0:0:0:0:
286,84,17685,2,0,B|224:76|192:120|192:120|152:132|110:108,1,180,4|0,0:0|0:0,0:0:0:0:
24,236,18174,1,8,0:0:0:0:
24,236,18256,1,0,0:0:0:0:
24,236,18337,6,0,L|32:132,1,90
72,48,18663,1,8,0:0:0:0:
104,204,18826,1,8,0:0:0:0:
0,88,18989,1,0,0:0:0:0:
160,64,19152,1,8,0:0:0:0:
256,192,19315,6,0,P|328:212|372:152,1,135,4|0,0:0|0:0,0:0:0:0:
512,152,19641,2,0,L|444:164,1,45,8|0,0:0|0:0,0:0:0:0:
376,268,19804,2,0,L|436:256,1,45
512,252,19968,1,8,0:0:0:0:
409,106,20131,1,8,0:0:0:0:
256,192,20294,2,0,B|204:192|172:164|172:164|140:160|96:184,1,135,8|0,0:0|0:0,0:0:0:0:
256,192,20620,6,0,P|299:145|267:77,1,144,4|0,0:0|0:0,0:0:0:0:
152,200,21109,2,0,L|144:240,1,36
124,316,21272,1,0,0:0:0:0:
76,204,21435,1,0,0:0:0:0:
212,264,21598,2,0,P|276:276|320:232,1,108,8|0,0:0|0:0,0:0:0:0:
332,236,21924,6,0,L|348:384,1,135.000005149842
420,288,22576,2,0,L|408:204,1,67.5000025749208
376,120,22902,1,0,0:0:0:0:
288,172,23065,1,0,0:0:0:0:
192,120,23228,2,0,P|128:132|100:212,2,135.000005149842
272,112,24044,1,0,0:0:0:0:
260,236,24207,2,0,P|296:240|340:228,1,67.5000025749208
192,184,24533,6,0,P|172:232|183:281,1,101.250003862381
196,308,24859,2,0,L|288:308,1,67.5000025749208
144,368,25185,2,0,L|68:368,1,67.5000025749208
8,268,25511,1,0,0:0:0:0:
8,268,25674,1,0,0:0:0:0:
100,280,25837,5,0,0:0:0:0:
168,216,26000,1,0,0:0:0:0:
144,124,26163,1,0,0:0:0:0:
52,100,26326,1,0,0:0:0:0:
76,256,26489,1,0,0:0:0:0:
168,216,26652,1,0,0:0:0:0:
256,264,26815,1,0,0:0:0:0:
348,224,26978,1,0,0:0:0:0:
428,296,27141,6,0,L|508:296,1,67.5000025749208
480,144,27468,2,0,P|464:180|468:232,1,67.5000025749208
376,104,27794,2,0,B|336:92|308:104|308:104|280:116|236:100,1,135.000005149842
332,252,28283,1,0,0:0:0:0:
332,252,28446,2,0,P|340:212|332:168,2,67.5000025749208
244,111,28935,1,0,0:0:0:0:
160,220,29098,2,0,L|260:220,1,67.5000025749208
184,328,29424,2,0,L|108:328,1,67.5000025749208
280,328,29750,6,0,L|380:328,1,67.5000025749208
295,220,30076,2,0,L|215:220,1,67.5000025749208
143,379,30402,2,0,P|175:347|187:307,1,67.5000025749208
100,96,30728,2,0,L|96:192,1,67.5000025749208
144,244,30973,1,0,0:0:0:0:
144,244,31054,6,0,B|196:224|244:244|244:244|304:244|324:192|308:136|260:112|204:124|192:176,1,337.500012874604
320,288,32033,2,0,P|368:268|444:280,1,101.250003862381,8|0,0:0|0:0,0:0:0:0:
388,364,32359,2,0,P|376:304|388:220,1,114.750002188683,4|0,0:0|0:0,0:0:0:0:
384,224,32685,2,0,P|452:240|484:184,1,114.750002188683,8|0,0:0|0:0,0:0:0:0:
492,156,33011,1,0,0:0:0:0:
344,168,33174,1,0,0:0:0:0:
420,24,33337,2,0,L|420:136,1,76.5000014591217,8|0,0:0|0:0,0:0:0:0:
384,224,33663,6,0,P|328:204|256:232,1,114.750002188683
224,280,33989,1,8,0:0:0:0:
104,216,34152,2,0,P|96:172|112:128,1,76.5000014591217
216,64,34478,1,0,0:0:0:0:
80,24,34641,1,8,0:0:0:0:
168,176,34804,1,0,0:0:0:0:
336,92,34968,6,0,P|376:84|428:96,1,76.5000014591217,4|0,0:0|0:0,0:0:0:0:
448,248,35294,2,0,P|404:240|376:220,1,76.5000014591217,8|0,0:0|0:0,0:0:0:0:
416,96,35620,1,0,0:0:0:0:
378,222,35783,1,0,0:0:0:0:
416,96,35946,2,0,L|424:0,1,76.5000014591217,8|0,0:0|0:0,0:0:0:0:
310,165,36272,6,0,L|298:253,1,76.5000014591217,2|0,0:0|0:0,0:0:0:0:
488,304,36598,2,0,P|512:252|504:208,1,76.5000014591217,8|0,0:0|0:0,0:0:0:0:
284,316,36924,1,0,0:0:0:0:
380,228,37087,1,0,0:0:0:0:
396,368,37250,1,8,0:0:0:0:
216,332,37413,1,0,0:0:0:0:
310,165,37576,6,0,P|284:104|218:89,1,114.750002188683,4|0,0:0|0:0,0:0:0:0:
164,120,37902,2,0,P|120:124|84:116,1,76.5000014591217,8|0,0:0|0:0,0:0:0:0:
240,8,38228,2,0,L|240:84,1,76.5000014591217
240,236,38554,1,8,0:0:0:0:
316,104,38718,1,0,0:0:0:0:
316,104,38799,1,0,0:0:0:0:
316,104,38881,6,0,P|356:116|400:104,1,76.5000014591217,2|0,0:0|0:0,0:0:0:0:
456,136,39207,1,8,0:0:0:0:
356,40,39370,1,0,0:0:0:0:
384,184,39533,1,0,0:0:0:0:
484,76,39696,1,0,0:0:0:0:
316,104,39859,1,8,0:0:0:0:
456,220,40022,1,0,0:0:0:0:
284,288,40185,6,0,P|200:288|176:220,1,155.250002961159,4|0,0:0|0:0,0:0:0:0:
96,136,40511,2,0,L|94:253,1,94.499997116089,8|0,0:0|0:0,0:0:0:0:
272,208,40837,2,0,L|272:148,1,47.2499985580445,8|0,0:0|0:0,0:0:0:0:
144,76,41000,2,0,P|97:62|32:92,1,94.499997116089,8|0,0:0|0:0,0:0:0:0:
0,304,41326,2,0,B|26:300|48:292|48:292|92:320|144:296|144:296|168:308|192:304,1,188.999994232178,4|8,0:0|0:0,0:0:0:0:
324,272,41815,5,0,0:0:0:0:
328,276,41978,1,4,0:0:0:0:
212,220,42141,1,12,0:0:0:0:
372,208,42304,1,8,0:0:0:0:
256,324,42468,1,0,0:0:0:0:
284,144,42631,1,0,0:0:0:0:
148,216,42794,6,0,P|96:224|40:204,1,85.4999977169037,6|0,0:0|0:0,0:0:0:0:
216,120,43120,1,0,0:0:0:0:
156,296,43283,2,0,P|106:276|68:231,1,85.4999977169037,8|0,0:0|0:0,0:0:0:0:
216,120,43609,1,2,0:0:0:0:
123,369,43772,2,0,P|90:327|83:253,1,128.249996575356,8|0,0:0|2:0,2:0:0:0:
188,228,44098,2,0,P|244:228|284:200,1,85.4999977169037
340,88,44424,5,0,0:0:0:0:
340,88,44587,1,0,0:0:0:0:
424,184,44750,1,8,0:0:0:0:
260,140,44913,1,0,0:0:0:0:
400,56,45076,1,0,0:0:0:0:
340,208,45239,1,0,0:0:0:0:
268,60,45402,6,0,L|164:69,1,85.4999977169037,4|0,0:0|0:0,0:0:0:0:
356,276,45728,1,0,0:0:0:0:
234,163,45891,2,0,L|140:179,1,85.4999977169037,8|0,0:0|0:0,0:0:0:0:
280,344,46218,2,0,L|354:330,1,42.7499988584519
424,308,46381,2,0,B|432:264|416:240|416:240|400:208|416:160,1,128.249996575356,4|0,0:0|0:0,0:0:0:0:
492,72,46707,2,0,L|492:172,1,85.4999977169037
496,272,47033,5,0,0:0:0:0:
500,276,47196,1,0,0:0:0:0:
376,212,47359,1,8,0:0:0:0:
492,157,47522,1,8,0:0:0:0:
380,288,47685,1,0,0:0:0:0:
424,124,47848,1,8,0:0:0:0:
512,336,48011,6,0,P|472:344|420:336,1,85.4999977169037,6|0,0:0|0:0,0:0:0:0:
312,264,48337,1,2,0:0:0:0:
424,207,48500,2,0,P|432:159|404:95,1,85.4999977169037,8|0,0:0|0:0,0:0:0:0:
276,52,48826,1,0,0:0:0:0:
212,220,48989,2,0,B|252:220|280:200|280:200|316:188|360:204,1,128.249996575356,14|0,0:0|0:0,0:0:0:0:
424,207,49315,6,0,P|436:259|412:307,2,85.4999977169037,2|0|0,0:0|0:0|0:0,0:0:0:0:
336,92,49804,1,2,0:0:0:0:
264,204,49968,1,8,0:0:0:0:
431,144,50131,1,8,0:0:0:0:
232,88,50294,1,0,0:0:0:0:
332,256,50457,1,0,0:0:0:0:
336,92,50620,6,0,L|320:-8,1,94.499997116089,12|0,0:0|0:0,0:0:0:0:
264,204,50946,1,10,0:0:0:0:
321,0,51109,1,8,0:0:0:0:
460,159,51272,1,10,0:0:0:0:
200,167,51435,1,0,0:0:0:0:
412,48,51598,1,10,0:0:0:0:
164,76,51761,1,0,0:0:0:0:
312,272,51924,1,14,0:0:0:0:
80,160,52739,6,0,L|80:224,1,47.2499985580445
144,244,52902,2,0,P|200:224|260:260,1,114.750002188683,8|0,0:0|0:0,0:0:0:0:
196,296,53228,6,0,P|184:232|200:179,1,94.499997116089,14|0,0:0|0:0,0:0:0:0:
356,140,53554,6,0,P|306:158|256:152,1,94.499997116089,8|0,0:0|2:0,2:0:0:0:
112,92,53881,1,2,0:0:0:0:
236,24,54044,1,2,0:0:0:0:
160,156,54207,1,8,0:0:0:0:
68,24,54370,2,0,P|112:8|184:48,1,94.499997116089,0|2,0:0|0:0,0:0:0:0:
272,160,54696,1,0,0:0:0:0:
204,264,54859,6,0,B|212:220|212:220|200:192|200:192|184:152|216:104,1,141.749995674133,8|0,0:0|0:0,0:0:0:0:
248,56,55185,1,2,0:0:0:0:
340,160,55348,1,2,0:0:0:0:
332,12,55511,1,8,0:0:0:0:
156,84,55674,1,0,0:0:0:0:
280,232,55837,6,0,P|344:256|420:216,1,141.749995674133,6|0,0:0|0:0,0:0:0:0:
488,192,56163,2,0,L|489:309,1,94.499997116089,8|0,0:0|0:0,0:0:0:0:
392,360,56489,1,2,0:0:0:0:
392,360,56652,1,2,0:0:0:0:
488,192,56815,2,0,P|440:176|376:212,1,94.499997116089,8|0,0:0|0:0,0:0:0:0:
224,232,57141,6,0,P|192:164|220:100,1,141.749995674133,2|0,0:0|0:0,0:0:0:0:
304,20,57468,2,0,B|268:56|268:56|232:16|160:44,1,141.749995674133,8|0,0:0|0:0,0:0:0:0:
104,80,57794,1,2,0:0:0:0:
268,164,57957,1,2,0:0:0:0:
100,216,58120,1,8,0:0:0:0:
184,36,58283,2,0,L|181:102,1,47.2499985580445,8|0,0:0|0:0,0:0:0:0:
268,164,58446,6,0,P|324:172|392:140,1,94.499997116089,12|0,0:0|0:0,0:0:0:0:
440,32,58772,2,0,P|397:57|363:125,1,94.499997116089,8|0,0:0|2:0,2:0:0:0:
376,232,59016,1,0,0:0:0:0:
376,232,59098,2,0,P|403:270|443:293,1,94.499997116089,2|2,2:0|2:0,2:0:0:0:
264,348,59424,1,8,0:0:0:0:
272,168,59587,1,0,0:0:0:0:
272,168,59669,1,0,0:0:0:0:
272,168,59750,2,0,B|220:184|180:152|180:152|124:144|92:196,1,188.999994232178,0|8,0:0|0:0,0:0:0:0:
232,252,60239,1,0,0:0:0:0:
236,96,60402,6,0,P|240:36|216:-4,1,103.500001974106,6|0,0:0|0:0,0:0:0:0:
36,224,60728,2,0,P|85:258|172:220,1,155.250002961159,12|0,0:0|0:0,0:0:0:0:
224,164,61054,2,0,L|332:180,1,94.499997116089,10|0,0:0|0:0,0:0:0:0:
448,280,61381,1,8,0:0:0:0:
276,260,61544,1,0,0:0:0:0:
400,148,61707,2,0,L|400:72,1,47.2499985580445,6|0,0:0|0:0,0:0:0:0:
284,52,61870,2,0,L|284:120,1,47.2499985580445
276,260,62033,1,8,0:0:0:0:
128,128,62196,1,0,0:0:0:0:
128,128,62277,1,0,0:0:0:0:
128,128,62359,6,0,B|160:88|208:96|208:96|196:140|224:192,1,182.250000695229,14|0,0:0|0:0,0:0:0:0:
88,196,62685,2,0,P|51:153|82:65,1,148.500001416206,8|2,0:0|0:0,0:0:0:0:
248,32,62929,1,0,0:0:0:0:
248,32,63011,2,0,P|284:84|276:132,1,112.5,2|2,0:0|0:0,0:0:0:0:
300,296,63337,1,8,0:0:0:0:
352,309,63418,1,0,0:0:0:0:
391,272,63500,1,10,0:0:0:0:
381,220,63581,1,2,0:0:0:0:
331,195,63663,6,0,P|265:206|215:182,1,121.500000463486,4|0,0:0|0:0,0:0:0:0:
464,320,63989,2,0,P|480:260|465:203,1,121.500000463486,8|0,0:0|0:0,0:0:0:0:
283,8,64315,2,0,L|276:138,1,121.500000463486,8|2,0:0|0:0,0:0:0:0:
272,339,64641,1,8,0:0:0:0:
413,183,64804,1,2,0:0:0:0:
193,77,64968,1,8,0:0:0:0:
342,278,65131,1,0,0:0:0:0:
494,86,65294,5,8,0:0:0:0:
259,217,65457,1,0,0:0:0:0:
366,1,65620,1,8,0:0:0:0:
342,278,65783,1,2,0:0:0:0:
115,147,65946,1,8,0:0:0:0:
366,96,66109,1,2,0:0:0:0:
164,352,66272,6,0,L|197:233,1,121.500000463486,12|0,0:0|0:0,0:0:0:0:
224,56,66598,1,10,0:0:0:0:
344,276,66761,1,0,0:0:0:0:
344,276,66843,1,0,0:0:0:0:
344,276,66924,2,0,P|400:260|484:292,1,112.5,0|2,0:0|0:0,0:0:0:0:
240,228,67250,1,8,0:0:0:0:
444,96,67413,1,2,0:0:0:0:
340,380,67576,5,14,0:0:0:0:
184,128,67902,2,0,P|244:148|312:132,1,112.5
364,32,68228,1,10,0:0:0:0:
384,176,68391,2,0,P|430:223|486:224,1,85.4999977169037
344,285,68718,2,0,L|340:357,1,42.7499988584519,8|0,0:0|0:0,0:0:0:0:
296,184,68881,6,0,P|313:125|376:88,1,128.249996575356,12|0,0:0|0:0,0:0:0:0:
456,64,69207,1,8,0:0:0:0:
384,176,69370,1,0,0:0:0:0:
220,141,69533,2,0,P|212:193|228:241,1,94.499997116089,2|2,0:0|0:0,0:0:0:0:
380,267,69859,2,0,P|391:221|383:175,1,94.499997116089,8|0,0:0|0:0,0:0:0:0:
233,67,70185,6,0,B|176:64|148:114|148:114|96:124|48:92,1,188.999994232178,6|8,0:0|0:0,0:0:0:0:
55,202,70674,1,0,0:0:0:0:
55,202,70756,1,0,0:0:0:0:
55,202,70837,2,0,P|96:216|160:212,1,94.499997116089,2|2,0:0|0:0,0:0:0:0:
289,231,71163,1,8,0:0:0:0:
143,222,71326,1,8,0:0:0:0:
331,308,71489,6,0,P|376:224|293:144,1,188.999994232178,6|0,0:0|0:0,0:0:0:0:
325,29,71978,1,2,0:0:0:0:
411,92,72141,2,0,P|481:80|409:47,1,188.999994232178,8|8,0:0|0:0,0:0:0:0:
328,153,72631,1,0,0:0:0:0:
216,115,72794,6,0,L|140:113,2,56.9999984779358,6|8|8,0:0|0:0|0:0,0:0:0:0:
248,210,73120,2,0,L|335:213,2,56.9999984779358,8|8|8,0:0|0:0|0:0,0:0:0:0:
166,246,73446,2,0,L|169:174,1,56.9999984779358,10|0,0:0|0:0,0:0:0:0:
300,133,73663,2,0,L|302:65,1,56.9999984779358,2|0,0:0|0:0,0:0:0:0:
124,51,73935,2,0,L|123:115,1,47.2499985580445,8|0,0:0|0:0,0:0:0:0:
82,210,74098,6,0,B|137:228|175:203|175:203|214:189|282:226,1,170.999995433807,14|0,0:0|0:0,0:0:0:0:
329,284,74587,1,2,0:0:0:0:
329,284,74750,2,0,P|355:203|294:111,1,170.999995433807,8|0,0:0|0:0,0:0:0:0:
247,209,75239,1,0,0:0:0:0:
276,345,75402,2,0,P|316:363|384:344,1,85.4999977169037,6|8,0:0|0:0,0:0:0:0:
454,287,75728,1,0,0:0:0:0:
454,287,75891,1,2,0:0:0:0:
329,284,76054,5,8,0:0:0:0:
425,198,76218,1,0,0:0:0:0:
356,359,76381,1,0,0:0:0:0:
255,262,76544,1,10,0:0:0:0:
319,129,76707,2,0,P|260:104|198:117,1,128.249996575356,4|0,0:0|0:0,0:0:0:0:
121,218,77033,2,0,P|137:173|111:116,1,85.4999977169037,0|2,0:0|0:0,0:0:0:0:
44,6,77359,2,0,L|43:179,1,170.999995433807,8|2,0:0|0:0,0:0:0:0:
124,295,77848,1,8,0:0:0:0:
124,295,77929,1,0,0:0:0:0:
124,295,78011,6,0,L|240:278,1,85.4999977169037,4|8,0:0|0:0,0:0:0:0:
325,256,78337,1,0,0:0:0:0:
124,295,78500,1,2,0:0:0:0:
314,174,78663,1,8,0:0:0:0:
221,366,78826,2,0,P|209:311|214:244,1,85.4999977169037
239,170,79152,2,0,L|257:238,1,42.7499988584519,2|0,0:0|0:0,0:0:0:0:
338,327,79315,6,0,P|392:263|347:189,1,170.999995433807,14|0,0:0|0:0,0:0:0:0:
234,125,79968,2,0,P|163:135|227:44,1,256.499993150711
249,211,80620,6,0,B|151:248|92:183|92:183|34:179|0:241,1,256.499993150711,4|0,0:0|0:0,0:0:0:0:
33,334,81272,2,0,B|84:311|113:323|113:323|154:350|219:316,1,170.999995433807
348,305,81761,2,0,L|297:284,1,42.7499988584519
254,199,81924,2,0,P|248:143|283:83,1,94.499997116089,12|0,0:0|0:0,0:0:0:0:
181,263,82250,1,10,0:0:0:0:
384,197,82413,1,0,0:0:0:0:
173,70,82576,1,10,0:0:0:0:
308,288,82739,1,0,0:0:0:0:
270,40,82902,1,10,0:0:0:0:
95,238,83065,1,2,0:0:0:0:
95,238,83147,1,0,0:0:0:0:
95,238,83228,6,0,L|-12:235,1,94.499997116089,12|0,0:0|0:0,0:0:0:0:
95,77,83554,1,2,0:0:0:0:
158,293,83718,1,8,0:0:0:0:
201,310,83799,1,8,0:0:0:0:
248,303,83881,1,8,0:0:0:0:
285,274,83962,1,0,0:0:0:0:
327,252,84044,1,2,0:0:0:0:
373,250,84125,1,0,0:0:0:0:
418,262,84207,2,0,L|421:374,1,94.499997116089,12|0,0:0|0:0,0:0:0:0:
472,156,84533,6,0,B|492:100|460:60|460:60|400:80|392:128,1,168.75,6|0,0:0|0:0,0:0:0:0:
428,216,84859,2,0,P|472:232|528:204,1,85.4999977169037,8|0,0:0|0:0,0:0:0:0:
404,96,85185,1,2,0:0:0:0:
308,196,85348,1,2,0:0:0:0:
210,98,85511,2,0,L|206:-2,1,85.4999977169037,8|0,0:0|0:0,0:0:0:0:
137,175,85837,2,0,L|141:270,1,85.4999977169037,6|0,0:0|0:0,0:0:0:0:
288,128,86163,6,0,P|251:104|203:99,1,85.4999977169037,8|0,0:0|0:0,0:0:0:0:
60,240,86489,1,2,0:0:0:0:
120,104,86652,1,2,0:0:0:0:
238,218,86815,2,0,B|284:232|316:216|316:216|348:204|396:224,1,128.249996575356,8|0,0:0|0:0,0:0:0:0:
365,98,87141,6,0,P|323:104|288:128,1,85.4999977169037,8|0,0:0|0:0,0:0:0:0:
228,292,87468,1,8,0:0:0:0:
396,280,87631,1,0,0:0:0:0:
396,280,87712,1,0,0:0:0:0:
396,280,87794,1,2,0:0:0:0:
238,218,87957,1,2,0:0:0:0:
340,356,88120,1,8,0:0:0:0:
416,196,88283,1,0,0:0:0:0:
248,312,88446,6,0,P|196:304|160:276,1,85.4999977169037,6|0,0:0|0:0,0:0:0:0:
140,40,88772,2,0,P|151:91|137:135,1,85.4999977169037,8|0,0:0|0:0,0:0:0:0:
44,256,89098,2,0,L|104:232,1,42.7499988584519,2|0,0:0|0:0,0:0:0:0:
192,200,89261,1,0,0:0:0:0:
72,80,89424,1,8,0:0:0:0:
152,268,89587,1,8,0:0:0:0:
272,120,89750,6,0,P|334:98|400:120,1,135,6|0,0:0|0:0,0:0:0:0:
432,147,90076,1,8,0:0:0:0:
336,17,90239,1,2,0:0:0:0:
336,176,90402,1,0,0:0:0:0:
188,127,90565,1,2,0:0:0:0:
314,265,90728,6,0,B|378:269|410:233|410:233|458:233|474:297,1,180,6|2,0:0|0:0,0:0:0:0:
235,309,91218,1,8,0:0:0:0:
235,309,91299,1,0,0:0:0:0:
235,309,91381,2,0,P|222:259|250:190,1,90,0|2,0:0|0:0,0:0:0:0:
369,77,91707,1,8,0:0:0:0:
415,235,91870,1,2,0:0:0:0:
296,108,92033,1,0,0:0:0:0:
467,99,92196,1,8,0:0:0:0:
268,216,92359,6,0,B|224:204|208:164|208:164|176:180|140:172,1,135,6|0,0:0|0:0,0:0:0:0:
72,148,92685,2,0,L|72:103,1,45,8|0,0:0|0:0,0:0:0:0:
160,20,92848,2,0,L|160:84,1,45
157,174,93011,1,2,0:0:0:0:
76,16,93174,1,8,0:0:0:0:
224,104,93337,5,2,0:0:0:0:
28,100,93500,1,2,0:0:0:0:
100,264,93663,2,0,P|160:292|224:268,1,135,6|0,0:0|0:0,0:0:0:0:
260,252,93989,2,0,L|264:356,1,90,2|0,0:0|0:0,0:0:0:0:
400,336,94234,1,0,0:0:0:0:
400,336,94315,2,0,L|396:212,1,90,2|0,0:0|0:0,0:0:0:0:
452,92,94641,1,8,0:0:0:0:
324,224,94804,1,0,0:0:0:0:
512,184,94968,5,6,0:0:0:0:
340,48,95294,1,8,0:0:0:0:
200,256,95620,1,2,0:0:0:0:
200,256,95783,1,2,0:0:0:0:
184,168,95946,2,0,L|172:76,1,76.5000014591217,8|0,0:0|0:0,0:0:0:0:
57,265,96272,6,0,P|125:237|221:273,1,153.000002918243,6|8,0:0|0:0,0:0:0:0:
360,352,96924,1,2,0:0:0:0:
276,296,97087,1,2,0:0:0:0:
203,370,97250,2,0,L|198:223,1,114.750002188683,8|0,0:0|0:0,0:0:0:0:
200,216,97576,6,0,P|268:240|304:160,1,153.000002918243,6|8,0:0|0:0,0:0:0:0:
212,28,98228,1,2,0:0:0:0:
152,116,98391,1,2,0:0:0:0:
296,60,98554,1,8,0:0:0:0:
108,24,98881,5,2,0:0:0:0:
200,216,99207,1,0,0:0:0:0:
332,180,99370,1,2,0:0:0:0:
276,304,99533,2,0,L|264:168,1,114.750002188683,6|0,0:0|0:0,0:0:0:0:
264,148,99859,1,2,0:0:0:0:
356,248,100022,1,8,0:0:0:0:
200,216,100185,6,0,P|168:140|220:64,1,153.000002918243,6|8,0:0|0:0,0:0:0:0:
480,104,100837,1,2,0:0:0:0:
348,92,101000,1,2,0:0:0:0:
412,208,101163,1,8,0:0:0:0:
432,4,101489,5,6,0:0:0:0:
288,164,101815,1,10,0:0:0:0:
32,108,102141,1,2,0:0:0:0:
160,148,102304,1,2,0:0:0:0:
128,20,102468,1,8,0:0:0:0:
48,272,102794,5,6,0:0:0:0:
256,176,103120,1,8,0:0:0:0:
244,364,103446,1,2,0:0:0:0:
176,252,103609,1,2,0:0:0:0:
320,220,103772,2,0,L|320:132,1,76.5000014591217,8|2,0:0|0:0,0:0:0:0:
292,116,104016,1,2,0:0:0:0:
292,116,104098,6,0,P|248:120|196:108,1,76.5000014591217,8|0,0:0|0:0,0:0:0:0:
180,100,104343,1,0,0:0:0:0:
180,100,104424,1,0,0:0:0:0:
252,12,104587,1,0,0:0:0:0:
176,168,104750,5,0,0:0:0:0:
40,72,104913,1,0,0:0:0:0:
40,72,104995,1,0,0:0:0:0:
40,72,105076,2,0,L|22:138,1,45
100,176,105239,2,0,L|151:218,1,45
96,316,105402,6,0,P|56:324|0:312,1,85.4999977169037,6|0,0:0|0:0,0:0:0:0:
184,256,105728,2,0,L|184:384,1,128.249996575356,8|0,0:0|0:0,0:0:0:0:
256,332,106054,1,2,0:0:0:0:
96,316,106218,1,2,0:0:0:0:
224,200,106381,2,0,P|272:196|316:220,1,85.4999977169037,8|0,0:0|0:0,0:0:0:0:
396,264,106707,2,0,P|412:192|384:136,1,128.249996575356,6|0,0:0|0:0,0:0:0:0:
308,120,107033,6,0,P|248:124|216:108,1,85.4999977169037,8|0,0:0|0:0,0:0:0:0:
308,16,107359,1,2,0:0:0:0:
308,16,107522,1,2,0:0:0:0:
225,114,107685,1,8,0:0:0:0:
112,20,107848,1,0,0:0:0:0:
176,188,108011,6,0,P|232:199|263:192,1,85.4999977169037,6|0,0:0|0:0,0:0:0:0:
308,28,108337,2,0,P|256:16|212:36,1,85.4999977169037,8|0,0:0|0:0,0:0:0:0:
80,176,108663,1,2,0:0:0:0:
225,114,108826,1,2,0:0:0:0:
264,268,108989,2,0,P|216:276|156:256,1,85.4999977169037,8|0,0:0|0:0,0:0:0:0:
324,380,109315,2,0,P|339:335|328:288,1,85.4999977169037,6|0,0:0|0:0,0:0:0:0:
360,160,109641,6,0,L|520:168,1,128.249996575356,8|0,0:0|0:0,0:0:0:0:
456,88,109968,2,0,L|404:64,1,42.7499988584519,2|0,0:0|0:0,0:0:0:0:
312,24,110131,1,0,0:0:0:0:
224,124,110294,2,0,P|181:126|143:106,1,85.4999977169037,8|0,0:0|0:0,0:0:0:0:
68,64,110538,1,0,0:0:0:0:
68,64,110620,6,0,L|68:168,1,85.4999977169037,6|0,0:0|0:0,0:0:0:0:
208,236,110946,2,0,P|252:228|320:252,1,85.4999977169037,8|0,0:0|0:0,0:0:0:0:
384,196,111272,1,2,0:0:0:0:
224,124,111435,1,2,0:0:0:0:
252,312,111598,1,8,0:0:0:0:
136,196,111761,1,0,0:0:0:0:
136,196,111843,1,0,0:0:0:0:
136,196,111924,6,0,P|128:240|140:300,1,85.4999977169037,6|0,0:0|0:0,0:0:0:0:
276,92,112250,1,8,0:0:0:0:
132,64,112413,1,0,0:0:0:0:
252,196,112576,1,2,0:0:0:0:
216,40,112739,1,2,0:0:0:0:
45,178,112902,2,0,P|88:191|139:184,1,85.4999977169037,8|0,0:0|0:0,0:0:0:0:
208,296,113228,6,0,B|192:252|204:216|204:216|216:180|196:144,1,155.250002961159,6|0,0:0|0:0,0:0:0:0:
127,187,113554,2,0,P|116:236|128:300,1,94.499997116089,8|2,0:0|0:0,0:0:0:0:
292,248,113880,2,0,L|292:188,1,47.2499985580445,8|0,0:0|0:0,0:0:0:0:
240,76,114043,2,0,P|192:60|128:96,1,94.499997116089,8|0,0:0|0:0,0:0:0:0:
192,324,114369,2,0,B|218:320|240:312|240:312|284:340|336:316|336:316|360:328|384:324,1,188.999994232178,6|2,0:0|0:0,0:0:0:0:
192,324,114859,5,8,0:0:0:0:
196,144,115022,1,0,0:0:0:0:
196,144,115185,1,2,0:0:0:0:
264,328,115348,1,2,0:0:0:0:
260,176,115511,1,8,0:0:0:0:
104,240,115674,1,8,0:0:0:0:
60,88,115837,6,0,P|108:96|172:80,1,85.4999977169037,4|0,0:0|0:0,0:0:0:0:
304,88,116163,1,2,0:0:0:0:
80,192,116326,2,0,P|124:164|153:107,1,85.4999977169037,8|0,2:0|2:0,2:0:0:0:
224,0,116652,1,2,0:0:0:0:
272,160,116815,6,0,B|308:172|340:160|340:160|380:148|424:168,1,128.249996575356,14|0,0:0|0:0,0:0:0:0:
440,176,117141,2,0,P|456:224|436:284,1,85.4999977169037,2|0,0:0|0:0,0:0:0:0:
336,344,117468,1,0,0:0:0:0:
336,344,117631,1,2,0:0:0:0:
384,228,117794,1,8,0:0:0:0:
224,284,117957,1,8,0:0:0:0:
272,160,118120,1,0,0:0:0:0:
276,344,118283,1,8,0:0:0:0:
180,208,118446,6,0,P|172:160|184:112,1,85.4999977169037,6|0,0:0|0:0,0:0:0:0:
272,12,118772,1,0,0:0:0:0:
356,157,118935,2,0,P|308:165|252:153,1,85.4999977169037,8|0,0:0|0:0,0:0:0:0:
96,152,119261,6,0,L|96:216,1,42.7499988584519
188,324,119424,2,0,P|212:260|172:201,1,128.249996575356,6|0,0:0|0:0,0:0:0:0:
52,264,119750,2,0,P|92:272|146:263,1,85.4999977169037,0|8,0:0|0:0,0:0:0:0:
236,156,120076,1,0,0:0:0:0:
96,194,120239,1,0,0:0:0:0:
188,324,120402,1,8,0:0:0:0:
232,84,120565,2,0,B|272:80|308:120|308:120|352:144|432:100,1,188.999994232178
460,180,121054,6,0,P|492:100|436:32,1,170.999995433807,4|0,0:0|0:0,0:0:0:0:
419,256,121544,6,0,P|373:187|405:112,1,170.999995433807,4|0,0:0|0:0,0:0:0:0:
364,320,122033,2,0,P|436:340|504:248,1,170.999995433807
320,248,122522,1,8,0:0:0:0:
320,248,122685,1,0,0:0:0:0:
432,160,122848,1,0,0:0:0:0:
368,308,123011,5,8,0:0:0:0:
288,168,123174,1,0,0:0:0:0:
216,316,123337,1,8,0:0:0:0:
360,224,123500,1,8,0:0:0:0:
188,144,123663,6,0,L|192:48,1,94.499997116089,4|0,0:0|0:0,0:0:0:0:
248,232,123989,1,8,0:0:0:0:
120,156,124152,1,8,0:0:0:0:
280,92,124315,1,8,0:0:0:0:
92,16,124478,1,2,0:0:0:0:
64,220,124641,1,8,0:0:0:0:
192,56,124804,1,2,0:0:0:0:
12,148,124968,5,10,0:0:0:0:
240,228,125131,1,10,0:0:0:0:
12,148,125294,1,10,0:0:0:0:
232,24,125457,1,10,0:0:0:0:
176,256,125620,1,10,0:0:0:0:
40,48,125783,1,10,0:0:0:0:
236,228,125946,6,0,P|296:236|344:192,1,114.750002188683,10|0,0:0|0:0,0:0:0:0:
276,168,126272,6,0,L|280:276,1,94.499997116089,6|0,0:0|0:0,0:0:0:0:
425,334,126598,2,0,P|437:273|417:222,1,94.499997116089,8|0,0:0|0:0,0:0:0:0:
400,76,126924,1,2,0:0:0:0:
276,172,127087,1,2,0:0:0:0:
432,176,127250,1,8,0:0:0:0:
280,84,127413,1,0,0:0:0:0:
220,256,127576,6,0,P|176:264|112:252,1,94.499997116089,6|0,0:0|0:0,0:0:0:0:
52,80,127902,2,0,B|36:124|64:160|64:160|72:196|60:232,1,141.749995674133,8|0,0:0|0:0,0:0:0:0:
128,108,128228,2,0,P|132:52|92:8,1,94.499997116089,2|2,0:0|0:0,0:0:0:0:
63,218,128554,1,8,0:0:0:0:
212,160,128718,2,0,L|284:176,1,47.2499985580445
320,248,128881,6,0,P|368:260|424:232,1,94.499997116089,6|0,0:0|0:0,0:0:0:0:
364,76,129207,2,0,L|364:184,1,94.499997116089,8|0,0:0|0:0,0:0:0:0:
372,328,129533,1,2,0:0:0:0:
372,328,129696,1,2,0:0:0:0:
456,176,129859,2,0,P|412:163|348:175,1,94.499997116089,8|0,0:0|0:0,0:0:0:0:
216,280,130185,6,0,B|232:236|212:200|212:200|200:160|232:104,1,141.749995674133,2|0,0:0|0:0,0:0:0:0:
280,328,130511,2,0,P|228:356|140:312,1,141.749995674133,8|0,0:0|0:0,0:0:0:0:
96,260,130837,1,2,0:0:0:0:
268,220,131000,1,2,0:0:0:0:
108,100,131163,1,8,0:0:0:0:
188,240,131326,2,0,L|188:192,1,47.2499985580445,8|0,0:0|0:0,0:0:0:0:
240,72,131489,6,0,P|292:64|344:84,1,94.499997116089,6|0,0:0|0:0,0:0:0:0:
276,244,131815,2,0,P|268:196|284:140,1,94.499997116089,8|0,0:0|0:0,0:0:0:0:
424,152,132060,1,0,0:0:0:0:
424,152,132141,2,0,P|432:200|416:256,1,94.499997116089,10|2,0:0|0:0,0:0:0:0:
288,368,132468,1,8,0:0:0:0:
208,208,132631,1,0,0:0:0:0:
208,208,132712,1,0,0:0:0:0:
208,208,132794,6,0,B|160:232|92:208|92:208|52:208|16:260,1,188.999994232178,6|8,0:0|0:0,0:0:0:0:
172,296,133283,1,0,0:0:0:0:
152,104,133446,2,0,P|96:92|40:112,1,112.5,6|0,0:0|0:0,0:0:0:0:
172,296,133772,2,0,P|228:304|284:280,1,112.5,14|0,0:0|0:0,0:0:0:0:
396,184,134098,5,6,0:0:0:0:
208,208,134261,1,0,0:0:0:0:
344,104,134424,1,8,0:0:0:0:
278,283,134587,1,8,0:0:0:0:
128,176,134750,2,0,L|124:232,1,47.2499985580445,10|0,0:0|0:0,0:0:0:0:
60,304,134913,2,0,L|112:348,1,47.2499985580445
208,208,135076,2,0,L|216:104,1,103.500001974106,8|0,0:0|0:0,0:0:0:0:
347,95,135321,1,0,0:0:0:0:
347,95,135402,6,0,B|396:116|440:96|440:96|447:52|410:4,1,182.250000695229,14|0,0:0|0:0,0:0:0:0:
284,20,135728,2,0,P|247:77|268:156,1,139.500001064301,8|0,0:0|0:0,0:0:0:0:
352,200,135973,1,0,0:0:0:0:
352,200,136054,2,0,P|364:132|327:75,1,112.5,8|0,0:0|0:0,0:0:0:0:
164,64,136381,1,8,0:0:0:0:
156,120,136462,1,0,0:0:0:0:
144,176,136544,1,8,0:0:0:0:
132,232,136625,1,0,0:0:0:0:
120,292,136707,6,0,L|248:292,1,121.500000463486,14|0,0:0|0:0,0:0:0:0:
372,144,137033,2,0,L|240:144,1,121.500000463486,8|0,0:0|0:0,0:0:0:0:
331,363,137359,2,0,P|355:295|320:216,1,121.500000463486,8|2,0:0|0:0,0:0:0:0:
272,72,137685,1,10,0:0:0:0:
132,232,137848,2,0,L|228:244,1,60.7500002317429,2|0,0:0|0:0,0:0:0:0:
343,250,138011,5,14,0:0:0:0:
152,132,138174,1,0,0:0:0:0:
240,368,138337,1,8,0:0:0:0:
372,152,138500,1,0,0:0:0:0:
132,232,138663,1,8,0:0:0:0:
376,332,138826,1,2,0:0:0:0:
152,132,138989,1,8,0:0:0:0:
440,52,139152,1,2,0:0:0:0:
264,304,139315,6,0,P|256:240|276:164,1,121.500000463486,6|0,0:0|0:0,0:0:0:0:
300,36,139641,1,10,0:0:0:0:
376,244,139804,1,2,0:0:0:0:
376,244,139886,1,0,0:0:0:0:
376,244,139968,2,0,L|520:244,1,121.500000463486,0|2,0:0|0:0,0:0:0:0:
440,52,140294,2,0,P|402:94|412:156,1,121.500000463486,8|2,0:0|0:0,0:0:0:0:
260,196,140620,6,0,P|244:116|152:128,1,182.250000695229,14|0,0:0|0:0,0:0:0:0:
124,152,140946,2,0,P|72:176|4:144,1,121.500000463486,8|0,0:0|0:0,0:0:0:0:
68,96,141272,1,0,0:0:0:0:
158,248,141435,2,0,L|158:108,1,128.249996575356,8|0,0:0|0:0,0:0:0:0:
80,232,141761,2,0,L|80:292,1,42.7499988584519
240,288,141924,6,0,P|248:232|216:180,1,94.499997116089,6|0,0:0|0:0,0:0:0:0:
188,368,142250,2,0,L|300:368,1,94.499997116089,8|0,0:0|0:0,0:0:0:0:
388,288,142576,1,2,0:0:0:0:
233,198,142739,1,2,0:0:0:0:
460,336,142902,2,0,P|472:276|448:224,1,94.499997116089,8|0,0:0|0:0,0:0:0:0:
207,283,143228,6,0,B|255:303|299:271|299:271|339:299|415:283,1,188.999994232178,6|8,0:0|0:0,0:0:0:0:
240,204,143718,1,0,0:0:0:0:
240,204,143799,1,0,0:0:0:0:
240,204,143881,2,0,L|240:84,1,94.499997116089,2|2,0:0|0:0,0:0:0:0:
216,304,144207,1,8,0:0:0:0:
356,200,144370,1,0,0:0:0:0:
168,196,144533,6,0,P|84:212|120:160,1,188.999994232178,6|0,0:0|0:0,0:0:0:0:
104,64,145022,1,0,0:0:0:0:
216,136,145185,2,0,B|260:176|240:240|240:240|228:280|272:336,1,188.999994232178,14|0,2:0|2:0,2:0:0:0:
168,196,145674,1,0,0:0:0:0:
324,260,145837,6,0,L|396:260,2,51.0000009727478,8|0|0,0:0|0:0|0:0,0:0:0:0:
256,360,146163,2,0,L|247:286,1,51.0000009727478,8|0,0:0|0:0,0:0:0:0:
176,236,146381,2,0,L|164:304,1,51.0000009727478,0|8,0:0|0:0,0:0:0:0:
96,344,146598,2,0,L|32:344,2,51.0000009727478,8|0|0,0:0|0:0|0:0,0:0:0:0:
192,384,146978,2,0,L|192:324,1,38.2500007295609
260,196,147141,6,0,B|264:220|258:242|258:242|212:252|176:224|168:192,1,153.000002918243,6|0,0:0|0:0,0:0:0:0:
101,125,147631,1,2,0:0:0:0:
96,264,147794,2,0,P|71:190|104:124,1,153.000002918243,8|2,0:0|0:0,0:0:0:0:
172,48,148283,1,0,0:0:0:0:
240,132,148446,2,0,L|316:132,2,76.5000014591217,2|8|0,0:0|0:0|0:0,0:0:0:0:
120,116,148935,5,2,0:0:0:0:
232,196,149098,1,8,0:0:0:0:
100,192,149261,1,0,0:0:0:0:
176,264,149424,1,0,0:0:0:0:
168,104,149587,1,0,0:0:0:0:
64,280,149750,6,0,P|56:216|76:160,1,114.750002188683,6|0,0:0|0:0,0:0:0:0:
88,136,150076,2,0,P|136:152|176:144,1,76.5000014591217,0|2,0:0|0:0,0:0:0:0:
263,103,150402,2,0,P|340:109|292:48,1,188.999994232178,10|0,0:0|0:0,0:0:0:0:
264,199,150891,1,8,0:0:0:0:
264,199,150973,1,0,0:0:0:0:
264,199,151054,6,0,P|293:205|360:192,1,76.5000014591217,2|8,0:0|0:0,0:0:0:0:
176,284,151381,1,0,0:0:0:0:
304,284,151544,1,2,0:0:0:0:
216,152,151707,1,8,0:0:0:0:
112,316,151870,2,0,L|100:216,1,76.5000014591217
216,152,152196,2,0,L|224:192,1,38.2500007295609,10|0,0:0|0:0,0:0:0:0:
264,260,152359,6,0,B|312:288|376:256|376:256|440:216|496:284,1,229.500004377365,14|0,0:0|0:0,0:0:0:0:
420,312,153011,2,0,P|384:256|516:224,1,229.500004377365,0|2,0:0|0:0,0:0:0:0:
347,355,153663,2,0,P|307:217|403:116,1,283.499991348267,6|0,0:0|0:0,0:0:0:0:
328,24,154315,2,0,P|252:56|168:20,1,170.999995433807,0|2,0:0|0:0,0:0:0:0:
76,44,154804,2,0,L|112:112,1,42.7499988584519
116,188,154968,6,0,P|172:161|197:107,1,94.499997116089,10|0,0:0|0:0,0:0:0:0:
328,24,155294,1,10,0:0:0:0:
173,25,155457,1,0,0:0:0:0:
368,196,155620,1,10,0:0:0:0:
124,208,155783,1,2,0:0:0:0:
252,0,155946,1,10,0:0:0:0:
256,272,156109,1,2,0:0:0:0:
256,272,156190,1,0,0:0:0:0:
256,272,156272,6,0,L|257:153,1,94.499997116089,6|8,0:0|0:0,0:0:0:0:
432,104,156598,1,8,0:0:0:0:
436,304,156761,1,0,0:0:0:0:
388,316,156843,1,0,0:0:0:0:
340,312,156924,1,8,0:0:0:0:
300,284,157006,1,0,0:0:0:0:
256,272,157087,1,2,0:0:0:0:
208,280,157169,1,0,0:0:0:0:
164,296,157250,2,0,L|164:168,1,94.499997116089,0|8,0:0|0:0,0:0:0:0:
306,74,157576,6,0,B|342:130|314:210|314:210|382:274|470:218,1,283.499991348267
445,231,158228,1,10,0:0:0:0:
300,284,158391,1,0,0:0:0:0:
392,160,158554,1,10,0:0:0:0:
200,192,158718,1,0,0:0:0:0:
356,56,158881,5,10,0:0:0:0:
252,256,159044,1,8,0:0:0:0:
128,68,159207,1,10,0:0:0:0:
312,200,159370,1,0,0:0:0:0:
76,292,159533,5,10,0:0:0:0:
216,76,159696,1,8,0:0:0:0:
216,336,159859,1,10,0:0:0:0:
384,156,160022,1,0,0:0:0:0:
80,156,160185,1,14,0:0:0:0:
256,192,169315,12,0,170457,0:0:0:0:
332,272,170620,6,0,L|332:116,1,141.749995674133,6|0,0:0|0:0,0:0:0:0:
288,144,170946,2,0,P|240:156|172:132,1,94.499997116089,8|0,0:0|0:0,0:0:0:0:
96,116,171272,1,2,0:0:0:0:
96,116,171435,1,2,0:0:0:0:
240,52,171598,1,8,0:0:0:0:
192,216,171761,1,0,0:0:0:0:
352,144,171924,1,2,0:0:0:0:
412,296,172087,2,0,L|336:300,1,47.2499985580445
288,198,172250,6,0,P|272:154|292:86,1,94.499997116089,8|0,0:0|0:0,0:0:0:0:
376,12,172576,1,0,0:0:0:0:
424,168,172739,1,0,0:0:0:0:
280,108,172902,1,8,0:0:0:0:
452,52,173065,1,0,0:0:0:0:
344,200,173228,6,0,P|268:220|188:176,1,141.749995674133,6|0,0:0|0:0,0:0:0:0:
164,192,173554,2,0,L|160:316,1,94.499997116089,8|0,0:0|0:0,0:0:0:0:
80,164,173881,2,0,L|77:211,1,47.2499985580445
112,356,174044,2,0,P|158:372|203:360,1,94.499997116089,0|8,0:0|0:0,0:0:0:0:
308,264,174370,1,0,0:0:0:0:
308,264,174451,1,0,0:0:0:0:
308,264,174533,6,0,P|268:192|320:124,1,141.749995674133,10|0,0:0|0:0,0:0:0:0:
332,124,174859,2,0,L|408:124,1,47.2499985580445,8|0,0:0|0:0,0:0:0:0:
488,120,175022,2,0,P|500:64|476:8,1,94.499997116089,6|0,0:0|0:0,0:0:0:0:
396,212,175348,2,0,P|448:228|508:208,1,94.499997116089,0|8,0:0|0:0,0:0:0:0:
400,68,175674,1,0,0:0:0:0:
400,68,175756,1,0,0:0:0:0:
400,68,175837,6,0,B|364:80|364:80|336:64|336:64|292:80|224:64,1,148.50000453186,12|0,0:0|0:0,0:0:0:0:
176,56,176163,1,8,0:0:0:0:
208,184,176326,1,0,0:0:0:0:
100,100,176489,2,0,P|88:48|112:-8,1,94.499997116089,2|2,0:0|0:0,0:0:0:0:
280,136,176815,2,0,P|292:188|268:244,1,94.499997116089,8|0,0:0|0:0,0:0:0:0:
80,328,177141,6,0,P|176:300|260:340,1,188.999994232178,0|8,0:0|0:0,0:0:0:0:
372,225,177631,1,0,0:0:0:0:
372,225,177712,1,0,0:0:0:0:
372,225,177794,2,0,P|320:235|264:217,1,94.499997116089,2|2,0:0|0:0,0:0:0:0:
172,132,178120,1,0,0:0:0:0:
208,272,178283,1,2,0:0:0:0:
248,116,178446,6,0,P|128:72|120:188,1,283.499991348267,4|0,0:0|0:0,0:0:0:0:
184,240,179016,1,0,0:0:0:0:
184,240,179098,2,0,B|124:288|68:248|68:248|8:264|-12:340|48:376,1,283.499991348267,12|0,0:0|0:0,0:0:0:0:
258,273,179669,1,0,0:0:0:0:
258,273,179750,2,0,B|275:224|245:190|245:190|209:155|237:92,1,170.999995433807
248,24,180239,5,2,0:0:0:0:
306,144,180402,1,10,0:0:0:0:
306,144,180565,1,0,0:0:0:0:
364,29,180728,1,0,0:0:0:0:
365,191,180891,1,8,0:0:0:0:
229,113,181054,6,0,B|192:92|152:112|152:112|108:126|64:96,1,161.999995056153,6|0,0:0|0:0,0:0:0:0:
122,33,181544,1,0,0:0:0:0:
192,183,181707,2,0,P|200:231|168:291,1,80.9999975280763,8|0,0:0|0:0,0:0:0:0:
13,224,182033,2,0,L|101:224,1,80.9999975280763,2|0,0:0|0:0,0:0:0:0:
170,331,182359,2,0,L|234:331,1,40.4999987640381
282,371,182522,2,0,P|294:327|274:279,1,80.9999975280763,8|0,0:0|0:0,0:0:0:0:
240,156,182848,1,0,0:0:0:0:
240,156,183011,5,8,0:0:0:0:
312,232,183174,1,0,0:0:0:0:
340,128,183337,1,0,0:0:0:0:
264,48,183500,1,8,0:0:0:0:
156,108,183663,6,0,P|76:132|4:92,1,161.999995056153,6|0,0:0|0:0,0:0:0:0:
153,187,184152,1,0,0:0:0:0:
153,187,184234,1,0,0:0:0:0:
153,187,184315,2,0,P|161:135|145:87,1,80.9999975280763,8|0,0:0|0:0,0:0:0:0:
52,20,184641,1,0,0:0:0:0:
0,152,184804,1,8,0:0:0:0:
160,60,184968,6,0,B|197:44|197:44|230:64|230:64|269:22|340:22|380:79|370:118,1,242.999992584229,6|0,0:0|0:0,0:0:0:0:
291,120,185620,2,0,P|378:168|431:32,1,283.499991348267,10|0,0:0|0:0,0:0:0:0:
366,85,186272,6,0,L|366:213,1,90,6|0,0:0|0:0,0:0:0:0:
477,318,186598,2,0,P|489:239|437:190,1,135,8|0,0:0|0:0,0:0:0:0:
366,175,186924,1,2,0:0:0:0:
270,289,187087,1,2,0:0:0:0:
366,175,187250,1,8,0:0:0:0:
393,341,187413,1,0,0:0:0:0:
227,225,187576,6,0,P|215:174|238:112,1,94.499997116089,6|0,0:0|0:0,0:0:0:0:
320,12,187902,2,0,L|320:120,1,94.499997116089,8|0,0:0|0:0,0:0:0:0:
328,236,188228,1,2,0:0:0:0:
208,108,188391,1,2,0:0:0:0:
136,259,188554,2,0,P|185:272|244:255,1,94.499997116089,8|0,0:0|0:0,0:0:0:0:
368,164,188881,5,10,0:0:0:0:
227,263,189044,1,0,0:0:0:0:
208,96,189207,1,10,0:0:0:0:
72,216,189370,1,0,0:0:0:0:
32,36,189533,1,10,0:0:0:0:
164,212,189696,1,2,0:0:0:0:
272,16,189859,1,8,0:0:0:0:
64,128,190022,1,0,0:0:0:0:
228,268,190185,6,0,B|280:276|280:276|347:262,1,94.499997116089,10|8,0:0|0:0,0:0:0:0:
20,260,190511,1,0,0:0:0:0:
116,84,190674,1,8,0:0:0:0:
116,132,190755,1,0,0:0:0:0:
116,180,190837,1,8,0:0:0:0:
116,228,190918,1,0,0:0:0:0:
116,272,191000,2,0,L|117:348,1,47.2499985580445,10|0,0:0|0:0,0:0:0:0:
20,354,191163,2,0,L|20:226,1,94.499997116089,0|8,0:0|0:0,0:0:0:0:
176,344,191489,6,0,P|248:368|320:344,1,153.000002918243,6|0,0:0|0:0,0:0:0:0:
392,276,191978,2,0,P|412:308|416:380,1,76.5000014591217,8|0,0:0|0:0,0:0:0:0:
344,228,192304,1,0,0:0:0:0:
472,200,192468,2,0,L|481:275,1,76.5000014591217,8|0,0:0|0:0,0:0:0:0:
376,144,192794,5,2,0:0:0:0:
288,192,192957,1,0,0:0:0:0:
196,152,193120,1,0,0:0:0:0:
176,56,193283,1,0,0:0:0:0:
288,192,193446,1,8,0:0:0:0:
196,232,193609,1,0,0:0:0:0:
116,176,193772,1,0,0:0:0:0:
32,232,193935,1,0,0:0:0:0:
124,360,194098,6,0,P|128:302|124:245,1,114.750002188683,6|0,0:0|0:0,0:0:0:0:
116,176,194424,1,2,0:0:0:0:
124,360,194587,1,0,0:0:0:0:
32,232,194750,2,0,P|20:176|40:132,1,76.5000014591217,8|0,0:0|0:0,0:0:0:0:
189,167,195076,2,0,P|133:178|85:158,1,76.5000014591217,2|0,0:0|0:0,0:0:0:0:
160,40,195402,5,0,0:0:0:0:
260,44,195565,1,0,0:0:0:0:
360,48,195728,1,0,0:0:0:0:
460,52,195891,1,0,0:0:0:0:
260,44,196054,5,8,0:0:0:0:
264,144,196218,1,0,0:0:0:0:
340,208,196381,1,0,0:0:0:0:
436,192,196544,1,0,0:0:0:0:
312,92,196707,6,0,P|228:80|188:144,1,153.000002918243,6|0,0:0|0:0,0:0:0:0:
156,220,197196,2,0,P|108:228|56:208,1,76.5000014591217,0|8,0:0|0:0,0:0:0:0:
232,196,197522,1,0,0:0:0:0:
120,68,197685,2,0,L|120:164,1,76.5000014591217
120,292,198011,5,0,0:0:0:0:
200,232,198174,1,0,0:0:0:0:
300,248,198337,1,0,0:0:0:0:
360,328,198500,1,0,0:0:0:0:
200,232,198663,5,8,0:0:0:0:
276,164,198826,1,0,0:0:0:0:
376,168,198989,1,0,0:0:0:0:
428,252,199152,1,0,0:0:0:0:
275,316,199315,6,0,L|276:154,1,153.000002918243,6|0,0:0|0:0,0:0:0:0:
352,52,199968,2,0,P|304:88|244:84,1,114.750002188683,10|0,0:0|0:0,0:0:0:0:
168,15,200294,2,0,B|225:1|225:1|292:15,1,114.750002188683,2|0,0:0|0:0,0:0:0:0:
196,208,200620,2,0,P|168:144|188:76,1,128.249996575356,10|0,0:0|0:0,0:0:0:0:
336,144,200946,2,8,B|363:204|363:204|368:292,1,128.249996575356,10|0,0:0|0:0,0:0:0:0:
140,336,201272,2,0,P|188:276|264:276,1,141.749995674133,10|0,0:0|0:0,0:0:0:0:
432,360,201598,2,0,B|356:375|356:375|288:364,1,141.749995674133,10|0,0:0|0:0,0:0:0:0:
136,148,201924,6,0,L|141:284,1,103.500001974106,12|0,0:0|0:0,0:0:0:0:
144,376,202250,1,8,0:0:0:0:
272,208,202413,1,0,0:0:0:0:
272,208,202495,1,0,0:0:0:0:
272,208,202576,1,0,0:0:0:0:
48,308,202739,1,0,0:0:0:0:
268,308,202902,1,8,0:0:0:0:
48,208,203065,1,8,0:0:0:0:
272,200,203228,6,0,L|348:200,2,69.0000013160706,8|0|0,0:0|0:0|0:0,0:0:0:0:
176,156,203554,2,0,L|104:156,2,69.0000013160706,8|0|0,0:0|0:0|0:0,0:0:0:0:
199,298,203881,2,0,L|199:193,1,69.0000013160706,2|0,0:0|0:0,0:0:0:0:
272,131,204098,2,0,L|272:200,1,69.0000013160706,2|0,0:0|0:0,0:0:0:0:
343,333,204315,2,0,L|343:241,1,69.0000013160706,2|0,0:0|0:0,0:0:0:0:
348,104,204533,5,6,0:0:0:0:
384,72,205185,1,0,0:0:0:0:
412,148,205837,5,0,0:0:0:0:
324,228,206489,1,0,0:0:0:0:
252,64,207141,6,0,B|220:108|168:112|168:112|132:120|124:156|124:156|152:184|144:248|144:248|36:276|40:156,1,405.000015449525
44,312,208446,2,0,B|144:352|212:284|212:284|304:324|344:264|344:264|312:232|272:236,1,405.000015449525
408,324,209750,2,0,P|428:248|392:196,1,135.000005149842
312,140,210239,1,0,0:0:0:0:
228,184,210402,6,0,L|144:184,1,67.5000025749208,2|0,0:0|0:0,0:0:0:0:
40,124,210728,2,0,L|128:124,1,67.5000025749208,2|0,0:0|0:0,0:0:0:0:
224,32,211054,2,0,L|220:120,1,67.5000025749208,2|0,0:0|0:0,0:0:0:0:
96,256,211381,2,0,L|95:181,1,67.5000025749208,2|0,0:0|0:0,0:0:0:0:
228,184,211707,2,0,L|228:260,1,76.5000014591217,2|0,0:0|0:0,0:0:0:0:
384,112,212033,2,0,L|288:112,1,76.5000014591217,2|0,0:0|0:0,0:0:0:0:
228,184,212359,6,0,P|164:160|240:144,1,188.999994232178,6|8,0:0|0:0,0:0:0:0:
308,256,212848,1,8,0:0:0:0:
235,133,213011,1,8,0:0:0:0:
172,288,213174,1,0,0:0:0:0:
372,176,213337,1,8,0:0:0:0:
172,64,213500,1,0,0:0:0:0:
256,320,213663,5,4,0:0:0:0:
256,192,213745,12,0,214804,0:0:0:0:
400,148,214968,6,0,P|340:132|268:160,1,121.500000463486,14|0,0:0|0:0,0:0:0:0:
96,224,215294,2,0,P|152:240|216:216,1,121.500000463486,10|0,0:0|0:0,0:0:0:0:
152,16,215620,2,0,L|152:140,1,121.500000463486,10|2,0:0|0:0,0:0:0:0:
212,324,215946,1,10,0:0:0:0:
396,268,216109,2,0,L|364:168,1,60.7500002317429
324,44,216272,5,8,0:0:0:0:
210,220,216435,1,0,0:0:0:0:
460,224,216598,1,8,0:0:0:0:
244,88,216761,1,0,0:0:0:0:
340,316,216924,1,8,0:0:0:0:
416,76,217087,1,2,0:0:0:0:
176,248,217250,1,8,0:0:0:0:
244,0,217413,1,2,0:0:0:0:
352,152,217576,6,0,P|412:168|496:128,1,121.500000463486,6|0,0:0|0:0,0:0:0:0:
404,12,217902,1,2,0:0:0:0:
276,175,218065,1,8,0:0:0:0:
276,175,218147,1,0,0:0:0:0:
276,175,218228,2,0,L|136:176,1,121.500000463486,0|2,0:0|0:0,0:0:0:0:
36,108,218554,1,8,0:0:0:0:
216,108,218718,1,2,0:0:0:0:
154,325,218881,6,0,P|198:252|139:169,1,182.250000695229,6|0,0:0|0:0,0:0:0:0:
210,331,219207,2,0,P|261:346|310:325,1,94.499997116089
384,164,219533,2,0,L|384:300,1,94.499997116089,2|0,0:0|0:0,0:0:0:0:
380,378,219859,1,0,0:0:0:0:
255,270,220022,2,0,L|255:210,1,47.2499985580445,8|0,0:0|0:0,0:0:0:0:
336,100,220185,6,0,P|384:84|448:116,1,94.499997116089,6|0,0:0|0:0,0:0:0:0:
256,143,220511,2,0,P|244:95|272:35,1,94.499997116089,10|0,0:0|0:0,0:0:0:0:
384,164,220837,1,2,0:0:0:0:
307,285,221000,1,2,0:0:0:0:
204,200,221163,2,0,P|148:192|80:208,1,94.499997116089,8|0,0:0|0:0,0:0:0:0:
228,376,221489,6,0,B|244:316|208:272|208:272|256:276|288:204,1,188.999994232178,6|8,0:0|0:0,0:0:0:0:
136,344,221978,1,0,0:0:0:0:
136,344,222060,1,0,0:0:0:0:
136,344,222141,2,0,L|32:344,1,94.499997116089
208,272,222468,1,8,0:0:0:0:
104,184,222631,1,0,0:0:0:0:
272,233,222794,6,0,P|312:152|248:156,1,188.999994232178,6|0,0:0|0:0,0:0:0:0:
308,304,223283,1,0,0:0:0:0:
308,304,223446,2,0,B|376:288|392:220|392:220|388:272|452:304,1,207.000003948212,8|0,0:0|0:0,0:0:0:0:
464,228,223935,1,0,0:0:0:0:
312,376,224098,2,0,P|240:340|288:236,1,188.999994232178,6|0,0:0|0:0,0:0:0:0:
251,156,224506,1,0,0:0:0:0:
209,157,224587,1,0,0:0:0:0:
166,158,224669,1,0,0:0:0:0:
131,160,224750,6,0,L|132:79,1,76.5000014591217,8|0,0:0|0:0,0:0:0:0:
238,330,225076,1,8,0:0:0:0:
336,200,225239,1,0,0:0:0:0:
127,239,225402,1,2,0:0:0:0:
240,208,229968,6,0,P|344:180|352:272,1,202.500007724762
304,228,230620,2,0,P|292:152|316:72,1,153.000002918243,6|0,0:0|0:0,0:0:0:0:
440,32,231272,2,0,B|400:44|364:24|364:24|320:-16|244:4|240:64,1,229.500004377365
241,53,231924,2,0,P|276:112|160:104,1,229.500004377365,6|0,0:0|0:0,0:0:0:0:
216,104,232576,2,0,L|216:215,1,76.5000014591217
291,265,232902,2,0,L|291:137,1,114.750002188683
343,335,233228,6,0,P|277:348|229:324,1,112.5,10|0,0:0|0:0,0:0:0:0:
356,176,233554,1,10,0:0:0:0:
168,176,233718,1,0,0:0:0:0:
404,320,233881,1,10,0:0:0:0:
136,328,234044,1,2,0:0:0:0:
256,104,234207,1,10,0:0:0:0:
260,360,234370,1,0,0:0:0:0:
260,360,234451,1,0,0:0:0:0:
260,360,234533,6,0,P|272:300|252:220,1,112.5,6|10,0:0|0:0,0:0:0:0:
176,56,234859,1,8,0:0:0:0:
156,240,235022,1,8,0:0:0:0:
204,232,235103,1,0,0:0:0:0:
256,232,235185,1,8,0:0:0:0:
296,264,235266,1,0,0:0:0:0:
348,268,235348,1,10,0:0:0:0:
388,236,235429,1,0,0:0:0:0:
396,184,235511,2,8,P|344:140|272:148,1,112.5,0|0,0:0|0:0,0:0:0:0:
156,176,235837,6,0,P|144:132|164:64,1,85.4999977169037,6|0,0:0|0:0,0:0:0:0:
320,216,236163,2,0,B|364:224|364:224|396:212|396:212|428:208|472:220,1,128.249996575356,8|0,0:0|0:0,0:0:0:0:
484,192,236489,2,0,P|496:136|484:92,1,85.4999977169037,2|2,0:0|0:0,0:0:0:0:
376,32,236815,1,8,0:0:0:0:
268,136,236978,1,0,0:0:0:0:
200,32,237141,6,0,L|84:28,1,85.4999977169037,6|0,0:0|0:0,0:0:0:0:
52,160,237468,2,0,L|152:160,1,85.4999977169037,8|0,0:0|0:0,0:0:0:0:
296,68,237794,2,2,P|240:68|192:100,1,85.4999977169037
216,284,238120,2,0,P|228:212|184:160,1,128.249996575356,8|0,0:0|0:0,0:0:0:0:
72,248,238446,6,0,L|72:344,1,85.4999977169037,6|0,0:0|0:0,0:0:0:0:
137,160,238772,1,8,0:0:0:0:
220,292,238935,1,0,0:0:0:0:
220,292,239016,1,0,0:0:0:0:
220,292,239098,1,2,0:0:0:0:
60,204,239261,1,2,0:0:0:0:
192,112,239424,1,8,0:0:0:0:
128,308,239587,1,0,0:0:0:0:
116,152,239750,6,0,P|112:96|144:44,1,85.4999977169037,6|0,0:0|0:0,0:0:0:0:
352,200,240076,2,0,P|296:220|240:176,1,128.249996575356,8|0,0:0|0:0,0:0:0:0:
176,208,240402,2,0,L|104:208,1,42.7499988584519,2|0,0:0|0:0,0:0:0:0:
160,304,240565,2,0,L|231:303,1,42.7499988584519,2|0,0:0|0:0,0:0:0:0:
304,148,240728,1,8,0:0:0:0:
316,288,240891,1,8,0:0:0:0:
176,208,241054,6,0,B|132:232|80:200|80:200|16:196|12:268,1,188.999994232178,6|2,0:0|0:0,0:0:0:0:
100,308,241544,1,8,0:0:0:0:
136,144,241707,1,0,0:0:0:0:
216,300,241870,1,10,0:0:0:0:
64,152,242033,2,0,P|86:94|208:128,1,188.999994232178,6|2,0:0|0:0,0:0:0:0:
268,204,242522,1,8,0:0:0:0:
360,108,242685,5,0,0:0:0:0:
360,108,242848,1,2,0:0:0:0:
348,248,243011,1,8,0:0:0:0:
236,128,243174,1,8,0:0:0:0:
404,176,243337,1,0,0:0:0:0:
244,272,243500,1,8,0:0:0:0:
456,248,243663,6,0,P|492:168|448:100,1,141.749995674133,6|0,0:0|0:0,0:0:0:0:
416,60,243989,1,10,0:0:0:0:
324,152,244152,1,2,0:0:0:0:
473,122,244315,1,8,0:0:0:0:
296,56,244478,1,0,0:0:0:0:
360,224,244641,1,10,0:0:0:0:
356,16,244804,1,0,0:0:0:0:
176,88,244968,5,14,0:0:0:0:
340,152,245134,1,8,0:0:0:0:
140,208,245301,5,10,0:0:0:0:
216,28,245477,1,10,0:0:0:0:
232,244,245653,2,0,L|232:156,1,53.9999983520508,10|0,0:0|0:0,0:0:0:0:
296,72,245840,2,0,L|296:168,1,53.9999983520508,2|0,0:0|0:0,0:0:0:0:
368,280,246028,2,0,L|368:196,1,53.9999983520508,8|0,0:0|0:0,0:0:0:0:
368,68,246228,1,2,0:0:0:0:
256,192,247055,5,4,0:0:0:0:
256,192,247159,12,0,252228,0:0:0:0:
