osu file format v14

[General]
AudioFilename: audio.mp3
AudioLeadIn: 0
PreviewTime: 125731
Countdown: 0
SampleSet: Soft
StackLeniency: 0.7
Mode: 0
LetterboxInBreaks: 0
WidescreenStoryboard: 0

[Editor]
DistanceSpacing: 1.2
BeatDivisor: 4
GridSize: 4
TimelineZoom: 1.3

[Metadata]
Title:Daisy Blue
TitleUnicode:Daisy Blue
Artist:Kano
ArtistUnicode:鹿乃
Creator:Fycho
Version:Lanturn's Easy
Source:
Tags:アルストロメリア lanturn lasse mir
BeatmapID:1606223
BeatmapSetID:758130

[Difficulty]
HPDrainRate:2
CircleSize:3
OverallDifficulty:2
ApproachRate:3
SliderMultiplier:0.799999999999999
SliderTickRate:1

[Events]
//Background and Video events
0,0,"bg.png",0,0
//Break Periods
2,87290,93476
2,160334,169128
2,204681,213476
//Storyboard Layer 0 (Background)
//Storyboard Layer 1 (Fail)
//Storyboard Layer 2 (Pass)
//Storyboard Layer 3 (Foreground)
//Storyboard Sound Samples

[TimingPoints]
-301,326.086956521739,4,2,1,40,1,0
11438,-100,4,2,1,70,0,0
21872,-100,4,2,1,50,0,0
32307,-100,4,2,1,65,0,0
50894,-100,4,2,1,55,0,0
51220,-100,4,2,1,65,0,0
51546,-100,4,2,1,75,0,0
53177,-100,4,2,1,80,0,1
74046,-100,4,2,1,80,0,0
81872,-100,4,2,1,80,0,0
87090,-100,4,2,1,60,0,0
123938,-100,4,2,1,55,0,0
124264,-100,4,2,1,65,0,0
124916,-100,4,2,1,75,0,0
126220,-100,4,2,1,80,0,1
147090,-100,4,2,1,80,0,0
154916,-100,4,2,1,60,0,0
157851,-100,4,2,1,40,0,0
158340,-100,4,2,1,55,0,0
158829,-100,4,2,1,70,0,0
159481,-100,4,2,1,80,0,0
160133,-100,4,2,1,40,0,0
170568,-100,4,2,1,80,0,0
191438,-100,4,2,1,70,0,0
214916,-100,4,2,1,80,0,1
225351,-100,4,2,1,60,0,0
233177,-100,4,2,1,60,0,0
244916,352.941176470588,4,2,1,80,1,0
245798,375,4,2,1,80,1,0
247016,645.161290322581,4,2,1,40,1,0
252177,-100,4,2,1,20,0,0

[Colours]
Combo1 : 255,0,255
Combo2 : 0,128,255
Combo3 : 0,255,128
Combo4 : 255,255,128

[HitObjects]
64,72,1003,5,2,0:0:0:0:
191,312,2307,1,2,0:0:0:0:
321,72,3612,1,2,0:0:0:0:
448,312,4916,1,2,0:0:0:0:
448,72,6220,5,2,0:0:0:0:
321,312,7525,1,2,0:0:0:0:
191,72,8829,1,2,0:0:0:0:
328,252,11438,6,0,P|280:260|248:252,1,79.9999999999999,4|8,0:0|0:0,0:0:0:0:
208,168,12090,2,0,L|236:120,2,39.9999999999999,2|2|8,0:0|0:0|0:0,0:0:0:0:
124,216,12742,2,0,L|124:308,1,79.9999999999999,2|8,0:0|0:0,0:0:0:0:
208,340,13394,2,0,L|252:364,2,39.9999999999999,2|2|8,0:0|0:0|0:0,0:0:0:0:
252,256,14046,6,0,P|296:264|344:252,1,79.9999999999999,2|8,0:0|0:0,0:0:0:0:
412,208,14698,2,0,L|472:332,2,120,2|2|8,0:0|0:0|0:0,0:0:0:0:
360,128,16003,2,0,B|316:124|316:124|260:96,1,79.9999999999999,2|8,0:0|0:0,0:0:0:0:
256,192,16655,12,4,20568,0:0:0:0:
124,324,21872,6,0,P|64:212|124:128,1,240,4|2,0:0|0:0,0:0:0:0:
212,92,23177,2,0,B|284:120|300:60|372:88,1,160,2|2,0:0|0:0,0:0:0:0:
472,248,24481,2,0,P|432:332|328:272,1,240,2|2,0:0|0:0,0:0:0:0:
248,220,25785,2,0,L|196:312,1,79.9999999999999,2|0,0:0|0:0,0:0:0:0:
120,248,26438,2,0,L|172:156,1,79.9999999999999,2|0,0:0|0:0,0:0:0:0:
227,110,27090,6,0,P|312:96|383:114,2,160,2|2|2,0:0|0:0|0:0,0:0:0:0:
52,192,29046,1,2,0:0:0:0:
227,274,29698,2,0,P|312:288|383:270,2,160,2|2|2,0:0|0:0|0:0,0:0:0:0:
176,144,32307,6,0,P|176:208|208:248,1,79.9999999999999,2|8,0:0|0:0,0:0:0:0:
256,280,32959,2,0,L|256:348,2,39.9999999999999,2|2|8,0:0|0:0|0:0,0:0:0:0:
329,220,33612,2,0,P|341:183|336:144,1,79.9999999999999,2|8,0:0|0:0,0:0:0:0:
304,52,34264,2,0,L|352:16,2,40,2|2|8,0:0|0:0|0:0,0:0:0:0:
208,52,34916,6,0,B|164:44|164:44|128:52,1,79.9999999999999,2|8,0:0|0:0,0:0:0:0:
60,120,35568,2,0,L|4:112,2,40,2|2|8,0:0|0:0|0:0,0:0:0:0:
120,196,36220,2,0,L|120:308,1,79.9999999999999,2|8,0:0|0:0,0:0:0:0:
200,332,36872,1,2,0:0:0:0:
280,280,37198,1,8,0:0:0:0:
360,228,37525,6,0,B|392:284|392:284|456:312,2,120,4|2|8,0:0|0:0|0:0,0:0:0:0:
389,136,38829,2,0,P|317:116|233:140,1,160,2|2,0:0|0:0,0:0:0:0:
82,252,40133,2,0,B|70:296|90:328|90:328|150:300|208:323,1,200,4|2,0:0|0:0,0:0:0:0:
303,323,41275,2,0,B|361:299|421:327|421:327|441:295|429:251,1,200,2|2,0:0|0:0,0:0:0:0:
373,68,42742,6,0,L|482:124,1,120,4|2,0:0|0:0,0:0:0:0:
347,179,43720,2,0,B|291:152|271:108|271:108|205:129|189:182|225:226,1,240,4|8,0:0|0:0,0:0:0:0:
373,316,45351,2,0,L|482:260,1,120,4|2,0:0|0:0,0:0:0:0:
347,205,46329,2,0,B|291:232|271:276|271:276|205:255|189:202|225:158,1,240,4|8,0:0|0:0,0:0:0:0:
66,52,47959,6,0,L|95:195,1,120,4|2,0:0|0:0,0:0:0:0:
163,293,48938,2,0,B|231:221|174:138|265:70,1,240,4|8,0:0|0:0,0:0:0:0:
446,52,50568,2,0,L|417:195,2,120,2|2|2,0:0|0:0|0:0,0:0:0:0:
356,20,51872,1,2,0:0:0:0:
271,133,53177,6,0,P|280:94|272:56,1,79.9999999999999,4|8,0:0|0:0,0:0:0:0:
184,96,53829,2,0,P|176:144|196:192,1,79.9999999999999,2|8,0:0|0:0,0:0:0:0:
244,248,54481,2,0,L|300:336,1,79.9999999999999,2|8,0:0|0:0,0:0:0:0:
208,368,55133,2,0,L|152:280,1,79.9999999999999,2|8,0:0|0:0,0:0:0:0:
80,256,55785,6,0,P|52:184|84:96,1,160,2|2,0:0|0:0,0:0:0:0:
144,40,56764,1,8,0:0:0:0:
216,104,57090,2,0,B|256:116|256:116|296:104,1,79.9999999999999,2|8,0:0|0:0,0:0:0:0:
376,60,57742,2,0,B|416:48|416:48|456:60,1,79.9999999999999,2|8,0:0|0:0,0:0:0:0:
500,144,58394,6,0,B|516:192|485:218|485:218|420:264,1,160,2|2,0:0|0:0,0:0:0:0:
256,164,59698,1,2,0:0:0:0:
92,263,60351,1,4,0:0:0:0:
172,320,60677,1,2,0:0:0:0:
260,280,61003,6,0,B|360:192|384:336|480:240,1,240,4|2,0:0|0:0,0:0:0:0:
492,148,62307,1,2,0:0:0:0:
332,40,62959,1,2,0:0:0:0:
160,124,63612,6,0,L|64:124,1,79.9999999999999,4|8,0:0|0:0,0:0:0:0:
36,208,64264,2,0,L|116:208,1,79.9999999999999,2|8,0:0|0:0,0:0:0:0:
196,264,64916,2,0,P|188:304|200:352,1,79.9999999999999,2|8,0:0|0:0,0:0:0:0:
280,300,65568,2,0,P|288:260|276:212,1,79.9999999999999,2|8,0:0|0:0,0:0:0:0:
260,128,66220,6,0,B|280:92|326:88|326:88|352:56|400:56,1,160,2|2,0:0|0:0,0:0:0:0:
488,88,67198,1,2,0:0:0:0:
496,184,67525,2,0,P|472:260|456:280,1,79.9999999999999,8|8,0:0|0:0,0:0:0:0:
198,346,68829,6,0,B|120:264|120:264|68:200|124:128,1,240,4|8,0:0|0:0,0:0:0:0:
176,76,70133,2,0,B|228:33|292:85|292:85|375:163,1,240,2|8,0:0|0:0,0:0:0:0:
328,248,71438,2,0,B|248:264|248:264|160:248,2,160,2|2|2,0:0|0:0|0:0,0:0:0:0:
436,88,73394,1,2,0:0:0:0:
256,24,74046,6,0,P|232:72|196:96,1,79.9999999999999,4|0,0:0|0:0,0:0:0:0:
132,140,74698,2,0,P|103:167|88:204,1,79.9999999999999,8|0,0:0|0:0,0:0:0:0:
112,296,75351,1,2,0:0:0:0:
256,24,76655,6,0,P|280:72|316:96,1,79.9999999999999,2|0,0:0|0:0,0:0:0:0:
380,140,77307,2,0,P|408:167|423:204,1,79.9999999999999,8|0,0:0|0:0,0:0:0:0:
400,296,77959,1,2,0:0:0:0:
256,24,79264,5,4,0:0:0:0:
472,192,80568,1,4,0:0:0:0:
256,360,81872,6,0,P|232:312|196:288,1,79.9999999999999,4|8,0:0|0:0,0:0:0:0:
132,244,82524,2,0,P|103:216|88:179,1,79.9999999999999,8|8,0:0|0:0,0:0:0:0:
112,88,83177,1,8,0:0:0:0:
256,192,84481,12,0,87090,0:0:0:0:
128,240,94916,6,0,L|232:284,1,79.9999999999999,4|8,0:0|0:0,0:0:0:0:
256,192,95568,2,0,L|256:124,2,39.9999999999999,2|2|8,0:0|0:0|0:0,0:0:0:0:
310,271,96220,2,0,L|384:240,1,79.9999999999999,2|8,0:0|0:0,0:0:0:0:
468,192,96873,2,0,L|528:192,2,40,2|2|8,0:0|0:0|0:0,0:0:0:0:
384,144,97525,6,0,L|310:112,1,79.9999999999999,2|8,0:0|0:0,0:0:0:0:
256,192,98177,2,0,L|256:240,2,40,2|2|8,0:0|0:0|0:0,0:0:0:0:
201,112,98829,2,0,L|128:144,1,79.9999999999999,2|8,0:0|0:0,0:0:0:0:
64,216,99481,2,0,P|51:278|71:340,2,120,2|2|8,0:0|0:0|0:0,0:0:0:0:
158,234,100785,6,0,L|186:267,2,40,2|2|8,0:0|0:0|0:0,0:0:0:0:
222,162,101438,2,0,P|299:182|376:166,1,160,2|2,0:0|0:0,0:0:0:0:
441,95,102416,1,2,0:0:0:0:
349,66,102742,2,0,L|247:66,2,79.9999999999999,2|8|2,0:0|0:0|0:0,0:0:0:0:
420,1,103720,1,8,0:0:0:0:
441,95,104046,2,0,L|474:253,1,160,2|2,0:0|0:0,0:0:0:0:
298,330,105351,6,0,L|213:348,1,79.9999999999999,4|8,0:0|0:0,0:0:0:0:
143,288,106003,2,0,L|84:288,2,40,2|2|8,0:0|0:0|0:0,0:0:0:0:
208,217,106655,2,0,L|286:200,1,79.9999999999999,2|8,0:0|0:0,0:0:0:0:
352,130,107307,2,0,L|411:130,2,40,2|2|8,0:0|0:0|0:0,0:0:0:0:
271,77,107959,6,0,L|192:93,1,79.9999999999999,2|8,0:0|0:0,0:0:0:0:
125,162,108612,2,0,L|69:162,2,40,2|2|8,0:0|0:0|0:0,0:0:0:0:
208,217,109264,2,0,P|224:256|252:292,1,79.9999999999999,4|8,0:0|0:0,0:0:0:0:
327,338,109916,1,4,0:0:0:0:
411,292,110242,1,8,0:0:0:0:
472,217,110568,6,0,B|501:151|485:97,2,120,4|2|8,0:0|0:0|0:0,0:0:0:0:
376,209,111873,2,0,B|300:234|300:234|225:206,1,160,2|2,0:0|0:0,0:0:0:0:
57,113,113177,2,0,B|60:61|107:66|129:29|129:29|163:56|208:53,1,200,4|2,0:0|0:0,0:0:0:0:
303,53,114318,2,0,B|349:56|383:29|383:29|405:66|452:61|455:113,1,200,2|2,0:0|0:0,0:0:0:0:
373,286,115786,6,0,P|315:325|235:317,1,120,4|2,0:0|0:0,0:0:0:0:
136,268,116764,2,0,B|88:196|48:192|48:192|88:188|136:116,1,240,4|8,0:0|0:0,0:0:0:0:
312,36,118394,2,0,P|368:20|424:40,1,120,4|2,0:0|0:0,0:0:0:0:
472,176,119372,2,0,B|488:256|416:280|416:280|309:312,1,240,4|8,0:0|0:0,0:0:0:0:
120,300,121003,6,0,P|96:244|100:184,1,120,4|2,0:0|0:0,0:0:0:0:
176,64,121982,2,0,B|248:32|288:70|288:70|328:32|400:64,1,240,4|8,0:0|0:0,0:0:0:0:
492,232,123612,2,0,L|463:375,2,120,4|2|2,0:0|0:0|0:0,0:0:0:0:
396,244,124916,1,2,0:0:0:0:
336,128,126220,6,0,L|232:144,1,79.9999999999999,4|8,0:0|0:0,0:0:0:0:
208,220,126872,2,0,L|128:232,1,79.9999999999999,2|8,0:0|0:0,0:0:0:0:
68,160,127524,2,0,P|54:122|61:83,1,79.9999999999999,2|8,0:0|0:0,0:0:0:0:
144,32,128177,2,0,P|157:69|150:108,1,79.9999999999999,2|8,0:0|0:0,0:0:0:0:
156,204,128829,6,0,B|141:241|98:256|98:256|146:349,1,160,2|2,0:0|0:0,0:0:0:0:
220,368,129807,1,8,0:0:0:0:
300,316,130133,2,0,B|338:304|378:316,1,79.9999999999999,2|8,0:0|0:0,0:0:0:0:
460,264,130785,2,0,B|448:225|460:185,1,79.9999999999999,2|8,0:0|0:0,0:0:0:0:
396,112,131438,6,0,B|351:112|324:141|324:141|284:127|244:142,1,160,4|2,0:0|0:0,0:0:0:0:
132,296,132741,1,2,0:0:0:0:
320,248,133394,1,4,0:0:0:0:
376,328,133720,1,2,0:0:0:0:
468,304,134046,6,0,B|476:232|476:232|488:140|424:136|444:68,1,240,4|2,0:0|0:0,0:0:0:0:
360,20,135350,1,2,0:0:0:0:
188,108,136002,1,2,0:0:0:0:
268,284,136655,6,0,L|364:284,1,79.9999999999999,4|8,0:0|0:0,0:0:0:0:
415,216,137307,2,0,L|415:136,1,79.9999999999999,2|8,0:0|0:0,0:0:0:0:
347,68,137959,2,0,L|251:68,1,79.9999999999999,2|8,0:0|0:0,0:0:0:0:
200,136,138611,2,0,L|200:216,1,79.9999999999999,2|8,0:0|0:0,0:0:0:0:
132,283,139264,6,0,P|64:228|60:160,1,160,2|2,0:0|0:0,0:0:0:0:
104,76,140241,1,8,0:0:0:0:
192,40,140568,2,0,P|236:48|272:80,1,79.9999999999999,8|8,0:0|0:0,0:0:0:0:
368,336,141872,6,0,B|392:248|468:219|468:219|440:168|468:112,1,240,4|8,0:0|0:0,0:0:0:0:
375,91,143177,2,0,B|356:115|298:106|298:106|297:188|223:240,1,240,2|8,0:0|0:0,0:0:0:0:
144,192,144481,2,0,B|142:103|216:48,2,160,4|2|2,0:0|0:0|0:0,0:0:0:0:
256,348,146437,1,2,0:0:0:0:
444,316,147090,6,0,B|460:280|460:280|452:216,1,79.9999999999999,4|0,0:0|0:0,0:0:0:0:
372,188,147742,2,0,B|366:147|366:147|382:111,1,79.9999999999999,8|0,0:0|0:0,0:0:0:0:
328,32,148394,1,2,0:0:0:0:
68,316,149698,6,0,B|52:280|52:280|60:216,1,79.9999999999999,2|0,0:0|0:0,0:0:0:0:
140,188,150350,2,0,B|145:147|145:147|129:111,1,79.9999999999999,8|0,0:0|0:0,0:0:0:0:
184,32,151002,1,2,0:0:0:0:
444,316,152308,5,4,0:0:0:0:
68,316,153612,1,4,0:0:0:0:
340,44,154916,6,0,B|356:80|356:80|348:144,1,79.9999999999999,4|8,0:0|0:0,0:0:0:0:
268,172,155568,2,0,B|262:212|262:212|278:248,1,79.9999999999999,8|8,0:0|0:0,0:0:0:0:
224,328,156220,1,8,0:0:0:0:
256,192,157525,12,2,160134,0:0:0:0:
104,92,170568,6,0,P|116:200|144:236,1,120,4|2,0:0|0:0,0:0:0:0:
264,207,171546,2,0,P|284:151|280:91,1,120,2|2,0:0|0:0,0:0:0:0:
420,52,172525,2,0,L|464:152,1,79.9999999999999,2|2,0:0|0:0,0:0:0:0:
464,220,173177,6,0,P|420:304|264:300,1,240,2|0,0:0|0:0,0:0:0:0:
208,264,174481,2,0,B|144:280|144:280|72:264,1,120,2|2,0:0|0:0,0:0:0:0:
12,212,175296,1,2,0:0:0:0:
80,84,175785,6,0,B|204:48|196:120|316:80,1,240,4|0,0:0|0:0,0:0:0:0:
400,36,177090,2,0,P|444:28|500:36,2,79.9999999999999,2|0|2,0:0|0:0|0:0,0:0:0:0:
476,212,178394,5,4,0:0:0:0:
344,348,179046,1,4,0:0:0:0:
152,336,179698,1,4,0:0:0:0:
84,132,181003,6,0,P|40:96|24:48,2,79.9999999999999,4|0|2,0:0|0:0|0:0,0:0:0:0:
176,100,181981,1,2,0:0:0:0:
252,160,182307,2,0,B|272:232|222:245|252:320,2,160,2|0|2,0:0|0:0|0:0,0:0:0:0:
320,92,183938,6,0,L|320:28,2,40,2|2|2,0:0|0:0|0:0,0:0:0:0:
388,160,184590,2,0,L|388:220,2,40,2|2|4,0:0|0:0|0:0,0:0:0:0:
504,8,185568,1,4,0:0:0:0:
476,196,186220,6,0,L|424:276,1,79.9999999999999,4|8,0:0|0:0,0:0:0:0:
348,216,186872,2,0,L|296:296,1,79.9999999999999,2|8,0:0|0:0,0:0:0:0:
207,283,187525,2,0,L|164:216,1,79.9999999999999,2|8,0:0|0:0,0:0:0:0:
79,263,188177,2,0,L|36:196,1,79.9999999999999,2|8,0:0|0:0,0:0:0:0:
20,100,188829,6,0,B|75:42|75:42|131:100|131:100|185:42|185:42|241:99|241:99|314:42|387:99,1,479.999999999999,4|2,0:0|0:0,0:0:0:0:
484,264,191438,6,0,P|420:324|372:308,1,120,4|2,0:0|0:0,0:0:0:0:
252,296,192416,2,0,P|156:352|36:308,1,240,2|8,0:0|0:0,0:0:0:0:
28,120,194046,2,0,P|92:60|140:76,1,120,2|2,0:0|0:0,0:0:0:0:
260,88,195025,2,0,P|356:32|476:76,1,240,2|8,0:0|0:0,0:0:0:0:
320,192,196655,6,0,L|356:312,1,120,4|2,0:0|0:0,0:0:0:0:
492,264,197633,2,0,B|488:184|488:184|481:69|388:88,1,240,2|8,0:0|0:0,0:0:0:0:
232,192,199264,2,0,L|156:64,2,120,4|2|8,0:0|0:0|0:0,0:0:0:0:
328,192,200568,2,0,L|252:64,2,120,2|2|8,0:0|0:0|0:0,0:0:0:0:
424,192,201872,2,0,L|348:64,2,120,2|2|8,0:0|0:0|0:0,0:0:0:0:
476,272,203177,1,2,0:0:0:0:
256,176,204481,5,4,0:0:0:0:
304,288,214916,6,0,P|340:272|368:228,1,79.9999999999999,4|8,0:0|0:0,0:0:0:0:
352,144,215568,2,0,P|336:108|292:80,1,79.9999999999999,2|8,0:0|0:0,0:0:0:0:
208,96,216220,2,0,P|172:112|144:156,1,79.9999999999999,2|8,0:0|0:0,0:0:0:0:
160,240,216872,2,0,P|176:276|220:304,1,79.9999999999999,2|8,0:0|0:0,0:0:0:0:
292,348,217524,6,0,B|336:364|369:344|369:344|352:296|388:252,1,160,2|2,0:0|0:0,0:0:0:0:
456,212,218502,1,8,0:0:0:0:
412,128,218829,2,0,P|372:108|320:116,1,79.9999999999999,8|8,0:0|0:0,0:0:0:0:
56,56,220133,6,0,B|96:152|24:208|69:290,1,240,4|8,0:0|0:0,0:0:0:0:
165,290,221438,2,0,B|210:207|138:151|178:55,1,240,2|8,0:0|0:0,0:0:0:0:
272,36,222742,2,0,B|352:52|352:52|440:36,2,160,4|2|2,0:0|0:0|0:0,0:0:0:0:
100,124,224698,1,2,0:0:0:0:
64,312,225351,5,2,0:0:0:0:
191,72,226655,1,2,0:0:0:0:
321,312,227960,1,2,0:0:0:0:
448,72,229264,1,2,0:0:0:0:
448,312,230568,5,4,0:0:0:0:
321,72,231872,1,4,0:0:0:0:
191,312,233177,6,0,L|84:336,1,79.9999999999999,4|8,0:0|0:0,0:0:0:0:
52,256,233829,2,0,L|130:238,1,79.9999999999999,8|8,0:0|0:0,0:0:0:0:
224,216,234481,1,8,0:0:0:0:
424,88,235785,6,0,L|412:168,1,79.9999999999999,4|8,0:0|0:0,0:0:0:0:
448,256,236437,2,0,L|482:276,2,40,2|2|8,0:0|0:0|0:0,0:0:0:0:
356,280,237090,2,0,P|316:292|276:284,1,79.9999999999999,2|8,0:0|0:0,0:0:0:0:
196,240,237741,2,0,L|148:240,2,40,2|2|8,0:0|0:0|0:0,0:0:0:0:
272,180,238393,6,0,P|280:136|268:88,1,79.9999999999999,2|8,0:0|0:0,0:0:0:0:
188,60,239046,2,0,B|128:72|128:72|92:56|52:68,2,120,2|2|8,0:0|0:0|0:0,0:0:0:0:
260,16,240351,2,0,B|360:4,1,79.9999999999999,2|8,0:0|0:0,0:0:0:0:
256,192,241003,12,2,244916,0:0:0:0:
256,192,247016,12,0,252177,0:0:0:0:
