osu file format v14

[General]
AudioFilename: audio.mp3
AudioLeadIn: 0
PreviewTime: 53852
Countdown: 0
SampleSet: Soft
StackLeniency: 0.7
Mode: 0
LetterboxInBreaks: 0
WidescreenStoryboard: 1

[Editor]
DistanceSpacing: 0.2
BeatDivisor: 4
GridSize: 16
TimelineZoom: 2.799999

[Metadata]
Title:Daisy Blue
TitleUnicode:Daisy Blue
Artist:Kano
ArtistUnicode:鹿乃
Creator:Atomosphere
Version:Cerulean
Source:
Tags:
BeatmapID:1855710
BeatmapSetID:887744

[Difficulty]
HPDrainRate:6
CircleSize:4
OverallDifficulty:8
ApproachRate:9.1
SliderMultiplier:1.8
SliderTickRate:1

[Events]
//Background and Video events
0,0,"Daisy Blue.png",0,0
//Break Periods
//Storyboard Layer 0 (Background)
//Storyboard Layer 1 (Fail)
//Storyboard Layer 2 (Pass)
//Storyboard Layer 3 (Foreground)
//Storyboard Sound Samples

[TimingPoints]
1760,326.086956521739,4,2,1,40,1,0
12194,-100,4,2,1,60,0,0
21814,-113.636363636364,4,2,1,50,0,0
22629,-133.333333333333,4,2,1,50,0,0
33064,-113.636363636364,4,2,1,60,0,0
53607,-200,4,2,1,60,0,0
53933,-100,4,2,1,80,0,1
73933,-100,4,2,2,80,0,1
74151,-100,4,2,1,80,0,1
74259,-100,4,2,2,80,0,1
74477,-100,4,2,1,80,0,1
85238,-100,4,2,1,40,0,0

[Colours]
Combo1 : 94,174,255
Combo2 : 128,255,255
Combo3 : 128,128,255

[HitObjects]
100,289,1760,5,0,0:0:0:0:
270,105,2412,1,0,0:0:0:0:
64,169,3064,1,0,0:0:0:0:
306,225,3716,1,0,0:0:0:0:
149,77,4368,1,0,0:0:0:0:
221,317,5020,1,0,0:0:0:0:
185,197,5673,5,0,0:0:0:0:
270,105,5999,1,0,0:0:0:0:
306,225,6325,1,0,0:0:0:0:
221,317,6651,1,0,0:0:0:0:
149,77,6977,1,0,0:0:0:0:
100,289,7629,5,0,0:0:0:0:
306,225,8281,1,0,0:0:0:0:
149,77,8933,1,0,0:0:0:0:
185,197,9586,5,0,0:0:0:0:
256,192,9667,12,0,11868,0:0:0:0:
83,309,12194,6,0,L|63:202,1,90,6|0,0:0|0:0,0:0:0:0:
205,149,12520,2,0,B|100:178|137:95|12:135,2,180,8|2|8,0:0|0:0|0:0,0:0:0:0:
205,149,13336,1,0,0:0:0:0:
340,51,13499,2,0,P|296:49|256:68,1,90,2|0,0:0|0:0,0:0:0:0:
351,320,13825,2,0,L|316:143,1,180,8|2,0:0|0:0,0:0:0:0:
245,249,14314,1,2,0:0:0:0:
422,214,14477,2,0,L|530:193,1,90,8|0,0:0|0:0,0:0:0:0:
281,378,14803,6,0,B|219:367|219:367|187:332|187:332|119:319,2,180,2|8|2,0:0|0:0|0:0,0:0:0:0:
351,320,15618,1,2,0:0:0:0:
283,200,15781,2,0,L|266:289,1,90,8|0,0:0|0:0,0:0:0:0:
150,104,16107,2,0,P|194:102|232:125,1,90,2|0,0:0|0:0,0:0:0:0:
90,213,16433,2,0,P|134:214|172:191,1,90,8|0,0:0|0:0,0:0:0:0:
293,59,16759,1,2,0:0:0:0:
348,229,16923,1,2,0:0:0:0:
271,158,17086,1,8,0:0:0:0:
228,361,17249,1,8,0:0:0:0:
420,287,17412,6,0,B|324:308|348:234|246:260,1,180,6|2,0:0|0:0,0:0:0:0:
148,289,17901,2,0,B|111:247|111:247|130:124,1,180,8|8,0:0|0:0,0:0:0:0:
224,3,18390,2,0,P|179:8|143:34,1,90,4|0,0:0|0:0,0:0:0:0:
200,181,18716,1,2,0:0:0:0:
283,148,18879,2,0,P|301:106|296:62,1,90,8|0,0:0|0:0,0:0:0:0:
213,93,19205,1,2,0:0:0:0:
233,264,19368,1,8,0:0:0:0:
233,264,19531,1,8,0:0:0:0:
316,231,19694,1,0,0:0:0:0:
144,251,19857,1,8,0:0:0:0:
303,319,20020,6,0,B|415:332|356:240|506:274,1,180,6|8,0:0|0:0,0:0:0:0:
371,160,20509,1,8,0:0:0:0:
455,356,20673,1,8,0:0:0:0:
426,89,20836,1,8,0:0:0:0:
316,231,20999,5,8,0:0:0:0:
91,41,21325,6,0,L|114:219,1,180,2|0,0:0|0:0,0:0:0:0:
233,264,21814,1,0,0:0:0:0:
233,264,21895,1,0,0:0:0:0:
233,264,21977,2,0,L|196:249,1,39.6000012084961,0|0,0:0|0:0,0:0:0:0:
11,294,22140,2,0,L|42:270,1,39.6000012084961,2|0,0:0|0:0,0:0:0:0:
126,307,22303,5,8,0:0:0:0:
246,171,22629,6,0,P|216:157|183:159,1,67.5000025749208,6|0,0:0|0:0,0:0:0:0:
318,117,22955,2,0,L|309:50,1,67.5000025749208,0|0,0:0|0:0,0:0:0:0:
402,152,23281,2,0,P|428:131|461:124,1,67.5000025749208,0|0,0:0|0:0,0:0:0:0:
413,242,23607,1,0,0:0:0:0:
329,207,23770,1,0,0:0:0:0:
425,333,23933,6,0,P|354:321|289:347,1,135.000005149842,2|2,0:0|0:0,0:0:0:0:
240,268,24423,1,0,0:0:0:0:
240,268,24586,2,0,P|210:309|207:338,1,67.5000025749208,2|0,0:0|0:0,0:0:0:0:
115,334,24912,2,0,P|98:306|70:287,1,67.5000025749208,2|2,0:0|0:0,0:0:0:0:
150,231,25238,6,0,L|132:73,1,135.000005149842,2|2,0:0|0:0,0:0:0:0:
190,24,25727,1,0,0:0:0:0:
280,35,25890,2,0,P|231:42|191:27,1,67.5000025749208,2|0,0:0|0:0,0:0:0:0:
364,70,26216,2,0,P|355:118|329:152,1,67.5000025749208,2|0,0:0|0:0,0:0:0:0:
423,0,26542,2,0,P|466:22|498:119,2,135.000005149842,2|2|2,0:0|0:0|0:0,0:0:0:0:
445,171,27357,1,0,0:0:0:0:
389,244,27520,2,0,P|418:260|452:263,1,67.5000025749208,2|0,0:0|0:0,0:0:0:0:
335,317,27846,6,0,B|261:354|279:291|181:330,1,135.000005149842,2|2,0:0|0:0,0:0:0:0:
216,231,28336,1,0,0:0:0:0:
15,302,28499,2,0,P|80:308|131:266,1,135.000005149842,2|2,0:0|0:0,0:0:0:0:
142,174,28988,1,0,0:0:0:0:
153,83,29151,6,0,L|307:62,1,135.000005149842,2|2,0:0|0:0,0:0:0:0:
376,52,29640,1,0,0:0:0:0:
341,135,29803,2,0,P|314:150|259:150,1,67.5000025749208,2|0,0:0|0:0,0:0:0:0:
431,124,30129,2,0,P|461:130|513:115,1,67.5000025749208,2|0,0:0|0:0,0:0:0:0:
335,245,30455,6,0,P|395:217|461:229,1,135.000005149842,2|2,0:0|0:0,0:0:0:0:
299,328,30944,1,0,0:0:0:0:
210,337,31107,2,0,P|246:344|278:337,1,67.5000025749208,2|0,0:0|0:0,0:0:0:0:
156,267,31433,2,0,L|144:200,1,67.5000025749208,2|0,0:0|0:0,0:0:0:0:
142,183,31678,1,0,0:0:0:0:
139,165,31759,5,2,0:0:0:0:
300,25,32575,5,2,0:0:0:0:
246,255,32738,1,8,0:0:0:0:
246,255,33064,6,0,P|209:248|168:260,1,79.2000024169922,0|0,0:0|0:0,0:0:0:0:
133,341,33390,2,0,P|128:272|108:184,1,158.400004833984,8|2,0:0|0:0,0:0:0:0:
94,95,33879,1,2,0:0:0:0:
242,87,34042,2,0,P|214:115|177:127,1,79.2000024169922,8|0,0:0|0:0,0:0:0:0:
326,55,34368,6,0,L|301:237,1,158.400004833984,2|8,0:0|0:0,0:0:0:0:
481,84,34857,1,0,0:0:0:0:
395,110,35020,2,0,P|413:144|445:166,1,79.2000024169922,2|2,0:0|0:0,0:0:0:0:
332,297,35346,2,0,L|254:286,1,79.2000024169922,8|0,0:0|0:0,0:0:0:0:
19,295,35673,6,0,P|111:281|185:332,1,158.400004833984,2|8,0:0|0:0,0:0:0:0:
254,286,36162,1,0,0:0:0:0:
199,143,36325,2,0,L|188:221,1,79.2000024169922,2|2,0:0|0:0,0:0:0:0:
339,88,36651,2,0,P|302:74|263:76,1,79.2000024169922,8|0,0:0|0:0,0:0:0:0:
77,50,36977,6,0,P|117:46|154:59,1,79.2000024169922,2|0,0:0|0:0,0:0:0:0:
276,196,37303,2,0,L|443:170,1,158.400004833984,8|2,0:0|0:0,0:0:0:0:
479,252,37792,1,8,0:0:0:0:
495,242,37955,1,8,0:0:0:0:
507,228,38118,1,8,0:0:0:0:
295,289,38281,6,0,P|252:289|202:254,1,79.2000024169922,6|0,0:0|0:0,0:0:0:0:
130,135,38607,2,0,P|151:172|146:233,1,79.2000024169922,8|0,0:0|0:0,0:0:0:0:
80,355,38933,2,0,P|101:317|156:291,1,79.2000024169922,2|2,0:0|0:0,0:0:0:0:
242,182,39259,1,8,0:0:0:0:
220,273,39423,1,0,0:0:0:0:
265,92,39586,6,0,B|357:116|330:49|444:81,2,158.400004833984,2|8|2,0:0|0:0|0:0,0:0:0:0:
265,92,40401,1,2,0:0:0:0:
399,242,40564,2,0,L|389:163,1,79.2000024169922,8|0,0:0|0:0,0:0:0:0:
199,28,40890,2,0,P|174:97|225:174,1,158.400004833984,6|8,0:0|0:0,0:0:0:0:
147,232,41379,1,2,0:0:0:0:
265,92,41542,1,8,0:0:0:0:
103,153,41705,2,0,P|62:200|54:248,1,79.2000024169922,8|0,0:0|0:0,0:0:0:0:
192,311,42031,6,0,P|232:263|240:215,1,79.2000024169922,2|0,0:0|0:0,0:0:0:0:
147,232,42357,1,8,0:0:0:0:
315,357,42520,2,0,P|319:279|375:221,1,158.400004833984,2|8,0:0|0:0,0:0:0:0:
460,205,43009,1,8,0:0:0:0:
385,59,43173,2,0,L|396:117,1,39.6000012084961,2|0,0:0|0:0,0:0:0:0:
400,137,43336,1,8,0:0:0:0:
296,41,43499,6,0,P|216:30|120:76,1,158.400004833984,6|2,0:0|0:0,0:0:0:0:
61,110,43988,2,0,P|141:99|237:145,1,158.400004833984,8|8,0:0|0:0,0:0:0:0:
118,269,44477,2,0,L|127:190,1,79.2000024169922,2|0,0:0|0:0,0:0:0:0:
144,56,44803,1,2,0:0:0:0:
142,193,44966,2,0,L|124:351,1,158.400004833984,8|2,0:0|0:0,0:0:0:0:
248,322,45455,1,8,0:0:0:0:
229,315,45618,1,8,0:0:0:0:
208,317,45781,1,8,0:0:0:0:
124,350,45944,1,8,0:0:0:0:
304,251,46107,6,0,B|378:304|386:231|471:298,1,158.400004833984,6|2,0:0|0:0,0:0:0:0:
313,28,46596,2,0,B|304:118|370:89|355:196,1,158.400004833984,8|8,0:0|0:0,0:0:0:0:
160,275,47086,2,0,B|243:237|184:193|284:153,1,158.400004833984,6|2,0:0|0:0,0:0:0:0:
304,251,47575,1,8,0:0:0:0:
304,251,47901,5,2,0:0:0:0:
125,188,48064,1,8,0:0:0:0:
105,193,48227,1,8,0:0:0:0:
90,209,48390,1,0,0:0:0:0:
160,275,48553,1,8,0:0:0:0:
89,101,48716,6,0,P|166:108|214:169,1,158.400004833984,6|2,0:0|0:0,0:0:0:0:
361,214,49205,2,0,B|274:214|311:158|192:170,1,158.400004833984,8|8,0:0|0:0,0:0:0:0:
378,41,49694,2,0,L|358:137,1,79.2000024169922,2|0,0:0|0:0,0:0:0:0:
452,188,50020,1,2,0:0:0:0:
392,58,50183,2,0,L|361:214,1,158.400004833984,8|2,0:0|0:0,0:0:0:0:
249,280,50673,1,8,0:0:0:0:
256,256,50836,1,8,0:0:0:0:
271,239,50999,1,0,0:0:0:0:
343,306,51162,1,8,0:0:0:0:
199,172,51325,6,0,P|120:175|45:221,1,158.400004833984,6|8,0:0|0:0,0:0:0:0:
52,213,51814,1,8,0:0:0:0:
37,129,51977,1,8,0:0:0:0:
68,298,52140,1,8,0:0:0:0:
102,73,52303,1,8,0:0:0:0:
2,353,52466,1,8,0:0:0:0:
285,244,52629,5,8,0:0:0:0:
299,248,53444,5,2,0:0:0:0:
423,174,53607,6,0,P|390:168|358:176,1,67.5,8|0,0:0|0:0,0:0:0:0:
357,176,53933,6,0,P|350:124|329:92,1,90,6|0,0:0|0:0,0:0:0:0:
163,151,54259,2,0,P|166:195|189:234,1,90,8|0,0:0|0:0,0:0:0:0:
322,332,54586,2,0,B|260:163,1,180,2|8,0:0|0:0,0:0:0:0:
260,163,55075,1,0,0:0:0:0:
231,312,55238,2,0,B|134:344|157:254|27:312,1,180,2|8,0:0|0:0,0:0:0:0:
0,370,55727,1,0,0:0:0:0:
24,216,55890,1,2,0:0:0:0:
145,313,56053,1,2,0:0:0:0:
166,155,56216,2,0,P|124:139|81:146,1,90,8|0,0:0|0:0,0:0:0:0:
235,326,56542,6,0,B|333:345|309:275|411:291,2,180,2|8|2,0:0|0:0|0:0,0:0:0:0:
145,313,57357,1,2,0:0:0:0:
257,153,57520,2,0,P|253:197|269:239,1,90,8|0,0:0|0:0,0:0:0:0:
357,94,57846,2,0,P|360:138|344:180,1,90,2|0,0:0|0:0,0:0:0:0:
42,101,58173,2,0,P|109:95|169:124,1,135,8|0,0:0|0:0,0:0:0:0:
195,100,58499,2,0,L|184:-1,1,90,2|2,0:0|0:0,0:0:0:0:
86,219,58825,1,8,0:0:0:0:
257,153,58988,1,8,0:0:0:0:
148,358,59151,6,0,B|121:267|198:276|167:172,1,180,6|8,0:0|0:0,0:0:0:0:
170,185,59640,1,0,0:0:0:0:
319,295,59803,2,0,L|234:322,1,90,2|2,0:0|0:0,0:0:0:0:
335,129,60129,2,0,L|362:215,1,90,8|0,0:0|0:0,0:0:0:0:
442,257,60455,5,2,0:0:0:0:
271,218,60618,1,2,0:0:0:0:
325,35,60781,2,0,L|371:185,1,135,8|0,0:0|0:0,0:0:0:0:
400,172,61107,2,0,P|435:141|505:126,1,90,6|0,0:0|0:0,0:0:0:0:
263,101,61433,2,0,P|218:85|148:97,1,90,8|0,0:0|0:0,0:0:0:0:
161,317,61759,6,0,L|108:146,1,180,2|8,0:0|0:0,0:0:0:0:
15,135,62249,1,8,0:0:0:0:
253,327,62412,1,2,0:0:0:0:
41,220,62575,1,8,0:0:0:0:
176,86,62738,1,2,0:0:0:0:
171,348,62901,5,8,0:0:0:0:
166,335,62982,1,8,0:0:0:0:
161,317,63064,2,0,L|134:231,1,90,6|0,0:0|0:0,0:0:0:0:
261,107,63390,2,0,P|238:146|202:170,2,90,8|8|2,0:0|0:0|0:0,0:0:0:0:
150,1,63879,1,8,0:0:0:0:
43,218,64042,1,8,0:0:0:0:
176,86,64205,1,2,0:0:0:0:
154,82,64287,1,2,0:0:0:0:
132,80,64368,6,0,L|36:66,1,90,12|0,0:0|0:0,0:0:0:0:
134,231,64694,2,0,L|120:327,1,90,8|0,0:0|0:0,0:0:0:0:
285,229,65020,2,0,L|381:243,1,90,8|2,0:0|0:0,0:0:0:0:
282,77,65346,1,8,0:0:0:0:
208,154,65509,1,2,0:0:0:0:
318,312,65673,2,0,B|412:357|405:279|496:316,1,180,8|8,0:0|0:0,0:0:0:0:
491,314,66162,1,0,0:0:0:0:
387,152,66325,2,0,L|373:248,1,90,8|2,0:0|0:0,0:0:0:0:
171,369,66651,2,0,L|261:382,1,90,8|2,0:0|0:0,0:0:0:0:
277,162,66977,6,0,B|206:171|206:171|186:188|186:188|83:204,1,180,12|2,0:0|0:0,0:0:0:0:
15,213,67466,1,8,0:0:0:0:
124,26,67629,2,0,L|136:115,1,90,0|2,0:0|0:0,0:0:0:0:
328,237,67955,2,0,P|287:254|244:246,1,90,8|2,0:0|0:0,0:0:0:0:
389,57,68281,6,0,P|371:121|399:181,1,135,8|0,0:0|0:0,0:0:0:0:
423,193,68607,2,0,L|523:175,1,90,8|0,0:0|0:0,0:0:0:0:
277,162,68933,1,2,0:0:0:0:
386,360,69096,2,0,P|407:321|404:277,1,90,8|0,0:0|0:0,0:0:0:0:
209,328,69423,1,8,0:0:0:0:
86,198,69586,6,0,B|133:205|157:249|157:249|203:224|242:244,2,180,6|8|2,0:0|0:0|0:0,0:0:0:0:
86,198,70401,1,2,0:0:0:0:
212,60,70564,2,0,L|188:147,1,90,8|0,0:0|0:0,0:0:0:0:
388,287,70890,2,0,B|302:233|363:207|277:152,2,180,2|8|2,0:0|0:0|0:0,0:0:0:0:
419,198,71705,1,2,0:0:0:0:
477,317,71868,1,8,0:0:0:0:
242,244,72031,1,8,0:0:0:0:
413,108,72194,6,0,L|388:287,1,180,6|0,0:0|0:0,0:0:0:0:
375,375,72683,1,2,0:0:0:0:
134,359,72846,2,0,B|233:369|202:304|310:318,1,180,8|8,0:0|0:0,0:0:0:0:
68,44,73499,6,0,L|86:112,1,60,2|8,0:0|0:0,0:0:0:0:
170,88,73716,1,8,0:0:0:0:
169,97,73825,2,0,L|150:164,2,60,8|8|8,0:0|0:0|0:0,0:0:0:0:
238,44,74151,2,0,L|305:62,1,60,8|8,0:0|0:0,0:0:0:0:
341,135,74368,1,8,0:0:0:0:
341,135,74477,2,0,L|398:119,1,60,8|0,0:0|0:0,0:0:0:0:
443,43,74640,1,8,0:0:0:0:
400,220,74803,6,0,P|329:156|236:170,1,180,6|0,0:0|0:0,0:0:0:0:
198,235,75292,1,2,0:0:0:0:
84,69,75455,2,0,P|64:162|122:236,1,180,8|2,0:0|0:0,0:0:0:0:
109,227,75944,1,0,0:0:0:0:
255,356,76107,6,0,L|236:316,1,45,2|0,0:0|0:0,0:0:0:0:
198,235,76270,1,8,0:0:0:0:
198,235,76596,5,2,0:0:0:0:
316,277,76759,2,0,L|145:358,1,180,8|0,0:0|0:0,0:0:0:0:
279,196,77249,1,8,0:0:0:0:
125,179,77412,6,0,P|160:151|204:144,1,90,2|0,0:0|0:0,0:0:0:0:
204,144,77738,1,0,0:0:0:0:
198,235,77901,1,2,0:0:0:0:
286,106,78064,2,0,B|393:128|356:55|471:69,1,180,8|0,0:0|0:0,0:0:0:0:
435,162,78553,1,8,0:0:0:0:
318,20,78716,6,0,P|296:14|274:16,1,45,2|0,0:0|0:0,0:0:0:0:
286,106,78879,1,8,0:0:0:0:
286,106,79205,5,2,0:0:0:0:
128,241,79368,2,0,B|237:252|189:188|295:194,1,180,8|0,0:0|0:0,0:0:0:0:
280,284,79857,1,8,0:0:0:0:
485,346,80020,2,0,B|390:307|390:307|361:311|340:336|362:377,1,180,12|0,0:0|0:0,0:0:0:0:
126,237,81325,6,0,L|89:61,1,180,6|0,0:0|0:0,0:0:0:0:
59,297,81977,6,0,P|101:326|145:326,1,90,0|0,0:0|0:0,0:0:0:0:
206,267,82303,2,0,P|164:238|120:238,1,90,0|0,0:0|0:0,0:0:0:0:
291,294,82629,6,0,P|337:272|359:234,1,90,12|0,0:0|0:0,0:0:0:0:
334,65,82955,2,0,P|329:109|348:150,1,90,8|0,0:0|0:0,0:0:0:0:
509,216,83281,2,0,P|473:189|429:185,1,90,8|0,0:0|0:0,0:0:0:0:
304,378,83607,2,0,P|285:338|291:294,1,90,8|2,0:0|0:0,0:0:0:0:
334,65,83933,5,6,0:0:0:0:
438,275,84096,1,8,0:0:0:0:
204,260,84259,1,8,0:0:0:0:
347,149,84423,1,8,0:0:0:0:
304,378,84586,1,8,0:0:0:0:
118,223,84749,1,2,0:0:0:0:
377,324,84912,1,8,0:0:0:0:
158,372,85075,1,8,0:0:0:0:
170,90,85238,6,0,B|158:188|236:159|201:269,2,180,6|8|2,0:0|0:0|0:0,0:0:0:0:
170,90,86053,1,2,0:0:0:0:
28,235,86216,2,0,L|146:218,1,90,8|0,0:0|0:0,0:0:0:0:
347,126,86542,2,0,P|306:110|261:115,1,90,2|0,0:0|0:0,0:0:0:0:
268,375,86868,2,0,L|296:198,2,180,10|2|8,0:0|0:0|0:0,0:0:0:0:
425,229,87683,1,0,0:0:0:0:
453,318,87846,6,0,B|357:338|379:258|255:293,1,180,6|8,0:0|0:0,0:0:0:0:
281,286,88336,1,0,0:0:0:0:
105,308,88499,2,0,P|154:315|199:304,1,90,2|2,0:0|0:0,0:0:0:0:
312,109,88825,2,0,P|321:153|313:197,1,90,8|0,0:0|0:0,0:0:0:0:
166,26,89151,6,0,B|119:33|95:77|95:77|49:52|10:72,2,180,6|8|2,0:0|0:0|0:0,0:0:0:0:
196,118,89966,1,0,0:0:0:0:
199,135,90129,1,0,0:0:0:0:
202,152,90292,1,0,0:0:0:0:
450,33,90455,5,0,0:0:0:0:
