osu file format v14

[General]
AudioFilename: audio.mp3
AudioLeadIn: 0
PreviewTime: 188185
Countdown: 0
SampleSet: Soft
StackLeniency: 0.7
Mode: 0
LetterboxInBreaks: 0
WidescreenStoryboard: 0

[Editor]
Bookmarks: 50571,128738,130790,132369,132685,134580
DistanceSpacing: 2.5
BeatDivisor: 4
GridSize: 8
TimelineZoom: 3.899998

[Metadata]
Title:Clean Freak
TitleUnicode:ケッペキショウ
Artist:Kano
ArtistUnicode:鹿乃
Creator:october
Version:VALUES
Source:戯言クライン
Tags:
BeatmapID:1477220
BeatmapSetID:697382

[Difficulty]
HPDrainRate:6.5
CircleSize:4
OverallDifficulty:8.7
ApproachRate:9.6
SliderMultiplier:2
SliderTickRate:1

[Events]
//Background and Video events
0,0,"bg.jpg",0,0
//Break Periods
2,79832,89055
2,165727,182370
//Storyboard Layer 0 (Background)
//Storyboard Layer 1 (Fail)
//Storyboard Layer 2 (Pass)
//Storyboard Layer 3 (Foreground)
//Storyboard Sound Samples

[TimingPoints]
1317,315.789473684211,4,2,0,90,1,0
38580,-100,4,2,0,90,0,0
59422,-100,4,2,0,90,0,1
77106,-100,4,2,0,90,0,0
120053,-100,4,2,0,90,0,1
122895,-66.6666666666667,4,2,0,90,0,1
123211,-100,4,2,0,90,0,1
130790,-66.6666666666667,4,2,0,90,0,1
130948,-100,4,2,0,90,0,1
137738,-100,4,2,0,90,0,0
150685,-66.6666666666667,4,2,0,90,0,0
150922,-100,4,2,0,90,0,0
153685,-66.6666666666667,4,2,0,90,0,0
153922,-100,4,2,0,90,0,0
185738,-133.333333333333,4,2,0,90,0,0
186053,-100,4,2,0,90,0,0
188264,-100,4,2,0,90,0,1
190790,-80,4,2,0,90,0,1
194264,-95.2380952380952,4,2,0,90,0,1
195369,-80,4,2,0,90,0,1
208474,-80,4,2,0,90,0,0

[HitObjects]
120,96,39053,5,0,0:0:0:0:
208,288,39211,1,0,0:0:0:0:
368,152,39369,2,0,P|312:64|272:64,1,100
96,280,39685,5,0,0:0:0:0:
216,104,39843,1,0,0:0:0:0:
368,256,40001,2,0,P|456:192|448:144,1,100
328,40,40317,5,0,0:0:0:0:
232,272,40474,1,0,0:0:0:0:
456,160,40632,1,0,0:0:0:0:
208,160,40790,1,0,0:0:0:0:
400,320,40948,2,0,P|480:248|488:208,1,100
384,56,41264,1,0,0:0:0:0:
232,312,41422,1,0,0:0:0:0:
88,48,41580,1,0,0:0:0:0:
352,200,41738,1,0,0:0:0:0:
88,352,41895,2,0,P|48:256|56:232,1,100
192,56,42211,5,0,0:0:0:0:
232,280,42369,1,0,0:0:0:0:
416,144,42527,2,0,P|304:144|272:128,1,100
128,80,42843,5,0,0:0:0:0:
144,280,43001,1,0,0:0:0:0:
312,168,43159,2,0,P|264:72|232:80,1,100
104,184,43474,5,0,0:0:0:0:
304,64,43632,1,0,0:0:0:0:
104,184,43790,2,0,P|144:288|176:296,1,100
160,88,44106,5,0,0:0:0:0:
320,256,44264,1,0,0:0:0:0:
104,328,44422,2,0,P|48:288|40:248,1,100
288,336,44738,5,0,0:0:0:0:
112,144,44895,1,0,0:0:0:0:
360,208,45053,1,0,0:0:0:0:
120,296,45211,5,0,0:0:0:0:
248,72,45369,1,0,0:0:0:0:
200,368,45527,1,0,0:0:0:0:
328,144,45685,2,0,P|384:104|432:104,1,100
184,256,46001,2,0,P|128:296|80:296,1,100
48,120,46317,5,0,0:0:0:0:
184,344,46474,1,0,0:0:0:0:
224,88,46632,1,0,0:0:0:0:
352,312,46790,1,0,0:0:0:0:
224,88,46948,2,0,P|144:88|112:112,1,100
72,320,47264,1,0,0:0:0:0:
248,168,47422,1,0,0:0:0:0:
72,320,47580,2,0,P|24:248|32:208,1,100
104,88,47895,5,0,0:0:0:0:
208,288,48053,1,0,0:0:0:0:
320,88,48211,2,0,P|416:80|448:104,1,100
376,312,48527,1,0,0:0:0:0:
200,104,48685,1,0,0:0:0:0:
464,40,48843,1,0,0:0:0:0:
464,288,49001,5,0,0:0:0:0:
344,96,49159,1,0,0:0:0:0:
304,72,49238,1,0,0:0:0:0:
264,56,49317,2,0,P|176:64|160:80,1,100
48,240,49632,1,0,0:0:0:0:
232,176,49790,1,0,0:0:0:0:
280,168,49869,1,0,0:0:0:0:
328,168,49948,2,0,P|392:184|432:240,1,100
296,368,50264,2,0,P|304:304|328:272,1,100
408,112,50580,5,0,0:0:0:0:
368,88,50659,1,0,0:0:0:0:
328,72,50738,1,0,0:0:0:0:
280,72,50817,1,0,0:0:0:0:
240,88,50895,2,0,P|176:128|152:192,1,100
72,336,51211,1,0,0:0:0:0:
272,232,51369,1,0,0:0:0:0:
80,136,51527,1,0,0:0:0:0:
192,320,51685,5,0,0:0:0:0:
232,336,51764,1,0,0:0:0:0:
280,344,51843,2,0,P|360:336|376:320,1,100
400,296,52080,1,0,0:0:0:0:
416,256,52159,2,0,P|424:184|392:144,1,100
128,160,52474,2,0,P|184:96|208:88,1,100
352,336,52790,2,0,P|312:248|272:224,1,100
128,160,53106,5,0,0:0:0:0:
160,128,53185,1,0,0:0:0:0:
192,104,53264,1,0,0:0:0:0:
232,88,53343,1,0,0:0:0:0:
272,88,53422,2,0,P|384:120|400:136,1,100
424,304,53738,2,0,P|320:304|296:328,1,100
128,352,54053,1,0,0:0:0:0:
232,192,54211,5,0,0:0:0:0:
256,160,54290,1,0,0:0:0:0:
288,136,54369,2,0,P|360:112|392:112,1,100
272,320,54685,1,0,0:0:0:0:
288,288,54764,1,0,0:0:0:0:
312,256,54843,1,0,0:0:0:0:
344,232,54922,1,0,0:0:0:0:
376,208,55001,2,0,P|440:200|472:216,1,100
448,56,55317,1,0,0:0:0:0:
408,288,55474,1,0,0:0:0:0:
248,144,55632,6,0,P|168:152|136:200,1,100
192,352,55948,2,0,P|272:336|296:312,1,100
392,152,56264,1,0,0:0:0:0:
112,224,56422,1,0,0:0:0:0:
352,104,56580,5,0,0:0:0:0:
136,296,56738,1,0,0:0:0:0:
136,296,56817,1,0,0:0:0:0:
136,296,56895,2,0,P|64:288|40:256,1,100
152,80,57211,5,0,0:0:0:0:
360,280,57369,1,0,0:0:0:0:
152,80,57527,2,0,P|208:48|264:56,1,100
168,288,58001,5,0,0:0:0:0:
296,160,58159,1,0,0:0:0:0:
128,120,58317,1,0,0:0:0:0:
256,272,58474,1,0,0:0:0:0:
328,64,58632,1,0,0:0:0:0:
136,224,58790,2,0,P|112:296|136:336,1,100
96,160,59422,5,0,0:0:0:0:
360,280,59580,1,0,0:0:0:0:
288,88,59738,1,0,0:0:0:0:
200,368,59895,1,0,0:0:0:0:
432,192,60053,2,0,P|432:112|408:88,1,100
216,264,60369,1,0,0:0:0:0:
216,264,60527,5,0,0:0:0:0:
464,120,60685,1,0,0:0:0:0:
216,264,60843,1,0,0:0:0:0:
384,32,61001,1,0,0:0:0:0:
216,264,61159,2,0,P|144:216|136:184,1,100
424,144,61474,1,0,0:0:0:0:
152,48,61632,5,0,0:0:0:0:
392,208,61790,1,0,0:0:0:0:
104,264,61948,2,0,P|72:176|88:152,1,100
344,72,62264,1,0,0:0:0:0:
248,344,62422,1,0,0:0:0:0:
64,120,62580,1,0,0:0:0:0:
344,184,62738,1,0,0:0:0:0:
72,280,62895,1,0,0:0:0:0:
360,328,63053,6,0,P|432:288|448:248,1,100
248,56,63369,1,0,0:0:0:0:
148,335,63527,2,0,P|92:311|68:271,1,100
364,49,63843,2,0,P|420:73|444:113,1,100
312,328,64159,1,0,0:0:0:0:
272,344,64238,1,0,0:0:0:0:
232,344,64317,1,0,0:0:0:0:
192,328,64395,1,0,0:0:0:0:
160,304,64474,6,0,P|120:224|128:184,1,100
352,40,64790,5,0,0:0:0:0:
392,296,64948,1,0,0:0:0:0:
240,88,65106,2,0,P|136:104|120:128,1,100
56,344,65422,1,0,0:0:0:0:
280,208,65580,1,0,0:0:0:0:
64,56,65738,1,0,0:0:0:0:
280,208,65895,1,0,0:0:0:0:
24,264,66053,1,0,0:0:0:0:
216,88,66211,2,0,P|336:88|368:112,1,100
464,328,66527,5,0,0:0:0:0:
272,152,66685,1,0,0:0:0:0:
312,368,66843,1,0,0:0:0:0:
432,104,67001,2,0,P|336:56|272:64,1,100
72,152,67317,1,0,0:0:0:0:
352,232,67474,1,0,0:0:0:0:
80,336,67632,1,0,0:0:0:0:
256,104,67790,1,0,0:0:0:0:
432,336,67948,1,0,0:0:0:0:
256,104,68106,6,0,P|144:80|104:96,1,100
32,264,68422,1,0,0:0:0:0:
312,192,68580,1,0,0:0:0:0:
48,72,68738,1,0,0:0:0:0:
216,304,68895,1,0,0:0:0:0:
256,328,68974,1,0,0:0:0:0:
304,336,69053,1,0,0:0:0:0:
344,328,69132,1,0,0:0:0:0:
384,304,69211,1,0,0:0:0:0:
416,272,69290,1,0,0:0:0:0:
424,224,69369,1,0,0:0:0:0:
416,176,69448,1,0,0:0:0:0:
432,136,69527,6,0,P|424:88|352:64,1,100
168,216,69843,1,0,0:0:0:0:
416,224,70001,1,0,0:0:0:0:
152,96,70159,2,0,P|64:144|56:208,1,100
256,360,70474,1,0,0:0:0:0:
352,88,70632,1,0,0:0:0:0:
136,280,70790,1,0,0:0:0:0:
408,192,70948,1,0,0:0:0:0:
152,56,71106,1,0,0:0:0:0:
320,296,71264,2,0,P|448:304|480:272,1,100
400,64,71580,5,0,0:0:0:0:
200,328,71738,1,0,0:0:0:0:
40,40,71895,1,0,0:0:0:0:
360,168,72053,2,0,P|448:256|456:296,1,100
200,328,72369,1,0,0:0:0:0:
320,88,72527,1,0,0:0:0:0:
400,344,72685,1,0,0:0:0:0:
184,184,72843,2,0,P|208:80|240:64,1,100
464,88,73159,5,0,0:0:0:0:
320,344,73317,1,0,0:0:0:0:
184,88,73474,1,0,0:0:0:0:
448,208,73632,1,0,0:0:0:0:
160,200,73790,1,0,0:0:0:0:
424,320,73948,2,0,P|456:224|440:192,1,100
280,32,74264,2,0,P|200:112|216:152,1,100
192,376,74580,5,0,0:0:0:0:
400,112,74738,1,0,0:0:0:0:
64,136,74895,1,0,0:0:0:0:
400,112,75053,1,0,0:0:0:0:
192,376,75211,2,0,P|88:312|88:288,1,100
104,72,75527,1,0,0:0:0:0:
320,232,75685,1,0,0:0:0:0:
64,312,75843,1,0,0:0:0:0:
304,352,76001,2,0,P|408:296|408:272,1,100
464,112,76317,5,0,0:0:0:0:
328,280,76474,1,0,0:0:0:0:
176,56,76632,1,0,0:0:0:0:
216,344,76790,1,0,0:0:0:0:
168,32,76948,1,0,0:0:0:0:
216,368,77106,1,0,0:0:0:0:
360,192,77580,5,0,0:0:0:0:
360,192,77738,1,0,0:0:0:0:
144,296,78053,5,0,0:0:0:0:
256,88,78211,1,0,0:0:0:0:
400,296,78527,5,0,0:0:0:0:
256,40,78685,1,0,0:0:0:0:
96,328,79001,5,0,0:0:0:0:
400,296,79159,1,0,0:0:0:0:
120,208,79317,2,0,B|88:184|80:136|104:88|104:88|56:72|48:40,1,200
104,120,89580,5,0,0:0:0:0:
104,120,89738,1,0,0:0:0:0:
104,120,89895,2,0,P|176:192|224:192,1,100
320,120,90211,5,0,0:0:0:0:
320,120,90369,1,0,0:0:0:0:
320,120,90527,2,0,P|400:200|392:240,1,100
296,336,90843,5,0,0:0:0:0:
152,96,91001,1,0,0:0:0:0:
296,336,91159,1,0,0:0:0:0:
448,104,91317,1,0,0:0:0:0:
296,336,91474,1,0,0:0:0:0:
152,96,91632,1,0,0:0:0:0:
296,336,91790,5,0,0:0:0:0:
304,96,91948,1,0,0:0:0:0:
144,328,92106,1,0,0:0:0:0:
384,200,92264,1,0,0:0:0:0:
152,96,92422,2,0,P|224:48|272:56,1,100
320,296,92738,1,0,0:0:0:0:
456,56,92895,1,0,0:0:0:0:
232,216,93053,2,0,P|128:200|96:160,1,100
232,48,93369,5,0,0:0:0:0:
368,248,93527,1,0,0:0:0:0:
160,128,93685,1,0,0:0:0:0:
296,328,93843,5,0,0:0:0:0:
416,120,94001,1,0,0:0:0:0:
296,328,94159,1,0,0:0:0:0:
160,128,94317,2,0,P|224:96|264:104,1,100
456,216,94632,5,0,0:0:0:0:
456,216,94790,1,0,0:0:0:0:
457,216,94948,2,0,P|432:256|352:280,1,100
168,296,95264,5,0,0:0:0:0:
344,104,95422,1,0,0:0:0:0:
144,152,95580,2,0,P|136:64|168:24,1,100
344,104,95895,1,0,0:0:0:0:
288,328,96053,1,0,0:0:0:0:
224,80,96211,1,0,0:0:0:0:
288,328,96369,1,0,0:0:0:0:
440,144,96527,2,0,P|392:48|352:40,1,100
224,80,96843,5,0,0:0:0:0:
376,240,97001,1,0,0:0:0:0:
104,200,97159,1,0,0:0:0:0:
432,144,97317,1,0,0:0:0:0:
152,208,98580,5,0,0:0:0:0:
256,64,98738,1,0,0:0:0:0:
418,257,98895,5,0,0:0:0:0:
256,64,99053,1,0,0:0:0:0:
96,280,99211,5,0,0:0:0:0:
256,64,99369,1,0,0:0:0:0:
352,328,99527,1,0,0:0:0:0:
120,120,99685,1,0,0:0:0:0:
432,64,99843,6,0,P|464:128|432:192,1,100
352,328,100159,1,0,0:0:0:0:
232,128,100317,1,0,0:0:0:0:
448,216,100474,1,0,0:0:0:0:
232,304,100632,2,0,P|160:280|136:240,1,100
88,80,100948,5,0,0:0:0:0:
312,120,101106,1,0,0:0:0:0:
96,200,101264,1,0,0:0:0:0:
320,264,101422,1,0,0:0:0:0:
104,344,101580,2,0,P|40:296|32:240,1,100
112,64,101895,1,0,0:0:0:0:
248,336,102053,1,0,0:0:0:0:
432,176,102211,1,0,0:0:0:0:
112,240,102369,1,0,0:0:0:0:
360,72,102527,2,0,P|424:64|464:96,1,100
368,296,102843,5,0,0:0:0:0:
240,104,103001,1,0,0:0:0:0:
368,296,103159,2,0,P|288:320|264:304,1,100
88,184,103474,1,0,0:0:0:0:
320,184,103632,1,0,0:0:0:0:
144,328,103790,1,0,0:0:0:0:
320,184,103948,1,0,0:0:0:0:
144,56,104106,5,0,0:0:0:0:
320,320,104264,1,0,0:0:0:0:
472,88,104422,2,0,P|376:40|352:48,1,100
176,128,104738,5,0,0:0:0:0:
384,224,104895,1,0,0:0:0:0:
176,328,105053,2,0,P|80:264|80:216,1,100
72,96,105369,5,0,0:0:0:0:
304,312,105527,1,0,0:0:0:0:
80,264,105685,2,0,P|80:160|104:136,1,100
208,48,106001,5,0,0:0:0:0:
352,224,106159,1,0,0:0:0:0:
208,48,106317,1,0,0:0:0:0:
232,272,106474,1,0,0:0:0:0:
208,48,106632,2,0,P|96:72|80:88,1,100
40,248,106948,5,0,0:0:0:0:
248,152,107106,1,0,0:0:0:0:
40,248,107264,1,0,0:0:0:0:
336,344,107422,1,0,0:0:0:0:
40,248,107580,2,0,P|40:136|72:120,1,100
176,48,107895,1,0,0:0:0:0:
224,296,108053,1,0,0:0:0:0:
424,144,108211,2,0,P|328:80|288:96,1,100
112,152,108527,5,0,0:0:0:0:
352,232,108685,1,0,0:0:0:0:
112,304,108843,1,0,0:0:0:0:
296,136,109001,2,0,P|392:96|432:112,1,100
424,336,109317,2,0,P|320:328|280:296,1,100
152,192,109632,5,0,0:0:0:0:
296,64,109790,1,0,0:0:0:0:
336,48,109869,1,0,0:0:0:0:
384,48,109948,2,0,P|456:96|464:112,1,100
472,144,110185,1,0,0:0:0:0:
472,192,110264,2,0,P|440:240|384:264,1,100
240,336,110580,5,0,0:0:0:0:
320,176,110738,1,0,0:0:0:0:
344,136,110817,1,0,0:0:0:0:
352,96,110895,2,0,P|304:40|264:48,1,100
80,88,111211,5,0,0:0:0:0:
176,272,111369,1,0,0:0:0:0:
208,304,111448,1,0,0:0:0:0:
248,320,111527,2,0,P|360:304|376:288,1,100
384,288,111764,1,0,0:0:0:0:
416,256,111843,2,0,P|464:160|464:136,1,100
240,128,112159,2,0,P|328:56|336:56,1,100
344,184,112474,5,0,0:0:0:0:
312,216,112553,1,0,0:0:0:0:
272,232,112632,1,0,0:0:0:0:
224,240,112711,1,0,0:0:0:0:
184,232,112790,2,0,P|112:152|120:128,1,100
216,48,113106,1,0,0:0:0:0:
344,184,113264,1,0,0:0:0:0:
200,320,113422,2,0,P|96:296|80:272,1,100
48,144,113738,1,0,0:0:0:0:
220,241,113895,1,0,0:0:0:0:
264,255,113974,1,0,0:0:0:0:
305,254,114053,2,0,P|392:240|428:217,1,100
432,200,114290,1,0,0:0:0:0:
456,160,114369,2,0,P|440:80|416:64,1,100
288,56,114685,5,0,0:0:0:0:
240,288,114843,1,0,0:0:0:0:
80,128,115001,1,0,0:0:0:0:
80,128,115080,1,0,0:0:0:0:
80,128,115159,1,0,0:0:0:0:
80,128,115238,1,0,0:0:0:0:
80,128,115317,2,0,P|144:168|200:176,1,100
400,192,115632,1,0,0:0:0:0:
256,56,115790,1,0,0:0:0:0:
288,296,115948,1,0,0:0:0:0:
368,80,116106,5,0,0:0:0:0:
192,224,116264,1,0,0:0:0:0:
152,240,116343,1,0,0:0:0:0:
112,248,116422,1,0,0:0:0:0:
64,248,116501,1,0,0:0:0:0:
24,224,116580,1,0,0:0:0:0:
120,72,116738,1,0,0:0:0:0:
120,72,116895,2,0,P|224:64|256:80,1,100
424,160,117211,5,0,0:0:0:0:
240,264,117369,1,0,0:0:0:0:
217,61,117527,2,0,P|304:56|384:144,1,200
416,320,118001,5,0,0:0:0:0:
272,136,118159,1,0,0:0:0:0:
272,136,118317,2,0,P|160:136|144:120,1,100
40,40,118632,5,0,0:0:0:0:
80,248,118790,2,0,P|152:280|208:264,1,100
440,176,119106,2,0,P|368:144|304:152,1,100
104,128,119422,1,0,0:0:0:0:
104,128,120053,6,0,P|176:80|232:80,1,100
440,72,120369,1,0,0:0:0:0:
320,288,120527,1,0,0:0:0:0:
192,72,120685,2,0,P|109:115|77:147,1,100
56,352,121001,1,0,0:0:0:0:
248,208,121159,1,0,0:0:0:0:
40,104,121317,5,0,0:0:0:0:
176,312,121474,1,0,0:0:0:0:
232,48,121632,1,0,0:0:0:0:
368,256,121789,1,0,0:0:0:0:
144,104,121948,1,0,0:0:0:0:
408,152,122105,5,0,0:0:0:0:
224,320,122264,2,0,P|136:280|128:240,1,100
232,48,122580,2,0,P|328:64|352:96,1,100
136,272,122895,2,0,P|200:224|320:264,1,150.000005722046
472,328,123211,1,0,0:0:0:0:
360,80,123369,1,0,0:0:0:0:
240,320,123527,1,0,0:0:0:0:
360,80,123685,5,0,0:0:0:0:
472,328,123843,1,0,0:0:0:0:
360,80,124001,1,0,0:0:0:0:
352,352,124159,1,0,0:0:0:0:
216,120,124317,5,0,0:0:0:0:
160,368,124474,2,0,P|80:352|56:304,1,100
120,104,124790,1,0,0:0:0:0:
152,72,124869,1,0,0:0:0:0:
192,48,124948,1,0,0:0:0:0:
240,40,125027,1,0,0:0:0:0:
288,40,125106,6,0,P|368:112|368:136,1,100
448,344,125422,1,0,0:0:0:0:
232,200,125580,1,0,0:0:0:0:
472,104,125738,6,0,P|360:56|320:64,1,100
72,136,126053,1,0,0:0:0:0:
416,208,126211,1,0,0:0:0:0:
80,304,126369,1,0,0:0:0:0:
288,152,126527,1,0,0:0:0:0:
48,48,126685,1,0,0:0:0:0:
192,264,126843,6,0,P|288:304|336:288,1,100
448,104,127159,5,0,0:0:0:0:
376,352,127317,1,0,0:0:0:0:
272,112,127474,1,0,0:0:0:0:
200,360,127632,2,0,P|112:312|104:272,1,100
40,64,127948,5,0,0:0:0:0:
272,176,128106,1,0,0:0:0:0:
32,272,128264,1,0,0:0:0:0:
280,344,128422,1,0,0:0:0:0:
144,120,128580,1,0,0:0:0:0:
280,344,128738,2,0,P|392:312|416:272,1,100
480,88,129053,5,0,0:0:0:0:
256,224,129211,1,0,0:0:0:0:
472,368,129369,1,0,0:0:0:0:
368,128,129527,1,0,0:0:0:0:
280,368,129685,1,0,0:0:0:0:
280,368,129764,1,0,0:0:0:0:
280,368,129843,1,0,0:0:0:0:
128,200,130001,1,0,0:0:0:0:
112,160,130080,1,0,0:0:0:0:
112,112,130159,6,0,P|168:48|224:56,1,100
424,264,130474,2,0,P|368:192|320:184,1,100
104,296,130790,2,0,P|120:208|184:152,1,150.000005722046
384,48,131106,1,0,0:0:0:0:
424,296,131264,1,0,0:0:0:0:
272,72,131422,1,0,0:0:0:0:
312,320,131580,1,0,0:0:0:0:
152,104,131738,1,0,0:0:0:0:
192,352,131896,1,0,0:0:0:0:
40,184,132053,1,0,0:0:0:0:
288,232,132211,5,0,0:0:0:0:
80,80,132369,2,0,P|128:32|168:32,1,100
472,160,132685,2,0,P|376:104|352:112,1,100
152,144,133001,1,0,0:0:0:0:
392,224,133159,1,0,0:0:0:0:
200,376,133317,1,0,0:0:0:0:
280,144,133474,1,0,0:0:0:0:
416,352,133632,1,0,0:0:0:0:
472,112,133790,5,0,0:0:0:0:
472,112,133948,2,0,P|424:64|352:56,1,100
112,120,134264,1,0,0:0:0:0:
464,248,134422,1,0,0:0:0:0:
184,360,134580,1,0,0:0:0:0:
320,40,134738,1,0,0:0:0:0:
432,368,134895,1,0,0:0:0:0:
104,96,135053,1,0,0:0:0:0:
104,96,135132,1,0,0:0:0:0:
104,96,135211,6,0,P|192:48|224:56,1,100
424,136,135527,1,0,0:0:0:0:
248,320,135685,1,0,0:0:0:0:
424,136,135843,2,0,P|350:82|318:83,1,100
96,96,136159,5,0,0:0:0:0:
304,240,136317,1,0,0:0:0:0:
56,240,136474,1,0,0:0:0:0:
272,120,136632,1,0,0:0:0:0:
168,344,136790,1,0,0:0:0:0:
272,120,136948,1,0,0:0:0:0:
432,352,137106,5,0,0:0:0:0:
448,72,137264,1,0,0:0:0:0:
128,232,137422,1,0,0:0:0:0:
432,352,137580,1,0,0:0:0:0:
160,32,137738,1,0,0:0:0:0:
376,272,138211,5,0,0:0:0:0:
256,80,138369,1,0,0:0:0:0:
128,328,138685,5,0,0:0:0:0:
408,112,138843,1,0,0:0:0:0:
136,64,139159,5,0,0:0:0:0:
288,344,139317,1,0,0:0:0:0:
400,96,139632,5,0,0:0:0:0:
128,280,139948,5,0,0:0:0:0:
338,169,140264,6,0,P|388:126|402:73,1,100
174,169,140580,6,0,P|124:126|110:73,2,100
400,320,141053,5,0,0:0:0:0:
256,104,141211,1,0,0:0:0:0:
400,320,141369,1,0,0:0:0:0:
96,296,141685,6,0,P|144:240|208:224,1,100
432,192,142159,6,0,P|424:128|360:112,1,100
120,64,142474,5,0,0:0:0:0:
304,232,142632,1,0,0:0:0:0:
392,64,142948,5,0,0:0:0:0:
208,232,143106,1,0,0:0:0:0:
392,64,143264,1,0,0:0:0:0:
120,320,143580,5,0,0:0:0:0:
304,152,143738,1,0,0:0:0:0:
120,320,144053,5,0,0:0:0:0:
120,320,144369,5,0,0:0:0:0:
304,152,144527,1,0,0:0:0:0:
72,72,144685,1,0,0:0:0:0:
72,72,145001,5,0,0:0:0:0:
184,256,145317,6,0,P|256:264|320:240,1,100
448,144,145632,1,0,0:0:0:0:
248,48,145790,2,0,P|160:67|136:112,1,100
64,280,146106,1,0,0:0:0:0:
256,152,146264,1,0,0:0:0:0:
48,64,146422,5,0,0:0:0:0:
176,256,146580,1,0,0:0:0:0:
208,280,146659,1,0,0:0:0:0:
240,296,146738,2,0,P|304:312|352:304,1,100
376,296,146974,1,0,0:0:0:0:
408,272,147053,2,0,P|448:216|456:192,1,50
304,152,147211,2,0,L|376:64,1,100
192,80,147527,2,0,L|112:176,1,100
24,328,147843,5,0,0:0:0:0:
184,216,148001,1,0,0:0:0:0:
224,200,148080,1,0,0:0:0:0:
264,192,148159,1,0,0:0:0:0:
304,192,148238,1,0,0:0:0:0:
344,200,148317,1,0,0:0:0:0:
384,216,148395,1,0,0:0:0:0:
416,240,148474,2,0,P|456:280|464:296,2,50
432,128,148711,5,0,0:0:0:0:
408,104,148790,1,0,0:0:0:0:
376,80,148869,1,0,0:0:0:0:
336,64,148948,1,0,0:0:0:0:
296,56,149027,1,0,0:0:0:0:
256,56,149106,2,0,P|176:96|160:128,1,100
128,216,149343,5,0,0:0:0:0:
128,264,149422,1,0,0:0:0:0:
152,296,149501,1,0,0:0:0:0:
184,312,149580,1,0,0:0:0:0:
216,320,149659,1,0,0:0:0:0:
248,312,149738,2,0,P|336:256|344:224,1,100
384,96,150053,5,0,0:0:0:0:
216,48,150211,1,0,0:0:0:0:
168,40,150290,1,0,0:0:0:0:
128,48,150369,2,0,P|80:128|96:152,1,100
216,264,150685,2,0,P|120:328|96:320,1,150
160,176,151001,2,0,P|224:144|288:168,1,100
456,256,151317,1,0,0:0:0:0:
352,56,151474,1,0,0:0:0:0:
200,240,151632,6,0,P|120:240|88:200,1,100
32,48,151948,1,0,0:0:0:0:
248,128,152106,1,0,0:0:0:0:
32,208,152264,1,0,0:0:0:0:
248,296,152422,1,0,0:0:0:0:
168,112,152580,2,0,P|208:56|248:48,1,100
456,80,152895,5,0,0:0:0:0:
456,80,153053,1,0,0:0:0:0:
456,80,153211,2,0,P|408:168|368:184,1,100
216,280,153527,5,0,0:0:0:0:
336,88,153685,2,0,P|264:120|192:96,1,150.000005722046
72,208,154001,1,0,0:0:0:0:
260,40,154159,5,0,0:0:0:0:
304,264,154317,1,0,0:0:0:0:
144,104,154474,1,0,0:0:0:0:
352,192,154632,2,0,P|392:240|376:304,1,100
192,360,154948,1,0,0:0:0:0:
248,144,155106,5,0,0:0:0:0:
424,320,155264,1,0,0:0:0:0:
424,320,155343,1,0,0:0:0:0:
424,320,155422,2,0,P|464:280|472:208,1,100
472,200,155659,1,0,0:0:0:0:
456,160,155738,2,0,P|416:112|360:112,1,100
72,216,156053,2,0,P|112:144|152:120,1,100
432,312,156369,2,0,P|392:224|360:200,1,100
184,64,156685,5,0,0:0:0:0:
392,176,156843,1,0,0:0:0:0:
128,160,157001,1,0,0:0:0:0:
328,296,157159,1,0,0:0:0:0:
112,328,157317,2,0,P|32:256|32:192,1,100
152,72,157632,5,0,0:0:0:0:
152,72,157948,5,0,0:0:0:0:
192,56,158027,1,0,0:0:0:0:
232,48,158106,1,0,0:0:0:0:
464,64,158264,1,0,0:0:0:0:
320,256,158422,1,0,0:0:0:0:
464,64,158580,1,0,0:0:0:0:
256,152,158738,1,0,0:0:0:0:
456,272,158895,2,0,P|368:304|336:288,1,100
152,208,159211,5,0,0:0:0:0:
312,72,159369,1,0,0:0:0:0:
392,264,159527,1,0,0:0:0:0:
224,136,159685,1,0,0:0:0:0:
424,80,159843,2,0,P|456:200|440:224,1,100
416,352,160159,5,0,0:0:0:0:
232,216,160317,1,0,0:0:0:0:
200,192,160395,1,0,0:0:0:0:
176,160,160474,6,0,P|184:80|200:64,1,100
448,72,160790,2,0,P|376:88|328:120,1,100
80,304,161106,2,0,P|136:232|176:216,1,100
312,64,161422,2,0,P|368:128|368:184,1,100
184,352,161738,6,0,P|232:240|248:232,1,100
64,120,162053,2,0,P|145:63|188:63,1,100
448,152,162369,6,0,P|392:88|352:80,1,100
168,336,162685,2,0,P|160:224|200:184,1,150
208,176,163001,5,0,0:0:0:0:
344,296,163317,5,0,0:0:0:0:
448,80,163474,1,0,0:0:0:0:
112,112,163790,5,0,0:0:0:0:
336,176,163948,1,0,0:0:0:0:
112,112,164106,1,0,0:0:0:0:
176,320,164422,5,0,0:0:0:0:
232,96,164580,1,0,0:0:0:0:
400,240,164895,5,0,0:0:0:0:
176,192,165053,1,0,0:0:0:0:
176,192,165132,1,0,0:0:0:0:
176,192,165211,2,0,P|128:160|112:112,1,100
288,48,165527,5,0,0:0:0:0:
312,144,182895,5,0,0:0:0:0:
128,296,183053,1,0,0:0:0:0:
128,296,183132,1,0,0:0:0:0:
128,296,183211,2,0,P|96:200|112:168,1,100
208,224,183448,1,0,0:0:0:0:
208,224,183527,2,0,P|296:192|320:168,1,100
320,80,183764,1,0,0:0:0:0:
320,80,183843,2,0,P|400:112|424:160,1,100
424,304,184159,5,0,0:0:0:0:
240,144,184317,1,0,0:0:0:0:
304,336,184474,1,0,0:0:0:0:
360,104,184632,1,0,0:0:0:0:
304,336,184790,1,0,0:0:0:0:
360,104,184948,1,0,0:0:0:0:
176,248,185106,2,0,L|104:128,1,100
256,80,185422,5,0,0:0:0:0:
312,184,185580,1,0,0:0:0:0:
368,280,185738,2,0,P|264:336|224:320,1,150
144,160,186211,5,0,0:0:0:0:
144,160,186369,2,0,P|224:184|248:232,1,100
368,336,186685,5,0,0:0:0:0:
368,336,186843,1,0,0:0:0:0:
432,232,187159,5,0,0:0:0:0:
432,232,187317,1,0,0:0:0:0:
440,112,187474,5,0,0:0:0:0:
440,112,187632,2,0,P|368:72|312:80,1,100
120,120,187948,5,0,0:0:0:0:
120,120,188264,2,0,P|160:216|192:240,1,100
352,328,188580,1,0,0:0:0:0:
224,136,188738,1,0,0:0:0:0:
448,184,188895,1,0,0:0:0:0:
256,304,189053,1,0,0:0:0:0:
400,64,189211,1,0,0:0:0:0:
144,96,189369,6,0,P|104:168|112:208,1,100
368,256,189685,2,0,P|280:200|240:200,1,100
56,128,190001,5,0,0:0:0:0:
312,72,190159,1,0,0:0:0:0:
152,272,190317,1,0,0:0:0:0:
408,256,190474,1,0,0:0:0:0:
200,104,190632,1,0,0:0:0:0:
272,352,190790,6,0,P|368:352|432:312,1,125
448,128,191106,1,0,0:0:0:0:
184,240,191264,1,0,0:0:0:0:
472,264,191422,1,0,0:0:0:0:
216,128,191580,1,0,0:0:0:0:
336,352,191738,5,0,0:0:0:0:
280,80,191895,2,0,P|192:56|144:96,1,125
32,280,192211,1,0,0:0:0:0:
312,200,192369,1,0,0:0:0:0:
64,56,192527,1,0,0:0:0:0:
272,344,192685,1,0,0:0:0:0:
384,80,192843,1,0,0:0:0:0:
96,232,193001,5,0,0:0:0:0:
416,328,193159,1,0,0:0:0:0:
416,328,193238,1,0,0:0:0:0:
416,328,193317,1,0,0:0:0:0:
264,80,193474,1,0,0:0:0:0:
200,360,193632,1,0,0:0:0:0:
264,80,193790,1,0,0:0:0:0:
416,328,193948,2,0,P|272:288|256:256,1,125
80,120,194264,5,0,0:0:0:0:
304,216,194422,1,0,0:0:0:0:
104,360,194580,1,0,0:0:0:0:
208,144,194738,2,0,P|312:104|360:112,1,104.999996795654
440,320,195053,2,0,P|336:272|320:224,1,104.999996795654
136,80,195369,5,0,0:0:0:0:
208,360,195527,1,0,0:0:0:0:
400,144,195685,1,0,0:0:0:0:
136,248,195843,2,0,L|24:152,1,125
304,40,196159,1,0,0:0:0:0:
224,312,196317,1,0,0:0:0:0:
400,88,196474,1,0,0:0:0:0:
352,376,196632,1,0,0:0:0:0:
216,128,196790,1,0,0:0:0:0:
456,280,196948,6,0,P|360:368|272:352,1,125
96,272,197264,1,0,0:0:0:0:
368,184,197422,1,0,0:0:0:0:
64,88,197580,1,0,0:0:0:0:
240,336,197738,1,0,0:0:0:0:
344,136,197895,1,0,0:0:0:0:
312,96,197974,1,0,0:0:0:0:
272,64,198053,1,0,0:0:0:0:
224,48,198132,1,0,0:0:0:0:
176,48,198211,1,0,0:0:0:0:
128,56,198290,1,0,0:0:0:0:
80,80,198369,6,0,P|48:144|112:200,1,125
320,336,198685,1,0,0:0:0:0:
184,128,198843,1,0,0:0:0:0:
128,360,199001,2,0,L|240:280,1,125
464,120,199317,1,0,0:0:0:0:
184,48,199474,1,0,0:0:0:0:
296,312,199632,1,0,0:0:0:0:
376,40,199790,1,0,0:0:0:0:
168,240,199948,1,0,0:0:0:0:
456,264,200106,2,0,P|392:184|328:168,1,125
96,104,200422,1,0,0:0:0:0:
272,336,200580,1,0,0:0:0:0:
384,72,200738,1,0,0:0:0:0:
144,224,200895,2,0,L|264:328,1,125
464,192,201211,1,0,0:0:0:0:
192,96,201369,1,0,0:0:0:0:
464,192,201527,1,0,0:0:0:0:
208,320,201685,1,0,0:0:0:0:
368,80,201843,1,0,0:0:0:0:
384,368,202001,1,0,0:0:0:0:
136,176,202159,5,0,0:0:0:0:
432,280,202317,1,0,0:0:0:0:
227,309,202474,5,0,0:0:0:0:
361,26,202632,1,0,0:0:0:0:
64,112,202790,2,0,P|48:208|80:256,1,125
227,309,203106,5,0,0:0:0:0:
272,336,203185,1,0,0:0:0:0:
320,344,203264,1,0,0:0:0:0:
368,336,203343,1,0,0:0:0:0:
416,320,203422,6,0,P|456:256|448:200,1,125
240,72,203738,1,0,0:0:0:0:
472,152,203895,1,0,0:0:0:0:
240,240,204053,5,0,0:0:0:0:
472,336,204211,1,0,0:0:0:0:
328,136,204369,1,0,0:0:0:0:
240,368,204527,5,0,0:0:0:0:
440,216,204685,1,0,0:0:0:0:
136,272,204843,1,0,0:0:0:0:
440,216,205001,1,0,0:0:0:0:
160,72,205159,2,0,L|64:208,1,125
296,344,205474,5,0,0:0:0:0:
408,56,205632,1,0,0:0:0:0:
296,344,205790,1,0,0:0:0:0:
448,208,205948,6,0,P|336:144|304:152,1,125
56,280,206422,5,0,0:0:0:0:
360,224,206580,1,0,0:0:0:0:
152,112,207053,5,0,0:0:0:0:
328,320,207369,5,0,0:0:0:0:
472,40,207527,1,0,0:0:0:0:
480,320,207685,5,0,0:0:0:0:
272,88,207843,1,0,0:0:0:0:
480,320,208001,1,0,0:0:0:0:
208,256,208159,6,0,P|296:184|352:184,1,125
352,328,208474,5,0,0:0:0:0:
