osu file format v14

[General]
AudioFilename: audio.mp3
AudioLeadIn: 0
PreviewTime: 65923
Countdown: 0
SampleSet: Soft
StackLeniency: 0.4
Mode: 0
LetterboxInBreaks: 0
WidescreenStoryboard: 1

[Editor]
Bookmarks: 1233,20433,39633,58833,85408,104435,123485,142639,161454,182731
DistanceSpacing: 1.5
BeatDivisor: 4
GridSize: 8
TimelineZoom: 2.2

[Metadata]
Title:Ama no Jaku
TitleUnicode:天ノ弱
Artist:Kano
ArtistUnicode:鹿乃
Creator:Realazy
Version:PandaHero's Hard
Source:
Tags:Kyuukai yaleufeu Rizen Kalibe Irohas MugiwaraSekai Akitoshi -Laura- Corinn PandaHero Jounzan EvilElvis Heaven's Weakness A Born Coward 164 Megpoid GUMI Vocaloid Utaite Amanojaku
BeatmapID:1590794
BeatmapSetID:754383

[Difficulty]
HPDrainRate:5
CircleSize:4
OverallDifficulty:7
ApproachRate:8
SliderMultiplier:1.26
SliderTickRate:1

[Events]
//Background and Video events
0,0,"ama no jaku.jpg",0,0
//Break Periods
2,20632,29283
2,123485,132289
//Storyboard Layer 0 (Background)
//Storyboard Layer 1 (Fail)
//Storyboard Layer 2 (Pass)
//Storyboard Layer 3 (Foreground)
//Storyboard Sound Samples

[TimingPoints]
1233,300,4,2,0,35,1,0
1233,-125,4,2,0,35,0,0
10833,-100,4,2,1,45,0,0
15858,-100,4,2,1,5,0,0
15933,-100,4,2,1,45,0,0
19833,-100,4,2,1,55,0,0
20433,-100,4,2,1,65,0,0
39633,-125,4,2,1,40,0,0
44133,-125,4,2,1,65,0,0
44433,-125,4,2,1,40,0,0
48933,-125,4,2,1,65,0,0
49233,-166.666666666667,4,2,1,40,0,0
50733,-125,4,2,1,40,0,0
57033,-125,4,2,1,70,0,0
58833,-125,4,2,1,60,0,0
62433,297.029702970297,4,2,1,70,1,0
62433,-100,4,2,1,70,0,0
65551,-100,4,2,1,55,0,0
65997,-100,4,2,1,75,0,0
66558,292.682926829268,4,2,1,85,1,1
66558,-83.3333333333333,4,2,1,85,0,1
79438,297.029702970297,4,2,1,75,1,1
80626,-100,4,2,1,60,0,0
84190,-100,4,2,1,50,0,0
85408,297.029702970297,4,2,1,45,1,0
85408,-125,4,2,1,45,0,0
89863,-125,4,2,1,65,0,0
90153,297.029702970297,4,2,1,65,1,0
90153,-125,4,2,1,65,0,0
90450,-125,4,2,1,55,0,0
94608,-125,4,2,1,70,0,0
96984,-125,4,2,1,40,0,0
97281,-125,4,2,1,55,0,0
99360,-125,4,2,1,65,0,0
99683,297.029702970297,4,2,1,55,1,0
99683,-125,4,2,1,55,0,0
101465,-125,4,2,1,60,0,0
102059,-125,4,2,1,70,0,0
104435,300,4,2,1,60,1,0
104435,-125,4,2,1,60,0,0
109228,297.029702970297,4,2,1,60,1,0
109228,-125,4,2,1,60,0,0
109822,-119.047619047619,4,2,1,60,0,0
109959,297.029702970297,4,2,1,60,1,0
110119,297.029702970297,4,2,1,60,1,0
110119,-125,4,2,1,60,0,0
110416,297.029702970297,4,2,1,60,1,0
110416,-125,4,2,1,60,0,0
113980,-100,4,2,1,70,0,0
122297,-166.666666666667,4,2,1,70,0,0
123485,298.507462686567,4,2,1,45,1,0
123485,-166.666666666667,4,2,1,45,0,0
133039,300,4,2,1,55,1,0
133039,-125,4,2,1,55,0,0
141439,-100,4,2,1,70,0,0
142039,-100,4,2,1,85,0,0
142639,292.682926829268,4,2,1,100,1,1
142639,-83.3333333333333,4,2,1,100,0,1
150980,-83.3333333333333,4,2,1,90,0,1
151273,-83.3333333333333,4,2,1,80,0,1
151565,-83.3333333333333,4,2,1,70,0,1
152004,-83.3333333333333,4,2,1,100,0,1
156687,300,4,2,1,80,1,0
160287,-100,4,2,1,70,0,0
161454,297.029702970297,4,2,1,60,1,0
166206,300,4,2,1,60,1,0
171006,297.029702970297,4,2,1,60,1,0
175758,300,4,2,1,60,1,0
175758,-100,4,2,1,60,0,0
178147,297.029702970297,4,2,1,60,1,0
178147,-100,4,2,1,60,0,0
180495,292.682926829268,4,2,1,40,1,0
180495,-125,4,2,1,40,0,0
181561,292.682926829268,4,2,1,40,1,0
181561,-125,4,2,1,40,0,0
182585,-125,4,2,1,85,0,0
183024,-100,4,2,1,85,0,0
183170,-100,4,2,1,5,0,0

[Colours]
Combo1 : 17,254,176
Combo2 : 173,255,95
Combo3 : 255,88,100
Combo4 : 255,94,55

[HitObjects]
56,294,1233,5,0,1:0:0:0:
56,294,1383,1,0,0:0:0:0:
121,338,1533,2,0,L|196:340,1,50.4,0|0,0:0|0:0,0:0:0:0:
232,291,1833,2,0,L|307:292,1,50.4,0|0,0:0|0:0,0:0:0:0:
363,301,2133,1,2,0:0:0:0:
363,301,2283,2,0,P|380:241|369:178,1,100.8,0|0,0:0|0:0,0:0:0:0:
314,157,2733,2,0,P|256:170|188:152,2,100.8,2|0|2,0:0|0:0|0:0,0:0:0:0:
409,39,3633,5,0,0:0:0:0:
409,39,3783,1,0,0:0:0:0:
336,18,3933,2,0,P|301:14|264:16,1,50.4,2|0,0:0|0:0,0:0:0:0:
215,43,4233,2,0,P|158:52|80:38,1,100.8,0|2,0:0|0:0,0:0:0:0:
52,90,4683,6,0,L|71:231,1,100.8,0|0,0:0|0:0,0:0:0:0:
75,264,5133,1,2,0:0:0:0:
139,316,5283,1,0,0:0:0:0:
139,316,5433,2,0,B|217:292|198:354|298:324,1,151.2,0|0,0:0|0:0,0:0:0:0:
369,342,6033,5,0,0:0:0:0:
369,342,6183,1,0,0:0:0:0:
369,342,6333,2,0,L|367:260,1,50.4,2|0,0:0|0:0,0:0:0:0:
439,265,6633,2,0,L|436:121,1,100.8,0|2,0:0|0:0,0:0:0:0:
414,92,7083,2,0,P|363:113|300:113,1,100.8,0|0,0:0|0:0,0:0:0:0:
241,113,7533,2,0,L|241:189,1,50.4,2|0,0:0|0:0,0:0:0:0:
164,102,7833,2,0,L|162:30,1,50.4,0|0,0:0|0:0,0:0:0:0:
88,121,8133,2,0,L|88:197,1,50.4,2|0,0:0|0:0,0:0:0:0:
69,254,8433,5,2,0:0:0:0:
69,254,8583,1,0,0:0:0:0:
145,268,8733,2,0,P|186:263|225:276,1,50.4,0|0,0:0|0:0,0:0:0:0:
251,318,9033,2,0,P|292:323|331:310,1,50.4,0|0,0:0|0:0,0:0:0:0:
384,279,9333,6,0,L|429:277,2,25.2,2|0|0,0:0|0:0|0:0,0:0:0:0:
322,203,9633,2,0,L|290:203,2,25.2,2|0|0,0:0|0:0|0:0,0:0:0:0:
407,152,9933,2,0,L|432:153,2,25.2,2|0|0,0:0|0:0|0:0,0:0:0:0:
331,93,10233,6,0,B|301:98|301:98|265:92,1,50.4,2|0,0:0|0:0,0:0:0:0:
190,107,10533,2,0,B|195:137|195:137|189:173,1,50.4,2|0,0:0|0:0,0:0:0:0:
170,248,10833,5,0,1:0:0:0:
170,248,10983,1,0,1:0:0:0:
98,307,11133,2,0,P|65:291|10:291,1,63,8|0,0:0|0:0,0:0:0:0:
184,351,11433,2,0,P|237:366|342:354,1,126,0|8,0:0|0:0,0:0:0:0:
386,305,11883,1,0,0:0:0:0:
480,348,12033,5,0,1:0:0:0:
480,348,12183,1,0,1:0:0:0:
481,248,12333,2,0,L|482:163,1,63,8|0,0:0|1:0,0:0:0:0:
386,157,12633,2,0,L|385:227,1,63,0|0,1:0|1:0,0:0:0:0:
336,74,12933,2,0,L|406:71,1,63,8|0,0:0|0:0,0:0:0:0:
287,149,13233,5,0,1:0:0:0:
287,149,13383,1,0,0:0:0:0:
195,171,13533,2,0,L|194:252,1,63,8|0,0:0|0:0,0:0:0:0:
101,206,13833,1,0,1:0:0:0:
101,206,13983,2,0,P|102:145|99:65,1,126,0|0,1:0|0:0,0:0:0:0:
188,32,14433,5,0,1:0:0:0:
188,32,14583,1,0,1:0:0:0:
99,80,14733,1,8,0:0:0:0:
189,125,14883,2,0,P|223:113|245:96,2,63,8|0|0,0:0|1:0|1:0,0:0:0:0:
259,193,15333,1,8,0:0:0:0:
339,138,15483,1,8,0:0:0:0:
339,138,15633,6,0,P|347:201|331:286,1,126,0|8,1:0|0:0,0:0:0:0:
314,353,16083,1,0,0:0:0:0:
314,353,16233,2,0,P|368:345|454:363,1,126,0|8,0:0|0:0,0:0:0:0:
492,274,16683,1,0,0:0:0:0:
492,274,16833,2,0,P|489:231|492:187,1,63,0|0,1:0|1:0,0:0:0:0:
427,146,17133,2,0,P|382:145|350:136,1,63,8|0,0:0|0:0,0:0:0:0:
296,208,17433,2,0,P|235:200|158:207,1,126,0|8,1:0|0:0,0:0:0:0:
31,265,18033,6,0,P|37:196|19:116,1,126,0|8,1:0|0:0,0:0:0:0:
128,75,18483,2,0,P|122:144|140:224,1,126,0|0,1:0|1:0,0:0:0:0:
171,288,18933,1,8,0:0:0:0:
251,245,19083,1,0,0:0:0:0:
191,327,19233,2,0,P|119:322|59:341,2,126,0|8|8,1:0|0:0|1:2,0:0:0:0:
279,357,19983,6,0,L|320:358,2,31.5,0|0|0,1:2|1:2|1:2,0:0:0:0:
276,260,20283,2,0,L|235:261,2,31.5,0|0|6,1:2|1:2|1:2,0:0:0:0:
57,211,30033,6,0,P|110:208|192:218,1,126,6|10,1:2|0:0,0:0:0:0:
273,249,30483,1,0,0:0:0:0:
273,249,30633,2,0,L|282:158,1,63,2|0,1:2|1:0,0:0:0:0:
357,128,30933,1,10,0:0:0:0:
440,171,31083,2,0,P|431:232|437:317,1,126,0|0,1:0|0:0,0:0:0:0:
377,363,31533,2,0,P|350:354|293:345,1,63,10|0,0:0|0:0,0:0:0:0:
226,371,31833,2,0,P|195:364|165:355,2,63,2|0|10,1:2|1:0|0:0,0:0:0:0:
266,278,32283,1,0,0:0:0:0:
190,224,32433,5,2,1:2:0:0:
65,265,32583,1,0,1:0:0:0:
65,265,32733,2,0,L|62:350,1,63,10|0,0:0|0:0,0:0:0:0:
159,275,33033,2,0,L|161:188,1,63,2|0,1:2|1:0,0:0:0:0:
72,149,33333,1,10,0:0:0:0:
123,70,33483,6,0,P|201:96|272:84,1,126,0|0,1:0|0:0,0:0:0:0:
323,35,33933,2,0,P|354:32|401:36,1,63,10|0,0:0|0:0,0:0:0:0:
483,40,34233,1,2,1:2:0:0:
449,121,34383,1,0,1:0:0:0:
362,117,34533,2,0,P|356:150|361:202,1,63,10|0,0:0|0:0,0:0:0:0:
449,220,34833,6,0,P|460:278|450:357,1,126,2|10,1:2|0:0,0:0:0:0:
357,358,35283,1,0,0:0:0:0:
357,358,35433,2,0,P|349:316|351:278,1,63,2|0,1:2|1:0,0:0:0:0:
255,261,35733,1,10,0:0:0:0:
255,261,35883,2,0,P|231:309|165:340,1,126,0|0,1:0|0:0,0:0:0:0:
87,284,36333,2,0,P|99:247|123:209,1,63,10|0,0:0|0:0,0:0:0:0:
121,126,36633,5,2,1:2:0:0:
30,128,36783,1,8,0:0:0:0:
139,141,36933,1,10,0:0:0:0:
181,52,37083,1,0,0:1:0:0:
91,23,37233,6,0,L|16:31,1,63,6|0,1:2|1:0,0:0:0:0:
188,73,37533,2,0,L|259:74,1,63,2|0,0:0|0:0,0:0:0:0:
121,124,37833,2,0,L|120:269,1,126,10|2,0:0|0:0,0:0:0:0:
51,314,38283,5,0,0:0:0:0:
146,351,38433,1,2,1:2:0:0:
217,290,38583,2,0,L|211:246,2,31.5,0|0|8,1:0|1:0|0:0,0:0:0:0:
301,329,38883,1,8,0:0:0:0:
376,277,39033,2,0,P|427:281|460:270,1,63,8|0,0:0|1:0,0:0:0:0:
380,198,39333,2,0,P|329:194|296:205,1,63,8|2,0:3|0:0,0:0:0:0:
456,192,39633,6,0,P|472:105|446:28,1,151.2,4|0,1:2|1:0,0:0:0:0:
383,77,40233,2,0,P|342:96|271:86,1,100.8,8|0,0:0|1:0,0:0:0:0:
211,103,40683,1,0,1:0:0:0:
211,103,40833,2,0,P|205:51|183:-2,2,100.8,0|0|8,0:0|0:0|0:0,0:0:0:0:
94,211,41733,6,0,P|65:221|34:225,1,50.4,0|8,0:0|0:0,0:0:0:0:
60,298,42033,2,0,P|101:288|170:295,1,100.8,0|0,1:0|1:0,0:0:0:0:
229,319,42483,2,0,P|238:262|260:217,1,100.8,0|0,1:0|0:0,0:0:0:0:
332,219,42933,2,0,P|359:221|396:220,1,50.4,0|0,0:0|1:0,0:0:0:0:
362,147,43233,2,0,P|316:124|255:115,2,100.8,0|0|8,0:0|3:0|0:0,0:0:0:0:
463,35,44133,5,0,0:0:0:0:
503,124,44283,1,0,1:0:0:0:
438,190,44433,2,0,P|428:242|437:305,1,100.8,2|0,1:2|0:0,0:0:0:0:
400,358,44883,2,0,P|357:348|301:352,1,100.8,0|0,1:0|0:0,0:0:0:0:
224,356,45333,2,0,P|225:317|223:283,1,50.4,0|0,1:0|1:0,0:0:0:0:
221,229,45633,2,0,P|265:235|328:226,1,100.8,0|0,0:0|0:0,0:0:0:0:
136,227,46233,2,0,L|134:291,1,50.4,8|0,0:0|0:0,0:0:0:0:
74,181,46533,5,0,0:0:0:0:
67,105,46683,1,8,0:0:0:0:
122,53,46833,2,0,P|167:64|238:56,1,100.8,0|0,1:0|1:0,0:0:0:0:
291,88,47283,2,0,P|336:77|407:85,1,100.8,0|0,0:0|0:0,0:0:0:0:
449,127,47733,1,0,1:0:0:0:
441,202,47883,1,0,1:0:0:0:
366,217,48033,6,0,L|301:215,1,50.4,0|8,0:0|0:0,0:0:0:0:
240,215,48333,2,0,L|237:350,1,100.8,0|8,0:0|0:0,0:0:0:0:
39,315,48933,5,0,0:0:0:0:
51,237,49083,1,8,0:0:0:0:
129,229,49233,2,0,P|127:288|128:327,1,75.5999976928712,0|0,1:0|0:0,0:0:0:0:
256,192,49608,12,0,52833,0:0:0:0:
139,216,53733,6,0,L|206:218,1,50.4,2|0,1:2|0:0,0:0:0:0:
259,252,54033,2,0,P|312:242|373:250,1,100.8,4|0,1:2|1:0,0:0:0:0:
436,262,54483,2,0,P|443:212|432:163,1,100.8,0|0,1:0|0:0,0:0:0:0:
375,112,54933,1,0,1:0:0:0:
305,144,55083,1,0,1:0:0:0:
238,108,55233,2,0,P|238:47|209:-1,2,100.8,0|0|8,0:0|0:0|0:0,0:0:0:0:
131,215,56133,1,0,1:0:0:0:
10,154,56433,6,0,P|7:104|27:58,1,100.8,0|0,1:0|1:0,0:0:0:0:
102,47,56883,1,0,0:0:0:0:
133,114,57033,2,0,L|130:226,1,100.8,8|0,0:0|0:0,0:0:0:0:
183,269,57483,1,0,1:0:0:0:
250,340,57633,6,0,L|337:326,2,67.2,8|0|0,0:0|1:0|1:0,0:0:0:0:
165,293,58233,2,0,L|78:307,2,67.2,0|0|0,1:0|1:0|1:0,0:0:0:0:
228,214,58833,6,0,B|296:224|296:224|367:190,1,134.4,2|0,1:2|0:0,0:0:0:0:
399,180,59333,2,0,L|390:303,1,100.8,0|0,1:0|1:0,0:0:0:0:
383,326,59733,2,0,P|336:311|273:322,2,100.8,10|2|2,0:0|0:0|0:0,0:0:0:0:
478,235,60633,6,0,L|488:80,1,134.4,2|0,1:2|0:0,0:0:0:0:
453,67,61133,2,0,B|411:101|411:101|346:101,1,100.8,0|0,1:0|1:0,0:0:0:0:
322,78,61533,2,0,P|271:86|205:68,2,100.8,10|8|4,0:0|0:3|0:3,0:0:0:0:
322,78,62433,6,0,L|314:229,1,126,4|8,1:2|0:0,0:0:0:0:
207,184,62878,2,0,L|216:328,1,126,0|0,0:0|0:0,0:0:0:0:
297,362,63324,1,0,1:0:0:0:
110,313,63621,1,8,0:0:0:0:
293,227,63918,1,0,0:0:0:0:
142,353,64215,6,0,L|135:210,1,126,0|8,1:0|0:0,0:0:0:0:
0,317,64809,2,0,L|7:174,1,126,8|4,0:3|0:3,0:0:0:0:
63,51,65403,2,0,P|109:58|146:60,1,63,8|0,0:0|1:0,0:0:0:0:
225,80,65700,2,0,L|266:70,2,31.5,0|0|0,1:0|1:0|1:0,0:0:0:0:
150,23,65997,6,0,L|151:175,1,126,8|8,0:0|0:0,0:0:0:0:
276,247,66558,6,0,P|307:213|416:202,1,151.199995385742,6|10,1:2|0:0,0:0:0:0:
494,232,66997,1,0,1:0:0:0:
494,232,67143,2,0,L|488:319,1,75.5999976928712,0|0,0:0|0:0,0:0:0:0:
398,273,67436,2,0,L|410:164,1,75.5999976928712,10|0,0:0|0:0,0:0:0:0:
342,129,67728,6,0,P|311:163|202:174,1,151.199995385742,2|10,1:2|0:0,0:0:0:0:
146,109,68167,1,0,1:0:0:0:
47,126,68314,2,0,L|54:218,1,75.5999976928712,2|0,1:2|0:0,0:0:0:0:
142,230,68606,2,0,L|138:317,1,75.5999976928712,10|0,0:0|0:0,0:0:0:0:
223,355,68899,6,0,P|275:290|351:274,1,151.199995385742,2|10,1:2|0:0,0:0:0:0:
418,215,69338,2,0,L|413:366,1,151.199995385742,0|0,1:0|1:0,0:0:0:0:
509,286,69777,2,0,L|508:196,1,75.5999976928712,10|0,0:0|0:0,0:0:0:0:
441,101,70070,2,0,P|368:141|283:124,1,151.199995385742,2|10,1:2|0:0,0:0:0:0:
109,60,70655,5,2,1:2:0:0:
154,144,70801,1,0,1:0:0:0:
80,206,70948,1,10,0:0:0:0:
30,126,71094,1,8,0:0:0:0:
154,162,71240,6,0,L|241:166,1,75.5999976928712,6|0,1:2|0:0,0:0:0:0:
281,242,71533,2,0,L|442:232,1,151.199995385742,10|2,0:0|0:0,0:0:0:0:
490,309,71972,1,0,1:0:0:0:
413,364,72118,2,0,L|326:360,1,75.5999976928712,10|0,0:0|1:0,0:0:0:0:
238,365,72411,6,0,P|248:298|226:196,2,151.199995385742,2|10|2,0:0|0:0|0:0,0:0:0:0:
145,378,73143,1,0,1:0:0:0:
58,324,73289,2,0,L|61:222,1,75.5999976928712,10|0,0:0|0:0,0:0:0:0:
148,200,73582,2,0,L|147:293,1,75.5999976928712,2|0,1:2|1:0,0:0:0:0:
234,216,73875,2,0,L|237:114,1,75.5999976928712,10|0,0:0|0:0,0:0:0:0:
229,43,74167,2,0,P|153:88|69:69,1,151.199995385742,2|10,1:2|0:0,0:0:0:0:
5,63,74606,1,0,0:0:0:0:
54,173,74753,6,0,P|61:207|57:263,1,75.5999976928712,2|0,1:2|1:0,0:0:0:0:
137,304,75045,2,0,P|168:288|223:277,1,75.5999976928712,10|0,0:0|0:0,0:0:0:0:
278,353,75338,2,0,P|314:344|348:327,1,75.5999976928712,2|0,1:2|1:0,0:0:0:0:
433,273,75631,1,8,0:0:0:0:
431,368,75777,1,8,0:0:0:0:
454,248,75923,6,0,P|359:246|272:145,2,226.799993078614,6|0|10,1:2|1:0|0:0,0:0:0:0:
498,102,77094,2,0,P|434:58|354:47,1,151.199995385742,2|10,0:0|0:0,0:0:0:0:
195,155,77679,2,0,P|147:151|95:134,1,75.5999976928712,2|0,0:0|0:0,0:0:0:0:
35,218,77972,2,0,P|83:222|135:239,1,75.5999976928712,10|0,0:0|0:0,0:0:0:0:
214,236,78265,6,0,P|200:290|257:374,1,151.199995385742,2|10,1:2|0:0,0:0:0:0:
347,355,78704,2,0,P|360:319|359:272,1,75.5999976928712,0|2,0:0|1:2,0:0:0:0:
320,195,78997,1,0,1:0:0:0:
416,217,79143,2,0,P|493:217|502:211,1,75.5999976928712,10|8,0:0|0:0,0:0:0:0:
485,120,79438,6,0,P|418:108|367:109,1,94.5,0|0,0:0|1:0,0:0:0:0:
371,83,79735,2,0,L|285:82,1,63,8|8,0:0|0:0,0:0:0:0:
203,60,80032,2,0,P|220:116|213:167,1,94.5,0|0,0:0|1:0,0:0:0:0:
201,178,80329,2,0,L|120:183,1,63,8|8,0:0|0:0,0:0:0:0:
52,155,80626,6,0,L|119:153,1,63,2|0,1:2|1:0,0:0:0:0:
199,330,81071,2,0,L|266:328,1,63,0|10,1:0|0:0,0:0:0:0:
75,183,81517,6,0,L|142:181,1,63,2|0,1:2|1:0,0:0:0:0:
222,355,81962,2,0,L|289:353,1,63,0|2,1:0|1:2,0:0:0:0:
99,214,82408,6,0,L|166:212,1,63,10|0,0:0|1:0,0:0:0:0:
360,353,82853,5,0,0:0:0:0:
436,296,83002,2,0,P|437:260|432:209,1,63,2|0,1:2|1:0,0:0:0:0:
281,123,83447,1,0,1:0:0:0:
281,123,83596,2,0,L|370:122,1,63,10|0,0:0|0:0,0:0:0:0:
387,39,83893,2,0,L|476:38,1,63,10|0,0:0|0:0,0:0:0:0:
256,192,84190,12,8,85081,0:3:0:0:
83,331,85408,6,0,P|123:310|186:293,1,100.8,4|0,1:2|1:0,0:0:0:0:
246,320,85853,1,0,1:0:0:0:
380,251,86150,1,0,0:0:0:0:
380,251,86299,2,0,L|382:184,1,50.4,0|0,1:0|1:0,0:0:0:0:
324,150,86596,2,0,P|274:158|213:149,2,100.8,0|0|8,0:0|0:0|0:0,0:0:0:0:
228,33,87487,2,0,P|181:33|155:38,1,50.4,0|8,0:0|0:0,0:0:0:0:
102,40,87784,6,0,P|109:91|97:155,1,100.8,0|0,1:0|1:0,0:0:0:0:
41,184,88229,1,0,1:0:0:0:
39,335,88526,1,0,0:0:0:0:
39,335,88675,2,0,L|111:335,1,50.4,0|0,1:0|1:0,0:0:0:0:
163,352,88972,1,0,0:0:0:0:
217,299,89120,1,8,0:0:0:0:
176,234,89269,1,0,0:0:0:0:
285,337,89566,1,8,0:0:0:0:
311,188,89863,6,0,P|280:189|250:188,1,50.4,0|0,0:0|1:0,0:0:0:0:
205,141,90153,2,0,P|170:145|90:140,1,100.8,0|0,1:0|0:0,0:0:0:0:
37,108,90598,2,0,P|51:171|39:225,1,100.8,0|0,1:0|0:0,0:0:0:0:
30,280,91044,2,0,P|54:279|88:280,1,50.4,0|0,1:0|1:0,0:0:0:0:
136,330,91341,2,0,P|181:337|250:328,2,100.8,0|0|8,0:0|0:0|0:0,0:0:0:0:
140,178,92232,5,0,0:0:0:0:
199,131,92380,1,8,0:0:0:0:
266,165,92529,2,0,P|339:171|385:165,1,100.8,0|0,1:0|1:0,0:0:0:0:
435,197,92974,2,0,P|439:153|473:86,1,100.8,0|0,1:0|0:0,0:0:0:0:
329,26,93568,6,0,P|256:20|210:26,1,100.8,0|8,1:0|0:0,0:0:0:0:
171,71,94014,1,0,0:0:0:0:
309,132,94311,1,8,0:0:0:0:
164,175,94608,6,0,L|96:174,1,50.4,0|0,0:0|0:0,0:0:0:0:
41,197,94905,2,0,L|43:314,1,100.8,0|8,1:0|0:0,0:0:0:0:
99,348,95351,2,0,B|153:337|153:365|219:351,1,100.8,0|0,1:0|1:0,0:0:0:0:
258,308,95796,5,8,0:0:0:0:
306,366,95945,1,8,0:0:0:0:
380,354,96093,2,0,L|389:239,1,100.8,2|2,1:2|1:2,0:0:0:0:
387,253,97281,5,0,1:0:0:0:
354,105,97578,1,0,1:0:0:0:
282,129,97727,2,0,P|271:186|241:236,1,100.8,0|0,1:0|0:0,0:0:0:0:
175,220,98172,1,0,1:0:0:0:
148,148,98321,1,0,1:0:0:0:
202,96,98469,1,0,0:0:0:0:
68,166,98766,2,0,P|79:223|109:273,1,100.8,8|8,0:0|0:0,0:0:0:0:
217,354,99360,5,0,0:0:0:0:
283,316,99509,1,8,0:0:0:0:
348,355,99683,1,4,1:2:0:0:
288,216,99980,1,0,1:0:0:0:
213,229,100128,2,0,P|177:202|163:146,1,100.8,0|0,1:0|0:0,0:0:0:0:
183,77,100574,2,0,L|243:74,1,50.4,0|0,1:0|1:0,0:0:0:0:
301,108,100871,2,0,L|415:96,2,100.8,0|0|8,0:0|0:0|0:0,0:0:0:0:
228,240,101762,5,8,0:0:0:0:
228,240,101910,1,8,0:0:0:0:
185,302,102059,2,0,P|117:289|70:304,1,100.8,0|2,1:0|0:0,0:0:0:0:
18,326,102504,2,0,P|9:266|18:222,1,100.8,0|0,1:0|1:0,0:0:0:0:
61,165,102950,2,0,P|93:169|132:169,1,50.4,0|8,1:0|0:0,0:0:0:0:
195,135,103247,5,0,1:0:0:0:
198,44,103395,2,0,L|174:5,2,25.2,0|0|8,1:0|1:0|0:0,0:0:0:0:
288,50,103692,1,8,0:0:0:0:
288,50,103841,2,0,L|285:158,1,100.8,0|0,1:0|1:0,0:0:0:0:
310,330,104435,6,0,B|374:314|374:314|471:348,1,151.2,4|8,1:2|0:0,0:0:0:0:
497,279,105035,2,0,L|501:191,1,75.6,0|0,0:0|1:0,0:0:0:0:
502,165,105335,2,0,B|438:181|438:181|341:147,1,151.2,12|8,0:0|0:0,0:0:0:0:
289,119,105935,2,0,L|221:123,1,50.4,0|0,0:0|1:0,0:0:0:0:
206,190,106235,2,0,L|138:186,1,50.4,8|0,0:0|1:0,0:0:0:0:
105,131,106535,2,0,L|37:135,1,50.4,0|0,0:0|0:0,0:0:0:0:
16,199,106835,6,0,P|3:248|17:310,1,100.8,0|0,1:2|0:0,0:0:0:0:
63,350,107285,2,0,P|126:340|205:367,1,126,8|0,0:0|1:0,0:0:0:0:
220,368,107735,2,0,L|228:199,1,151.2,8|8,0:0|0:0,0:0:0:0:
236,64,108485,1,0,1:0:0:0:
236,64,108635,2,0,L|165:64,1,50.4,8|0,0:0|1:0,0:0:0:0:
132,118,108935,1,0,0:0:0:0:
279,138,109228,5,0,1:2:0:0:
347,168,109376,2,0,P|361:227|350:275,1,100.8,0|0,1:0|1:0,0:0:0:0:
372,339,109822,2,0,P|410:332|460:345,1,75.6,0|0,0:0|0:0,0:0:0:0:
479,357,110119,2,0,L|469:203,1,151.2,12|8,0:0|0:0,0:0:0:0:
442,135,110713,2,0,P|390:151|328:143,2,100.8,0|8|0,0:0|0:0|0:0,0:0:0:0:
328,35,111604,5,0,1:2:0:0:
328,35,111752,1,0,1:0:0:0:
252,46,111901,2,0,L|186:48,1,50.4,0|8,0:0|0:0,0:0:0:0:
131,77,112198,2,0,L|132:145,1,50.4,8|0,0:0|1:0,0:0:0:0:
183,182,112495,2,0,L|249:184,1,50.4,0|0,0:0|1:0,0:0:0:0:
292,230,112792,5,8,0:0:0:0:
293,305,112940,1,0,1:0:0:0:
232,350,113089,2,0,L|166:348,1,50.4,0|0,0:0|1:0,0:0:0:0:
106,357,113386,2,0,L|102:234,1,100.8,4|8,0:0|0:0,0:0:0:0:
38,216,113831,1,8,0:0:0:0:
109,153,113980,6,0,L|190:154,1,63,4|0,1:2|1:0,0:0:0:0:
229,229,114277,2,0,L|359:224,1,126,10|2,0:0|1:2,0:0:0:0:
415,151,114723,1,0,1:0:0:0:
483,215,114871,2,0,L|449:278,1,63,10|0,0:0|0:0,0:0:0:0:
415,151,115168,2,0,L|444:95,1,63,2|0,1:2|1:0,0:0:0:0:
374,31,115465,2,0,P|323:47|233:30,1,126,10|2,0:0|0:0,0:0:0:0:
168,83,115911,1,0,1:0:0:0:
168,83,116059,2,0,P|127:81|79:84,1,63,10|0,0:0|0:0,0:0:0:0:
29,139,116356,5,2,1:2:0:0:
29,139,116505,1,0,1:0:0:0:
73,221,116653,2,0,P|91:287|73:355,1,126,10|0,0:0|0:0,0:0:0:0:
173,352,117099,1,0,1:0:0:0:
173,352,117247,2,0,L|174:275,1,63,10|0,0:0|0:0,0:0:0:0:
181,194,117544,2,0,L|260:190,1,63,2|0,1:2|1:0,0:0:0:0:
300,266,117841,2,0,P|349:247|435:268,1,126,10|2,0:0|1:2,0:0:0:0:
503,303,118287,5,8,0:0:0:0:
509,209,118435,1,10,0:0:0:0:
426,162,118584,1,8,0:0:0:0:
419,258,118732,1,2,0:0:0:0:
422,69,119029,5,2,0:0:0:0:
422,69,119178,2,0,P|343:88|283:62,1,126,0|0,1:0|1:0,0:0:0:0:
213,42,119624,1,2,0:0:0:0:
237,132,119772,2,0,P|248:196|208:261,1,126,8|0,0:0|1:0,0:0:0:0:
126,248,120218,2,0,P|96:242|57:248,1,63,2|0,0:0|1:0,0:0:0:0:
31,338,120515,2,0,P|89:350|171:330,1,126,10|2,0:0|1:2,0:0:0:0:
351,351,121109,5,0,1:0:0:0:
427,295,121257,2,0,L|462:296,2,31.5,8|8|8,0:0|0:0|0:0,0:0:0:0:
338,261,121554,2,0,P|334:186|345:121,1,126,8|0,0:0|1:0,0:0:0:0:
435,141,122000,2,0,P|436:102|423:35,1,94.5,0|0,1:0|1:0,0:0:0:0:
382,30,122297,6,0,L|219:31,1,151.199995385742,8|0,0:0|0:0,0:0:0:0:
194,67,133039,6,0,L|261:73,1,50.4,0|0,1:0|0:0,0:0:0:0:
310,108,133339,2,0,L|419:100,2,100.8,8|0|8,0:0|0:0|0:0,0:0:0:0:
192,214,134239,6,0,L|125:202,1,50.4,0|0,1:0|1:0,0:0:0:0:
69,225,134539,1,8,0:0:0:0:
180,327,134839,2,0,L|247:315,1,50.4,0|0,1:0|1:0,0:0:0:0:
303,338,135139,1,8,0:0:0:0:
453,351,135439,6,0,L|455:291,1,50.4,0|0,1:0|0:0,0:0:0:0:
499,238,135739,2,0,L|493:131,2,100.8,8|0|8,0:0|0:0|0:0,0:0:0:0:
348,225,136639,6,0,L|349:159,1,50.4,0|0,1:0|0:0,0:0:0:0:
351,98,136939,1,8,0:0:0:0:
210,154,137239,2,0,L|209:220,1,50.4,2|0,0:0|0:0,0:0:0:0:
203,280,137539,1,8,0:0:0:0:
145,328,137689,1,0,1:0:0:0:
74,299,137839,6,0,L|72:239,1,50.4,0|0,1:0|1:0,0:0:0:0:
28,186,138139,2,0,L|34:79,2,100.8,8|0|8,0:0|1:0|0:0,0:0:0:0:
178,203,139039,6,0,L|246:201,1,50.4,0|0,0:0|1:0,0:0:0:0:
300,224,139339,1,8,0:0:0:0:
295,72,139639,2,0,L|182:78,1,100.8,0|8,1:0|0:0,0:0:0:0:
125,51,140089,1,0,1:0:0:0:
78,110,140239,1,8,0:0:0:0:
78,110,141439,6,0,L|39:111,2,31.5,0|0|0,1:0|1:0|1:0,0:0:0:0:
154,165,141739,2,0,L|193:166,2,31.5,0|0|0,1:0|1:0|1:0,0:0:0:0:
43,222,142039,6,0,P|39:252|36:298,1,63,8|8,0:0|0:0,0:0:0:0:
109,345,142339,2,0,P|150:333|191:328,1,63,8|8,0:0|0:0,0:0:0:0:
286,340,142639,6,0,B|366:310|370:371|452:339,1,151.199995385742,6|10,1:2|0:0,0:0:0:0:
488,262,143078,1,0,1:0:0:0:
488,262,143224,2,0,P|487:220|479:169,1,75.5999976928712,0|0,0:0|1:0,0:0:0:0:
393,145,143517,2,0,P|388:182|387:220,1,75.5999976928712,10|0,0:0|1:0,0:0:0:0:
294,251,143809,2,0,P|241:207|144:198,1,151.199995385742,2|10,0:0|0:0,0:0:0:0:
63,209,144248,1,0,1:0:0:0:
54,110,144395,6,0,P|95:117|134:113,1,75.5999976928712,2|0,0:0|0:0,0:0:0:0:
168,24,144687,2,0,P|205:21|242:28,1,75.5999976928712,10|0,0:0|0:0,0:0:0:0:
314,95,144980,6,0,P|307:149|306:248,1,151.199995385742,2|10,1:2|0:0,0:0:0:0:
429,281,145419,2,0,P|429:205|420:130,1,151.199995385742,0|0,1:0|1:0,0:0:0:0:
297,95,145858,2,0,L|200:102,1,75.5999976928712,10|0,0:0|0:0,0:0:0:0:
150,199,146151,2,0,P|74:185|-2:197,1,151.199995385742,2|10,1:2|0:0,0:0:0:0:
126,384,146736,5,2,1:2:0:0:
124,285,146882,1,0,1:0:0:0:
217,253,147029,1,10,0:0:0:0:
221,350,147175,1,0,0:0:0:0:
221,350,147321,6,0,L|306:348,1,75.5999976928712,6|0,1:2|0:0,0:0:0:0:
394,358,147614,2,0,P|389:280|398:193,1,151.199995385742,10|2,0:0|0:0,0:0:0:0:
446,17,148199,6,0,L|341:25,1,75.5999976928712,10|0,0:0|1:0,0:0:0:0:
285,72,148492,2,0,L|115:58,2,151.199995385742,2|10|2,0:0|0:0|0:0,0:0:0:0:
332,262,149370,6,0,L|331:353,1,75.5999976928712,10|0,0:0|0:0,0:0:0:0:
236,364,149663,2,0,L|235:271,1,75.5999976928712,2|0,1:2|1:0,0:0:0:0:
152,234,149956,2,0,L|150:327,1,75.5999976928712,10|0,0:0|0:0,0:0:0:0:
66,360,150248,6,0,L|17:356,2,37.7999988464356,0|0|0,1:0|1:0|1:0,0:0:0:0:
28,268,150541,2,0,L|87:271,2,37.7999988464356,8|8|8,0:0|0:0|0:0,0:0:0:0:
0,149,150834,6,0,P|130:175|181:103,1,226.799993078614,8|0,0:0|1:0,0:0:0:0:
167,14,151419,2,0,L|77:24,1,75.5999976928712,4|0,1:3|1:0,0:0:0:0:
179,111,151712,2,0,L|269:101,1,75.5999976928712,4|4,1:3|1:3,0:0:0:0:
374,131,152004,6,0,P|403:215|396:283,1,151.199995385742,6|10,1:2|0:0,0:0:0:0:
346,360,152443,2,0,B|269:323|267:384|179:348,1,151.199995385742,0|0,1:0|1:0,0:0:0:0:
130,283,152882,2,0,P|171:274|213:274,1,75.5999976928712,10|0,0:0|1:0,0:0:0:0:
195,174,153175,2,0,P|122:187|51:146,1,151.199995385742,2|10,0:0|0:0,0:0:0:0:
25,58,153614,1,0,1:0:0:0:
56,152,153760,2,0,L|52:236,1,75.5999976928712,2|0,0:0|0:0,0:0:0:0:
130,283,154053,2,0,L|133:195,1,75.5999976928712,10|0,0:0|0:0,0:0:0:0:
236,138,154346,6,0,P|302:169|403:144,1,151.199995385742,2|10,1:2|0:0,0:0:0:0:
436,238,154785,2,0,P|470:189|460:92,1,151.199995385742,0|0,0:0|1:0,0:0:0:0:
375,57,155224,2,0,P|368:93|375:135,1,75.5999976928712,10|8,0:0|0:0,0:0:0:0:
325,217,155517,6,0,L|158:204,1,151.199995385742,8|8,0:0|0:0,0:0:0:0:
40,349,156102,2,0,L|207:336,1,151.199995385742,8|4,0:3|0:3,0:0:0:0:
348,363,156687,6,0,L|345:277,1,63,6|0,1:2|1:0,0:0:0:0:
183,202,157137,2,0,L|186:116,1,63,0|10,1:0|0:0,0:0:0:0:
381,326,157587,6,0,L|378:240,1,63,2|0,1:2|1:0,0:0:0:0:
216,165,158037,2,0,L|219:79,1,63,0|2,1:0|1:2,0:0:0:0:
78,230,158487,6,0,L|77:363,1,126,10|2,0:0|0:0,0:0:0:0:
266,358,159087,6,0,L|269:272,1,63,6|0,1:2|1:0,0:0:0:0:
431,197,159537,2,0,L|428:111,1,63,0|10,1:0|0:0,0:0:0:0:
261,44,159987,1,10,0:0:0:0:
261,44,160137,6,0,B|195:25|215:76|120:53,1,126,0|0,0:0|1:0,0:0:0:0:
108,47,160512,1,0,1:0:0:0:
77,53,160587,2,0,P|72:94|73:129,1,63,8|8,0:0|0:0,0:0:0:0:
148,170,160887,2,0,P|157:232|134:308,1,126,8|8,0:0|0:3,0:0:0:0:
311,312,161454,6,0,P|336:304|392:303,1,63,4|0,1:2|1:0,0:0:0:0:
427,377,161751,2,0,P|458:374|488:365,1,63,2|0,0:0|1:0,0:0:0:0:
497,240,162048,2,0,P|434:238|372:207,1,126,10|2,0:0|1:2,0:0:0:0:
284,226,162493,6,0,P|252:223|199:232,2,63,0|2|8,1:0|0:0|0:0,0:0:0:0:
315,136,162939,2,0,P|304:101|281:59,1,63,2|0,0:0|1:0,0:0:0:0:
205,40,163236,2,0,P|177:95|161:158,1,126,10|2,0:0|0:0,0:0:0:0:
78,201,163681,1,0,0:0:0:0:
78,201,163830,6,0,P|67:164|65:114,1,63,2|0,1:2|1:0,0:0:0:0:
46,46,164127,2,0,P|86:51|138:46,1,63,2|0,0:0|1:0,0:0:0:0:
205,40,164424,2,0,P|272:28|355:40,1,126,10|2,0:0|1:2,0:0:0:0:
418,62,164869,5,0,1:0:0:0:
436,155,165018,1,2,0:0:0:0:
364,216,165166,1,8,0:0:0:0:
275,182,165315,2,0,L|272:292,1,94.5,2|0,0:0|1:0,0:0:0:0:
273,308,165612,6,0,B|307:333|307:333|382:335,2,94.5,8|8|8,0:0|0:0|0:0,0:0:0:0:
184,337,166206,6,0,P|147:333|100:339,1,63,6|0,1:2|0:0,0:0:0:0:
26,340,166506,2,0,P|29:298|20:252,1,63,2|0,0:0|1:0,0:0:0:0:
106,226,166806,2,0,P|97:158|109:85,1,126,10|2,0:0|1:2,0:0:0:0:
125,8,167256,6,0,P|184:38|261:36,1,126,0|8,1:0|0:0,0:0:0:0:
335,60,167706,1,2,0:0:0:0:
341,154,167856,1,0,1:0:0:0:
248,171,168006,2,0,P|210:162|178:162,1,63,10|0,0:0|1:0,0:0:0:0:
156,250,168306,2,0,P|119:251|86:260,1,63,2|0,0:0|0:0,0:0:0:0:
85,351,168606,5,2,1:2:0:0:
85,351,168756,2,0,P|152:348|227:321,1,126,0|0,1:0|1:0,0:0:0:0:
300,348,169206,2,0,P|329:353|383:346,2,63,10|0|2,0:0|0:0|1:2,0:0:0:0:
283,254,169656,1,0,1:0:0:0:
283,254,169731,1,0,1:0:0:0:
283,254,169806,6,0,B|296:218|296:218|336:175,2,84,10|0|0,0:0|1:0|1:0,0:0:0:0:
215,147,170406,2,0,B|202:111|202:111|162:68,2,84,4|8|4,0:3|0:3|0:3,0:0:0:0:
281,37,171006,5,6,1:2:0:0:
281,37,171154,1,0,1:0:0:0:
356,93,171303,2,0,P|384:87|423:87,1,63,2|0,0:0|1:0,0:0:0:0:
489,149,171600,2,0,L|470:295,1,126,10|2,0:0|1:2,0:0:0:0:
380,294,172045,6,0,L|375:217,2,63,0|2|8,1:0|0:0|0:0,0:0:0:0:
322,369,172491,2,0,L|251:355,1,63,2|0,0:0|1:0,0:0:0:0:
201,282,172788,2,0,L|61:307,1,126,10|2,0:0|0:0,0:0:0:0:
78,115,173382,5,2,1:2:0:0:
78,115,173530,1,0,1:0:0:0:
161,70,173679,2,0,L|243:57,1,63,2|0,0:0|0:0,0:0:0:0:
292,125,173976,2,0,L|418:124,1,126,10|2,0:0|1:2,0:0:0:0:
493,67,174421,5,0,1:0:0:0:
405,31,174570,1,2,0:0:0:0:
417,124,174718,1,8,0:0:0:0:
417,124,174867,2,0,L|420:202,1,63,2|0,0:0|1:0,0:0:0:0:
330,219,175164,2,0,L|341:306,1,63,10|0,0:0|1:0,0:0:0:0:
401,351,175461,2,0,L|486:347,1,63,2|0,0:0|0:0,0:0:0:0:
342,287,175758,5,6,1:2:0:0:
342,287,175908,1,0,1:0:0:0:
271,350,176058,2,0,L|192:350,1,63,2|0,0:0|1:0,0:0:0:0:
141,282,176358,2,0,P|77:304|0:289,1,126,10|2,0:0|1:2,0:0:0:0:
7,203,176808,6,0,P|65:183|151:198,1,126,0|8,1:0|0:0,0:0:0:0:
214,150,177258,2,0,P|209:118|208:87,2,63,2|0|10,0:0|1:0|0:0,0:0:0:0:
292,203,177708,1,0,0:0:0:0:
292,203,177858,2,0,P|319:163|328:131,1,63,2|0,0:0|1:0,0:0:0:0:
326,54,178147,5,2,1:2:0:0:
326,54,178295,1,0,1:0:0:0:
406,102,178444,2,0,P|437:106|486:98,1,63,2|0,0:0|1:0,0:0:0:0:
500,192,178741,2,0,P|480:241|471:341,1,126,10|2,0:0|1:2,0:0:0:0:
383,353,179186,6,0,B|312:333|323:380|240:359,1,126,8|8,0:0|0:0,0:0:0:0:
230,353,179557,1,8,0:0:0:0:
207,331,179632,2,0,L|209:239,1,63,8|8,0:0|0:0,0:0:0:0:
124,224,179929,2,0,L|123:307,1,63,8|8,0:0|0:0,0:0:0:0:
34,321,180226,2,0,L|36:230,1,63,8|8,0:0|0:0,0:0:0:0:
38,147,180495,6,0,L|99:150,1,50.4,0|0,0:0|0:0,0:0:0:0:
150,106,180787,2,0,L|211:109,1,50.4,2|0,0:0|0:0,0:0:0:0:
259,156,181080,2,0,L|372:157,1,100.8,0|2,0:0|0:0,0:0:0:0:
437,177,181561,6,0,P|433:126|443:77,1,100.8,0|0,0:0|0:0,0:0:0:0:
383,30,182000,2,0,L|321:29,1,50.4,2|0,0:0|0:0,0:0:0:0:
267,71,182292,2,0,L|206:69,1,50.4,0|2,0:0|0:0,0:0:0:0:
123,34,182585,5,8,0:0:0:0:
142,129,182731,1,0,0:0:0:0:
