osu file format v14

[General]
AudioFilename: audio.mp3
AudioLeadIn: 0
PreviewTime: 65923
Countdown: 0
SampleSet: Soft
StackLeniency: 0.5
Mode: 0
LetterboxInBreaks: 0
WidescreenStoryboard: 1

[Editor]
Bookmarks: 123485,123783,124082,124380,124679,124977,125276,125574,125873,126171,126470,126768,127067,127365,127664,127962,128261,128559,128858,129156,129455,129753,130052,130350,130649,130947,131246,131544,131843,132141,132440,132738,133037
DistanceSpacing: 2.3
BeatDivisor: 4
GridSize: 32
TimelineZoom: 2.4

[Metadata]
Title:Ama no Jaku
TitleUnicode:天ノ弱
Artist:Kano
ArtistUnicode:鹿乃
Creator:Realazy
Version:Akitoshi's Insane
Source:
Tags:Kyuukai yaleufeu Rizen Kalibe Irohas MugiwaraSekai Akitoshi -Laura- Corinn PandaHero Jounzan EvilElvis Heaven's Weakness A Born Coward 164 Megpoid GUMI Vocaloid Utaite Amanojaku
BeatmapID:1596944
BeatmapSetID:754383

[Difficulty]
HPDrainRate:6
CircleSize:3.8
OverallDifficulty:8
ApproachRate:9
SliderMultiplier:1.55
SliderTickRate:1

[Events]
//Background and Video events
0,0,"ama no jaku.jpg",0,0
//Break Periods
//Storyboard Layer 0 (Background)
//Storyboard Layer 1 (Fail)
//Storyboard Layer 2 (Pass)
//Storyboard Layer 3 (Foreground)
//Storyboard Sound Samples

[TimingPoints]
1233,300,4,2,0,35,1,0
1233,-200,4,2,0,35,0,0
10833,-133.333333333333,4,2,1,45,0,0
15858,-133.333333333333,4,2,1,5,0,0
15933,-133.333333333333,4,2,1,45,0,0
19833,-133.333333333333,4,2,1,55,0,0
20433,-100,4,2,1,65,0,0
39633,-133.333333333333,4,2,1,40,0,0
44133,-100,4,2,1,65,0,0
44433,-133.333333333333,4,2,1,40,0,0
48933,-111.111111111111,4,2,1,65,0,0
49233,-133.333333333333,4,2,1,40,0,0
57033,-100,4,2,1,70,0,0
57633,-100,4,2,1,70,0,0
58833,-117.647058823529,4,2,1,60,0,0
62433,297.029702970297,4,2,1,70,1,0
65551,-100,4,2,1,55,0,0
65997,-100,4,2,1,75,0,0
66558,292.682926829268,4,2,1,85,1,1
66558,-90.9090909090909,4,2,1,85,0,1
79438,297.029702970297,4,2,1,75,1,1
79438,-90.9090909090909,4,2,1,75,0,1
80626,-117.647058823529,4,2,1,60,0,0
84190,-117.647058823529,4,2,1,50,0,0
85408,297.029702970297,4,2,1,45,1,0
85408,-117.647058823529,4,2,1,45,0,0
89863,-100,4,2,1,65,0,0
90153,297.029702970297,4,2,1,65,1,0
90153,-117.647058823529,4,2,1,65,0,0
90450,-117.647058823529,4,2,1,55,0,0
94608,-100,4,2,1,70,0,0
94905,-117.647058823529,4,2,1,70,0,0
96984,-100,4,2,1,40,0,0
97281,-117.647058823529,4,2,1,55,0,0
99360,-100,4,2,1,65,0,0
99683,297.029702970297,4,2,1,55,1,0
99683,-117.647058823529,4,2,1,55,0,0
101465,-117.647058823529,4,2,1,60,0,0
102059,-117.647058823529,4,2,1,70,0,0
104435,300,4,2,1,60,1,0
104435,-133.333333333333,4,2,1,60,0,0
109228,297.029702970297,4,2,1,60,1,0
109228,-133.333333333333,4,2,1,60,0,0
109959,297.029702970297,4,2,1,60,1,0
110119,297.029702970297,4,2,1,60,1,0
110119,-133.333333333333,4,2,1,60,0,0
110416,297.029702970297,4,2,1,60,1,0
110416,-133.333333333333,4,2,1,60,0,0
113980,-100,4,2,1,70,0,0
122297,-125,4,2,1,70,0,0
123485,298.507462686567,4,2,1,45,1,0
123485,-333.333333333333,4,2,1,45,0,0
133039,300,4,2,1,55,1,0
133039,-133.333333333333,4,2,1,55,0,0
141439,-133.333333333333,4,2,1,70,0,0
142039,-133.333333333333,4,2,1,85,0,0
142639,292.682926829268,4,2,1,100,1,1
142639,-86.9565217391304,4,2,1,100,0,1
150980,-86.9565217391303,4,2,1,90,0,1
151273,-86.9565217391303,4,2,1,80,0,1
151565,-86.9565217391303,4,2,1,70,0,1
152004,-86.9565217391303,4,2,1,100,0,1
156687,300,4,2,1,80,1,0
160287,-100,4,2,1,70,0,0
161454,297.029702970297,4,2,1,60,1,0
166206,300,4,2,1,60,1,0
171006,297.029702970297,4,2,1,60,1,0
175758,300,4,2,1,60,1,0
178147,297.029702970297,4,2,1,60,1,0
180495,292.682926829268,4,2,1,40,1,0
180495,-133.333333333333,4,2,1,40,0,0
181561,292.682926829268,4,2,1,40,1,0
181561,-133.333333333333,4,2,1,40,0,0
182585,-133.333333333333,4,2,1,85,0,0
183170,-133.333333333333,4,2,1,5,0,0

[Colours]
Combo1 : 137,220,141
Combo2 : 160,167,252
Combo3 : 154,225,119
Combo4 : 253,234,189

[HitObjects]
203,65,1233,6,0,P|113:45|160:134,1,232.5,0|2,1:0|0:0,0:0:0:0:
149,134,2433,6,0,B|225:148|225:148|294:112|294:112|380:124,1,232.5,0|2,0:0|0:0,0:0:0:0:
371,123,3633,6,0,B|325:196|394:263|394:263|442:249|451:199,1,232.5,0|2,0:0|0:0,0:0:0:0:
447,213,4833,6,0,B|411:187|378:180|378:180|339:193|311:219|311:219|278:202|230:206,1,232.5,0|2,0:0|0:0,0:0:0:0:
235,205,6033,6,0,B|244:272|202:313|202:313|148:269|91:289,1,232.5,0|2,0:0|0:0,0:0:0:0:
95,287,7233,6,0,B|105:331|79:359|79:359|19:289|72:204,1,232.5,0|2,0:0|0:0,0:0:0:0:
65,214,8433,6,0,B|120:235|120:235|174:202|174:202|235:242|288:217,1,232.5,2|2,0:0|0:0,0:0:0:0:
278,220,9633,6,0,B|343:178|343:178|312:334,1,232.5,2|2,0:0|0:0,0:0:0:0:
145,278,10833,5,0,1:0:0:0:
145,278,10983,1,0,1:0:0:0:
85,214,11133,2,0,L|94:82,1,116.250004434586,8|0,0:0|0:0,0:0:0:0:
163,46,11583,1,0,1:0:0:0:
222,109,11733,2,0,P|255:111|300:97,1,58.1250022172929,8|0,0:0|0:0,0:0:0:0:
347,50,12033,5,0,1:0:0:0:
347,50,12183,1,0,1:0:0:0:
420,97,12333,2,0,L|415:171,1,58.1250022172929,8|0,0:0|1:0,0:0:0:0:
401,181,12558,1,0,1:0:0:0:
383,204,12633,2,0,L|388:278,1,58.1250022172929,0|0,1:0|1:0,0:0:0:0:
393,349,12933,2,0,P|362:356|321:352,1,58.1250022172929,8|0,0:0|0:0,0:0:0:0:
254,324,13233,5,0,1:0:0:0:
254,324,13383,1,0,0:0:0:0:
234,239,13533,2,0,P|199:214|109:223,1,116.250004434586,8|0,0:0|1:0,0:0:0:0:
46,245,13983,1,0,1:0:0:0:
8,166,14133,2,0,L|14:94,1,58.1250022172929,8|0,0:0|0:0,0:0:0:0:
69,42,14433,5,0,1:0:0:0:
122,110,14583,1,0,1:0:0:0:
69,42,14733,1,8,0:0:0:0:
122,110,14883,1,8,0:0:0:0:
194,61,15033,2,0,L|280:64,1,58.1250022172929,0|0,1:0|1:0,0:0:0:0:
302,155,15333,2,0,L|216:158,1,58.1250022172929,8|8,0:0|0:0,0:0:0:0:
175,212,15633,5,0,1:0:0:0:
175,212,15783,1,0,0:0:0:0:
209,291,15933,2,0,P|261:306|333:286,1,116.250004434586,8|0,0:0|0:0,0:0:0:0:
387,236,16383,1,0,1:0:0:0:
464,274,16533,2,0,L|471:344,1,58.1250022172929,8|0,0:0|0:0,0:0:0:0:
509,189,16833,5,0,1:0:0:0:
509,189,16983,1,0,1:0:0:0:
436,141,17133,2,0,L|372:137,1,58.1250022172929,8|0,0:0|0:0,0:0:0:0:
352,122,17358,1,0,1:0:0:0:
326,107,17433,2,0,L|262:111,1,58.1250022172929,0|0,1:0|1:0,0:0:0:0:
200,165,17733,2,0,L|136:161,1,58.1250022172929,8|0,0:0|0:0,0:0:0:0:
235,254,18033,6,0,B|267:279|267:279|365:265,1,116.250004434586,0|8,1:0|0:0,0:0:0:0:
435,260,18483,1,0,1:0:0:0:
435,260,18558,1,0,1:0:0:0:
435,260,18633,2,0,P|441:293|438:329,1,58.1250022172929,0|0,1:0|1:0,0:0:0:0:
373,188,18933,2,0,P|372:158|378:130,1,58.1250022172929,8|0,0:0|0:0,0:0:0:0:
427,58,19233,5,0,1:0:0:0:
427,58,19383,1,0,1:0:0:0:
344,30,19533,2,0,P|311:25|272:31,1,58.1250022172929,8|0,0:0|0:0,0:0:0:0:
207,70,19833,2,0,L|205:104,3,29.0625011086464,8|0|0|0,1:2|1:2|1:2|1:2,0:0:0:0:
180,134,20133,2,0,L|182:168,3,29.0625011086464,0|0|0|0,1:2|1:2|1:2|1:2,0:0:0:0:
184,202,20433,5,6,1:2:0:0:
295,236,20583,2,0,P|356:209|452:207,1,155,0|0,1:0|0:0,0:0:0:0:
372,353,21033,2,0,P|333:351|297:338,1,77.5,2|0,1:2|1:0,0:0:0:0:
185,240,21333,1,10,0:0:0:0:
63,323,21483,6,0,P|32:269|37:164,1,155,0|0,1:0|0:0,0:0:0:0:
148,75,21933,2,0,L|141:155,1,77.5,10|0,0:0|0:0,0:0:0:0:
80,9,22233,1,2,1:2:0:0:
80,9,22383,1,0,1:0:0:0:
245,71,22533,2,0,L|238:151,1,77.5,10|0,0:0|0:0,0:0:0:0:
216,301,22833,5,2,1:2:0:0:
137,185,22983,1,0,1:0:0:0:
285,230,23133,2,0,L|369:222,1,77.5,10|0,0:0|0:0,0:0:0:0:
441,137,23433,1,2,1:2:0:0:
349,65,23583,2,0,P|327:105|324:144,1,77.5,0|10,1:0|0:0,0:0:0:0:
425,11,23883,6,0,L|247:17,1,155,0|0,1:0|0:0,0:0:0:0:
149,113,24333,2,0,L|238:116,1,77.5,10|0,0:0|0:0,0:0:0:0:
88,44,24633,1,2,1:2:0:0:
88,44,24783,1,0,1:0:0:0:
122,203,24933,2,0,L|211:206,1,77.5,10|0,0:0|0:0,0:0:0:0:
329,289,25233,5,6,1:2:0:0:
237,360,25383,2,0,P|177:329|78:322,1,155,0|0,1:0|0:0,0:0:0:0:
10,235,25833,1,2,1:2:0:0:
122,203,25983,1,0,1:0:0:0:
63,329,26133,1,10,0:0:0:0:
41,136,26283,6,0,B|81:111|81:111|201:127,1,155,0|0,1:0|0:0,0:0:0:0:
340,149,26733,2,0,P|354:96|352:71,1,77.5,10|0,0:0|0:0,0:0:0:0:
253,226,27033,1,2,1:2:0:0:
253,226,27183,1,0,1:0:0:0:
385,273,27333,2,0,L|472:263,1,77.5,10|0,0:0|0:0,0:0:0:0:
340,149,27633,5,2,1:2:0:0:
253,226,27783,1,0,1:0:0:0:
265,341,27933,2,0,L|173:330,1,77.5,10|0,0:0|0:0,0:0:0:0:
74,308,28233,1,2,1:2:0:0:
124,203,28383,1,0,1:0:0:0:
66,329,28533,1,10,0:0:0:0:
11,200,28683,6,0,B|0:84|0:84|39:123,1,155,0|0,1:0|1:0,0:0:0:0:
124,203,29133,2,0,L|204:195,1,77.5,10|0,0:0|0:0,0:0:0:0:
339,180,29433,1,8,0:0:0:0:
219,107,29583,1,0,1:0:0:0:
219,107,29658,1,0,1:0:0:0:
219,107,29733,1,8,0:0:0:0:
291,269,29883,5,0,1:0:0:0:
291,269,29958,1,0,1:0:0:0:
291,269,30033,1,6,1:2:0:0:
332,160,30183,2,0,P|393:138|486:127,1,155,0|0,1:0|0:0,0:0:0:0:
493,266,30633,2,0,P|454:261|417:249,1,77.5,2|0,1:2|1:0,0:0:0:0:
301,173,30933,1,10,0:0:0:0:
203,272,31083,6,0,B|162:302|162:302|31:277,1,155,0|0,1:0|0:0,0:0:0:0:
128,127,31533,2,0,P|139:164|140:203,1,77.5,10|0,0:0|0:0,0:0:0:0:
29,94,31833,1,2,1:2:0:0:
29,94,31983,1,0,1:0:0:0:
174,41,32133,2,0,L|267:46,1,77.5,10|0,0:0|0:0,0:0:0:0:
349,107,32433,5,2,1:2:0:0:
246,162,32583,1,0,1:0:0:0:
342,226,32733,2,0,P|351:268|343:308,1,77.5,10|0,0:0|0:0,0:0:0:0:
250,369,33033,1,2,1:2:0:0:
179,276,33183,2,0,L|269:268,1,77.5,0|10,1:0|0:0,0:0:0:0:
161,144,33483,6,0,B|68:134|104:183|-1:171,1,155,0|0,1:0|0:0,0:0:0:0:
96,42,33933,2,0,P|135:37|174:41,1,77.5,10|0,0:0|0:0,0:0:0:0:
277,94,34233,1,2,1:2:0:0:
277,94,34383,1,0,1:0:0:0:
376,154,34533,2,0,P|415:159|454:155,1,77.5,10|0,0:0|0:0,0:0:0:0:
368,23,34833,5,2,1:2:0:0:
277,94,34983,2,0,P|249:145|246:249,1,155,0|0,1:0|0:0,0:0:0:0:
269,353,35433,1,2,1:2:0:0:
355,275,35583,1,0,1:0:0:0:
427,365,35733,1,10,0:0:0:0:
490,267,35883,6,0,B|505:173|445:208|466:94,1,155,0|0,1:0|0:0,0:0:0:0:
346,36,36333,2,0,P|330:70|303:98,1,77.5,10|0,0:0|0:0,0:0:0:0:
195,142,36633,1,2,1:2:0:0:
85,102,36783,1,8,0:0:0:0:
85,102,36933,2,0,P|57:74|41:39,1,77.5,10|0,0:0|0:1,0:0:0:0:
195,5,37233,5,6,1:2:0:0:
226,156,37383,2,0,P|150:239|86:254,1,155,0|0,1:0|0:0,0:0:0:0:
215,367,37833,2,0,B|281:362|281:362|306:379|306:379|380:373,1,155,10|2,0:0|0:0,0:0:0:0:
467,320,38283,1,0,0:0:0:0:
366,260,38433,5,2,1:2:0:0:
469,208,38583,1,0,1:0:0:0:
469,208,38658,1,0,1:0:0:0:
469,208,38733,2,0,L|461:122,1,77.5,8|8,0:0|0:0,0:0:0:0:
390,38,39033,1,8,0:0:0:0:
347,146,39183,1,0,1:0:0:0:
275,54,39333,2,0,P|228:48|184:60,1,77.5,8|2,0:3|0:0,0:0:0:0:
109,128,39633,5,4,1:2:0:0:
109,128,39783,2,0,B|108:168|108:168|121:196|121:196|118:260,1,116.250004434586,8|0,0:0|1:0,0:0:0:0:
211,276,40233,2,0,L|214:218,1,58.1250022172929,8|0,0:0|0:0,0:0:0:0:
306,180,40533,1,0,1:0:0:0:
306,180,40683,2,0,L|309:237,1,58.1250022172929,0|0,1:0|0:0,0:0:0:0:
355,324,40983,6,0,P|410:339|478:312,1,116.250004434586,8|0,0:0|1:0,0:0:0:0:
507,231,41433,2,0,L|503:173,1,58.1250022172929,8|0,0:0|0:0,0:0:0:0:
439,97,41733,1,0,0:0:0:0:
356,150,41883,1,8,0:0:0:0:
356,150,41958,1,8,0:0:0:0:
356,150,42033,6,0,P|290:122|223:128,1,116.250004434586,0|0,1:0|1:0,0:0:0:0:
152,154,42483,1,0,1:0:0:0:
95,234,42633,2,0,L|29:231,1,58.1250022172929,8|0,0:0|0:0,0:0:0:0:
4,138,42933,1,0,0:0:0:0:
4,138,43083,2,0,L|70:135,1,58.1250022172929,0|0,1:0|0:0,0:0:0:0:
124,58,43383,6,0,P|184:21|246:28,1,116.250004434586,8|0,0:0|1:0,0:0:0:0:
314,69,43833,2,0,L|310:138,1,58.1250022172929,8|0,0:0|0:0,0:0:0:0:
300,261,44133,1,0,0:0:0:0:
400,177,44283,1,0,1:0:0:0:
300,261,44433,6,0,B|245:249|242:284|180:266,1,116.250004434586,2|0,1:2|0:0,0:0:0:0:
110,202,44883,1,0,1:0:0:0:
49,279,45033,2,0,L|55:354,1,58.1250022172929,8|0,0:0|0:0,0:0:0:0:
4,195,45333,1,0,1:0:0:0:
4,195,45483,2,0,L|10:120,1,58.1250022172929,0|0,1:0|0:0,0:0:0:0:
79,67,45783,6,0,P|125:84|194:62,1,116.250004434586,8|0,0:0|1:0,0:0:0:0:
275,20,46233,2,0,L|341:25,1,58.1250022172929,8|0,0:0|0:0,0:0:0:0:
407,88,46533,1,0,0:0:0:0:
325,144,46683,1,8,0:0:0:0:
325,144,46758,1,8,0:0:0:0:
325,144,46833,6,0,P|295:168|270:247,1,116.250004434586,0|0,1:0|1:0,0:0:0:0:
308,331,47283,1,0,0:0:0:0:
399,369,47433,2,0,P|431:371|468:357,1,58.1250022172929,8|0,0:0|0:0,0:0:0:0:
493,271,47733,1,0,1:0:0:0:
493,271,47883,2,0,P|456:264|425:269,1,58.1250022172929,0|0,1:0|0:0,0:0:0:0:
357,204,48183,6,0,P|334:151|340:73,1,116.250004434586,8|0,0:0|1:0,0:0:0:0:
251,38,48633,2,0,P|230:72|209:85,1,58.1250022172929,8|0,0:0|0:0,0:0:0:0:
107,130,48933,1,0,0:0:0:0:
53,24,49083,1,8,0:0:0:0:
107,130,49233,6,0,B|95:177|95:177|108:197|108:197|95:249,1,116.250004434586,0|0,1:0|0:0,0:0:0:0:
148,324,49683,1,0,1:0:0:0:
243,298,49833,2,0,P|279:295|319:306,1,58.1250022172929,8|0,0:0|0:0,0:0:0:0:
381,355,50133,1,0,1:0:0:0:
381,355,50283,2,0,P|417:358|457:347,1,58.1250022172929,0|0,1:0|0:0,0:0:0:0:
480,263,50583,6,0,P|452:207|443:137,1,116.250004434586,8|0,0:0|1:0,0:0:0:0:
360,98,51033,2,0,P|342:131|321:152,1,58.1250022172929,8|0,0:0|0:0,0:0:0:0:
237,187,51333,1,0,0:0:0:0:
144,151,51483,1,8,0:0:0:0:
144,151,51558,1,8,0:0:0:0:
144,151,51633,6,0,L|64:160,2,58.1250022172929,0|8|0,1:0|0:0|1:0,0:0:0:0:
217,84,52083,1,0,0:0:0:0:
288,16,52233,2,0,L|345:22,1,58.1250022172929,8|0,0:0|0:0,0:0:0:0:
395,108,52533,1,0,0:0:0:0:
395,108,52683,2,0,L|337:114,1,58.1250022172929,0|0,1:0|0:0,0:0:0:0:
263,180,52983,6,0,P|206:194|154:173,1,116.250004434586,8|0,0:0|1:0,0:0:0:0:
83,103,53433,2,0,L|89:48,2,38.7500014781952,2|0|0,1:2|1:0|1:0,0:0:0:0:
7,134,53733,2,0,L|1:79,2,38.7500014781952,2|0|0,1:2|1:0|1:0,0:0:0:0:
18,215,54033,6,0,P|59:232|106:312,1,116.250004434586,4|0,1:2|1:0,0:0:0:0:
174,355,54483,1,0,1:0:0:0:
262,310,54633,2,0,L|331:306,1,58.1250022172929,8|0,0:0|0:0,0:0:0:0:
368,220,54933,1,0,1:0:0:0:
368,220,55083,2,0,L|309:216,1,58.1250022172929,0|0,1:0|0:0,0:0:0:0:
229,159,55383,6,0,P|234:95|204:33,1,116.250004434586,8|0,0:0|0:0,0:0:0:0:
118,26,55833,2,0,L|112:86,1,58.1250022172929,8|0,0:0|1:0,0:0:0:0:
109,183,56133,1,0,1:0:0:0:
180,250,56283,1,8,0:0:0:0:
180,250,56358,1,8,0:0:0:0:
180,250,56433,6,0,L|251:244,2,58.1250022172929,0|8|0,1:0|0:0|1:0,0:0:0:0:
99,306,56883,1,0,0:0:0:0:
180,362,57033,2,0,L|257:368,1,77.5,8|0,0:0|0:0,0:0:0:0:
364,321,57333,1,0,0:0:0:0:
388,207,57483,1,0,1:0:0:0:
388,207,57558,1,0,1:0:0:0:
388,207,57633,6,0,P|437:218|494:198,2,103.333333333333,8|0|0,0:0|1:0|1:0,0:0:0:0:
242,148,58233,2,0,P|193:137|136:157,2,103.333333333333,0|0|0,1:0|1:0|1:0,0:0:0:0:
258,279,58833,6,0,P|200:297|131:274,2,131.750002512932,2|2|2,1:2|0:0|0:0,0:0:0:0:
333,170,59633,1,0,1:0:0:0:
333,170,59733,2,0,L|439:158,1,87.8333350086212,10|0,0:0|0:0,0:0:0:0:
450,86,60033,2,0,L|344:74,1,87.8333350086212,2|2,0:0|0:0,0:0:0:0:
284,67,60333,1,2,0:0:0:0:
178,145,60533,5,0,1:0:0:0:
178,145,60633,2,0,P|130:133|72:151,1,87.8333350086212,2|0,1:2|1:0,0:0:0:0:
86,219,60933,2,0,P|134:231|192:213,1,87.8333350086212,2|0,0:0|1:0,0:0:0:0:
244,192,61233,1,0,0:0:0:0:
369,230,61433,1,0,1:0:0:0:
369,230,61533,2,0,B|363:284|363:284|388:323,1,87.8333350086212,10|8,0:0|0:3,0:0:0:0:
430,374,61833,1,8,0:3:0:0:
504,190,62133,2,0,L|498:94,1,87.8333350086212,4|4,0:3|0:3,0:0:0:0:
422,47,62433,6,0,B|315:35|315:35|267:69,2,155,4|8|0,1:2|0:0|0:0,0:0:0:0:
343,180,63225,1,0,1:0:0:0:
343,180,63324,2,0,P|294:198|233:185,1,103.333333333333,0|0,1:0|1:0,0:0:0:0:
187,124,63621,2,0,P|138:106|77:119,1,103.333333333333,8|0,0:0|1:0,0:0:0:0:
23,172,63918,2,0,P|5:221|18:282,1,103.333333333333,0|0,0:0|1:0,0:0:0:0:
87,316,64215,6,0,L|79:373,2,51.6666666666667,0|0|8,1:0|0:0|0:0,0:0:0:0:
146,251,64512,2,0,L|138:194,2,51.6666666666667,8|0|8,0:0|0:0|0:0,0:0:0:0:
232,306,64809,2,0,P|264:311|296:307,2,51.6666666666667,8|8|8,0:3|0:3|0:3,0:0:0:0:
230,217,65106,2,0,P|262:212|294:216,2,51.6666666666667,4|4|4,0:3|0:3|0:3,0:0:0:0:
146,251,65403,5,8,0:0:0:0:
39,173,65551,1,0,1:0:0:0:
39,173,65626,1,0,1:0:0:0:
39,173,65700,2,0,L|44:107,3,38.75,0|0|0|0,1:0|1:0|1:0|1:0,0:0:0:0:
44,56,65997,5,8,0:0:0:0:
76,44,66071,1,8,0:0:0:0:
110,48,66145,1,8,0:0:0:0:
142,61,66220,1,8,0:0:0:0:
167,85,66294,2,0,L|213:81,3,38.75,8|8|8|0,0:0|0:0|0:0|0:0,0:0:0:0:
237,63,66558,6,0,P|271:126|301:224,1,170.500005203247,6|10,1:2|0:0,0:0:0:0:
417,345,66997,2,0,P|441:263|480:187,1,170.500005203247,0|0,1:0|0:0,0:0:0:0:
437,21,67436,2,0,L|344:33,1,85.2500026016236,10|0,0:0|0:0,0:0:0:0:
237,156,67728,5,2,1:2:0:0:
373,144,67875,1,0,1:0:0:0:
227,56,68021,2,0,P|182:71|149:109,1,85.2500026016236,10|0,0:0|1:0,0:0:0:0:
146,268,68314,2,0,P|155:221|139:173,1,85.2500026016236,2|0,1:2|0:0,0:0:0:0:
3,92,68606,2,0,P|38:123|87:133,1,85.2500026016236,10|0,0:0|0:0,0:0:0:0:
227,56,68899,6,0,L|314:46,1,85.2500026016236,2|0,1:2|1:0,0:0:0:0:
87,28,69192,1,10,0:0:0:0:
146,186,69338,2,0,B|246:198|246:198|283:195|310:167,1,170.500005203247,0|0,1:0|1:0,0:0:0:0:
453,78,69777,2,0,P|477:136|475:189,1,85.2500026016236,10|0,0:0|0:0,0:0:0:0:
359,303,70070,5,2,1:2:0:0:
307,169,70216,1,0,0:0:0:0:
177,279,70362,2,0,L|184:381,1,85.2500026016236,10|0,0:0|0:0,0:0:0:0:
216,122,70655,1,2,1:2:0:0:
90,227,70801,1,0,1:0:0:0:
253,213,70948,1,10,0:0:0:0:
113,128,71094,1,8,0:0:0:0:
177,279,71240,6,0,P|253:314|343:259,2,170.500005203247,6|10|2,1:2|0:0|0:0,0:0:0:0:
113,128,71972,1,0,1:0:0:0:
303,142,72118,2,0,L|394:148,1,85.2500026016236,10|0,0:0|1:0,0:0:0:0:
243,33,72411,6,0,L|157:38,1,85.2500026016236,2|0,0:0|1:0,0:0:0:0:
18,136,72704,2,0,P|53:207|71:306,1,170.500005203247,10|2,0:0|0:0,0:0:0:0:
179,363,73143,1,0,1:0:0:0:
256,211,73289,2,0,P|212:195|162:197,1,85.2500026016236,10|0,0:0|0:0,0:0:0:0:
282,327,73582,6,0,P|324:325|450:280,2,170.500005203247,2|10|2,1:2|0:0|1:2,0:0:0:0:
162,280,74314,1,0,1:0:0:0:
274,152,74460,2,0,P|305:189|322:232,1,85.2500026016236,10|0,0:0|0:0,0:0:0:0:
144,181,74753,6,0,P|149:83|168:7,1,170.500005203247,2|10,1:2|0:0,0:0:0:0:
257,138,75192,1,0,0:0:0:0:
144,214,75338,2,0,P|83:228|60:226,1,85.2500026016236,2|0,1:2|1:0,0:0:0:0:
237,120,75631,1,8,0:0:0:0:
273,303,75777,1,8,0:0:0:0:
396,163,75923,6,0,P|429:223|449:334,1,170.500005203247,6|10,1:2|0:0,0:0:0:0:
251,216,76362,2,0,P|265:132|304:56,1,170.500005203247,0|0,1:0|1:0,0:0:0:0:
356,285,76801,2,0,P|311:299|260:302,1,85.2500026016236,10|0,0:0|0:0,0:0:0:0:
128,282,77094,5,2,0:0:0:0:
193,381,77240,1,0,1:0:0:0:
221,220,77387,2,0,L|209:120,1,85.2500026016236,10|0,0:0|1:0,0:0:0:0:
389,129,77679,2,0,L|308:189,1,85.2500026016236,2|0,0:0|0:0,0:0:0:0:
227,26,77972,2,0,L|319:65,1,85.2500026016236,10|0,0:0|0:0,0:0:0:0:
482,146,78265,6,0,P|490:191|482:250,1,85.2500026016236,2|0,1:2|1:0,0:0:0:0:
394,373,78557,1,10,0:0:0:0:
247,284,78704,2,0,B|145:262|194:344|68:314,1,170.500005203247,0|0,0:0|1:0,0:0:0:0:
69,145,79143,2,0,P|93:185|110:225,1,85.2500026016236,10|8,0:0|0:0,0:0:0:0:
247,284,79438,6,0,P|264:245|286:208,1,85.2500026016236,0|0,0:0|1:0,0:0:0:0:
391,74,79735,1,8,0:0:0:0:
385,245,79883,1,8,0:0:0:0:
290,102,80032,1,0,0:0:0:0:
451,160,80180,1,0,1:0:0:0:
285,208,80329,2,0,P|238:192|199:188,1,85.2500026016236,8|8,0:0|0:0,0:0:0:0:
49,249,80626,5,2,1:2:0:0:
49,249,80774,2,0,P|50:315|92:400,1,131.750002512932,0|0,1:0|1:0,0:0:0:0:
205,359,81220,2,0,P|216:328|217:295,1,65.8750012564659,10|0,0:0|0:0,0:0:0:0:
173,171,81517,5,2,1:2:0:0:
173,171,81665,2,0,P|224:146|301:136,1,131.750002512932,0|0,1:0|1:0,0:0:0:0:
350,257,82111,2,0,P|318:247|289:231,1,65.8750012564659,2|0,1:2|0:0,0:0:0:0:
427,168,82408,5,10,0:0:0:0:
427,168,82556,2,0,P|452:219|462:296,1,131.750002512932,0|0,1:0|0:0,0:0:0:0:
346,356,83002,5,2,1:2:0:0:
346,356,83150,2,0,P|289:368|276:376,1,65.8750012564659,0|2,1:0|1:2,0:0:0:0:
160,322,83447,1,0,1:0:0:0:
241,217,83596,2,0,P|223:160|221:144,1,65.8750012564659,10|0,0:0|0:0,0:0:0:0:
113,78,83893,2,0,P|106:110|94:140,1,65.8750012564659,10|0,0:0|0:0,0:0:0:0:
211,34,84190,5,0,1:0:0:0:
318,109,84338,1,0,1:0:0:0:
318,109,84413,1,0,1:0:0:0:
318,109,84487,2,0,L|399:102,1,65.8750012564659,8|8,0:0|0:0,0:0:0:0:
306,222,84784,2,0,L|225:215,1,65.8750012564659,8|0,0:0|1:0,0:0:0:0:
108,205,85081,1,8,0:3:0:0:
200,110,85230,1,2,0:0:0:0:
43,132,85408,6,0,P|17:172|30:262,1,131.750002512932,4|0,1:2|1:0,0:0:0:0:
94,339,85853,1,0,1:0:0:0:
205,322,86002,2,0,P|214:284|213:254,1,65.8750012564659,8|0,0:0|0:0,0:0:0:0:
314,209,86299,1,0,1:0:0:0:
314,209,86447,2,0,P|314:241|322:273,1,65.8750012564659,0|0,1:0|0:0,0:0:0:0:
395,140,86744,6,0,P|348:97|257:74,1,131.750002512932,8|0,0:0|1:0,0:0:0:0:
172,87,87190,2,0,P|153:120|145:157,1,65.8750012564659,8|0,0:0|0:0,0:0:0:0:
157,258,87487,1,0,0:0:0:0:
267,239,87635,1,8,0:0:0:0:
267,239,87709,1,8,0:0:0:0:
267,239,87784,6,0,B|354:234|296:283|416:274,1,131.750002512932,0|0,1:0|1:0,0:0:0:0:
492,232,88229,1,0,1:0:0:0:
426,140,88378,2,0,P|412:105|408:70,1,65.8750012564659,8|0,0:0|0:0,0:0:0:0:
310,21,88675,1,0,1:0:0:0:
310,21,88823,2,0,P|304:53|292:83,1,65.8750012564659,0|0,1:0|0:0,0:0:0:0:
183,114,89120,6,0,P|106:90|44:90,1,131.750002512932,8|0,0:0|1:0,0:0:0:0:
2,187,89566,2,0,P|0:220|8:261,1,65.8750012564659,8|0,0:0|0:0,0:0:0:0:
102,342,89863,1,0,0:0:0:0:
169,229,90011,1,0,1:0:0:0:
102,342,90153,6,0,B|155:346|155:346|187:364|187:364|239:355,1,131.750002512932,0|0,1:0|0:0,0:0:0:0:
334,322,90598,1,0,1:0:0:0:
316,211,90747,2,0,P|282:202|243:201,1,65.8750012564659,8|0,0:0|0:0,0:0:0:0:
203,98,91044,1,0,1:0:0:0:
203,98,91192,2,0,P|237:89|276:88,1,65.8750012564659,0|0,1:0|0:0,0:0:0:0:
152,176,91489,6,0,P|69:180|14:162,1,131.750002512932,8|0,0:0|1:0,0:0:0:0:
4,55,91935,2,0,L|84:43,1,65.8750012564659,8|0,0:0|0:0,0:0:0:0:
176,11,92232,1,0,0:0:0:0:
267,87,92380,1,8,0:0:0:0:
267,87,92454,1,8,0:0:0:0:
267,87,92529,6,0,B|286:150|239:151|267:233,1,131.750002512932,0|0,1:0|1:0,0:0:0:0:
344,291,92974,1,0,1:0:0:0:
453,264,93123,2,0,P|469:221|471:197,1,65.8750012564659,8|0,0:0|0:0,0:0:0:0:
363,137,93420,1,0,1:0:0:0:
363,137,93568,2,0,P|367:169|380:199,1,65.8750012564659,0|0,1:0|0:0,0:0:0:0:
416,58,93865,6,0,P|375:32|283:23,1,131.750002512932,8|0,0:0|1:0,0:0:0:0:
187,120,94311,2,0,P|220:117|252:102,1,65.8750012564659,8|0,0:0|0:0,0:0:0:0:
104,47,94608,1,0,0:0:0:0:
112,177,94756,1,0,0:0:0:0:
104,47,94905,6,0,B|74:34|43:30|43:30|12:49|-4:90,1,131.750002512932,0|8,1:0|0:0,0:0:0:0:
47,182,95351,2,0,L|113:177,1,65.8750012564659,0|0,1:0|0:0,0:0:0:0:
209,120,95648,1,0,1:0:0:0:
209,120,95796,2,0,L|275:125,1,65.8750012564659,8|8,0:0|0:0,0:0:0:0:
381,223,96093,6,0,B|388:256|388:256|382:301,1,65.8750012564659,2|0,1:2|0:0,0:0:0:0:
252,347,96390,2,0,B|244:313|244:313|250:268,1,65.8750012564659,2|0,1:2|0:0,0:0:0:0:
248,282,97281,5,0,1:0:0:0:
171,364,97430,1,8,0:0:0:0:
171,364,97504,1,8,0:0:0:0:
171,364,97578,1,0,1:0:0:0:
104,273,97727,1,0,1:0:0:0:
180,192,97875,2,0,L|255:186,1,65.8750012564659,8|0,0:0|0:0,0:0:0:0:
303,90,98172,1,0,1:0:0:0:
303,90,98321,2,0,L|228:84,1,65.8750012564659,0|0,1:0|0:0,0:0:0:0:
402,36,98618,6,0,P|430:86|451:170,1,131.750002512932,0|0,1:0|1:0,0:0:0:0:
341,232,99063,2,0,P|345:191|364:151,1,65.8750012564659,8|0,0:0|0:0,0:0:0:0:
449,290,99360,1,0,0:0:0:0:
303,345,99509,1,8,0:0:0:0:
303,345,99583,1,8,0:0:0:0:
303,345,99683,6,0,B|280:331|255:329|255:329|228:344|228:344|190:344|157:330,1,131.750002512932,4|0,1:2|1:0,0:0:0:0:
92,266,100128,1,0,1:0:0:0:
165,180,100277,2,0,L|170:112,1,65.8750012564659,8|0,0:0|0:0,0:0:0:0:
271,67,100574,1,0,1:0:0:0:
271,67,100722,2,0,L|281:202,1,131.750002512932,0|8,1:0|0:0,0:0:0:0:
288,310,101168,6,0,P|251:317|222:311,1,65.8750012564659,0|0,0:0|1:0,0:0:0:0:
127,220,101465,2,0,P|159:214|191:221,1,65.8750012564659,8|0,0:0|1:0,0:0:0:0:
52,299,101762,1,8,0:0:0:0:
9,174,101910,1,8,0:0:0:0:
89,69,102059,5,0,1:0:0:0:
89,69,102207,2,0,P|150:98|228:92,1,131.750002512932,0|0,1:0|1:0,0:0:0:0:
317,55,102653,1,8,0:0:0:0:
317,55,102801,1,0,1:0:0:0:
385,144,102950,2,0,L|379:224,1,65.8750012564659,0|8,1:0|0:0,0:0:0:0:
298,313,103247,5,0,1:0:0:0:
208,217,103395,1,0,1:0:0:0:
208,217,103470,1,0,1:0:0:0:
208,217,103544,2,0,L|125:223,1,65.8750012564659,8|8,0:0|0:0,0:0:0:0:
209,335,103841,1,0,1:0:0:0:
298,221,103989,1,0,1:0:0:0:
224,119,104138,2,0,L|141:125,1,65.8750012564659,0|0,1:0|0:0,0:0:0:0:
308,26,104435,6,0,B|378:29|378:29|405:36|433:62,1,116.250004434586,4|0,1:2|0:0,0:0:0:0:
464,138,104885,2,0,L|459:206,1,58.1250022172929,8|0,0:0|0:0,0:0:0:0:
387,264,105185,1,0,1:0:0:0:
387,264,105260,1,0,1:0:0:0:
387,264,105335,2,0,B|317:261|317:261|290:254|262:228,1,116.250004434586,12|0,0:0|0:0,0:0:0:0:
206,168,105785,5,8,0:0:0:0:
135,236,105935,2,0,P|129:270|134:299,1,58.1250022172929,0|0,0:0|1:0,0:0:0:0:
19,201,106235,2,0,P|51:189|74:170,1,58.1250022172929,8|0,0:0|1:0,0:0:0:0:
47,318,106535,2,0,P|25:298|-1:287,1,58.1250022172929,0|0,0:0|0:0,0:0:0:0:
135,236,106835,6,0,P|188:201|260:198,1,116.250004434586,0|0,1:2|0:0,0:0:0:0:
356,201,107285,2,0,P|368:159|372:136,1,58.1250022172929,8|0,0:0|0:0,0:0:0:0:
315,41,107585,1,0,1:0:0:0:
315,41,107660,1,0,1:0:0:0:
315,41,107735,6,0,P|254:15|187:21,1,116.250004434586,8|0,0:0|0:0,0:0:0:0:
127,138,108185,2,0,P|184:137|237:113,1,116.250004434586,8|0,0:0|1:0,0:0:0:0:
107,48,108635,1,8,0:0:0:0:
107,48,108785,1,0,1:0:0:0:
17,122,108935,2,0,L|21:204,1,58.1250022172929,0|8,0:0|0:0,0:0:0:0:
39,201,109160,1,8,0:0:0:0:
57,223,109228,5,0,1:2:0:0:
149,255,109376,2,0,P|176:244|219:238,1,58.1250022172929,0|0,1:0|0:0,0:0:0:0:
271,143,109673,2,0,P|244:132|201:126,1,58.1250022172929,0|0,1:0|0:0,0:0:0:0:
313,249,109959,1,0,1:0:0:0:
313,249,110033,1,0,1:0:0:0:
313,249,110119,2,0,P|377:246|432:220,1,116.250004434586,12|0,0:0|0:0,0:0:0:0:
462,134,110564,5,8,0:0:0:0:
462,134,110713,2,0,L|454:56,1,58.1250022172929,0|0,0:0|1:0,0:0:0:0:
365,35,111010,1,8,0:0:0:0:
365,35,111158,2,0,P|308:57|237:62,1,116.250004434586,0|0,1:0|0:0,0:0:0:0:
203,148,111604,5,0,1:2:0:0:
203,148,111752,2,0,P|260:154|314:175,1,116.250004434586,0|8,1:0|0:0,0:0:0:0:
340,271,112198,2,0,P|307:298|289:308,1,58.1250022172929,8|0,0:0|1:0,0:0:0:0:
196,326,112495,1,0,0:0:0:0:
115,268,112643,1,0,1:0:0:0:
115,268,112718,1,0,1:0:0:0:
115,268,112792,5,8,0:0:0:0:
199,206,112940,2,0,L|204:136,1,58.1250022172929,0|0,1:0|0:0,0:0:0:0:
219,50,113237,1,0,1:0:0:0:
219,50,113312,1,0,1:0:0:0:
219,50,113386,1,4,0:0:0:0:
127,85,113534,1,8,0:0:0:0:
111,182,113683,1,8,0:0:0:0:
189,241,113831,1,8,0:0:0:0:
297,197,113980,6,0,P|370:192|450:241,1,155,4|10,1:2|0:0,0:0:0:0:
345,322,114426,2,0,L|259:328,1,77.5,0|2,0:0|1:2,0:0:0:0:
151,338,114723,1,0,1:0:0:0:
199,216,114871,2,0,P|150:196|119:194,1,77.5,10|0,0:0|0:0,0:0:0:0:
48,86,115168,6,0,P|97:66|128:64,1,77.5,2|0,1:2|1:0,0:0:0:0:
249,94,115465,1,10,0:0:0:0:
199,216,115614,2,0,P|219:296|257:372,1,155,0|0,0:0|1:0,0:0:0:0:
316,212,116059,1,10,0:0:0:0:
194,185,116208,1,0,0:0:0:0:
335,123,116356,6,0,B|432:99|396:155|488:123,1,155,2|10,1:2|0:0,0:0:0:0:
400,22,116802,2,0,L|318:16,1,77.5,0|0,0:0|0:0,0:0:0:0:
210,46,117099,1,0,1:0:0:0:
304,136,117247,2,0,P|316:189|315:220,1,77.5,10|0,0:0|0:0,0:0:0:0:
190,303,117544,6,0,P|191:264|201:227,1,77.5,2|0,1:2|1:0,0:0:0:0:
259,371,117841,1,10,0:0:0:0:
104,358,117990,2,0,P|80:323|67:279,1,77.5,8|2,0:0|1:2,0:0:0:0:
89,159,118287,1,8,0:0:0:0:
201,227,118435,2,0,P|249:223|289:207,1,77.5,10|8,0:0|0:0,0:0:0:0:
411,135,118732,5,2,0:0:0:0:
411,135,118881,2,0,B|395:174|395:174|421:295,1,155,0|0,1:0|1:0,0:0:0:0:
310,359,119327,2,0,P|272:342|226:336,1,77.5,10|0,0:0|1:0,0:0:0:0:
105,352,119624,1,2,0:0:0:0:
96,221,119772,5,8,0:0:0:0:
96,221,119846,1,8,0:0:0:0:
96,221,119921,1,2,1:2:0:0:
226,204,120069,2,0,P|304:195|382:166,1,155,0|0,1:0|1:0,0:0:0:0:
332,27,120515,2,0,P|305:56|289:96,1,77.5,10|0,0:0|0:0,0:0:0:0:
178,123,120812,1,2,1:2:0:0:
109,29,120960,5,0,1:0:0:0:
109,29,121034,1,0,1:0:0:0:
109,29,121109,1,0,1:0:0:0:
29,113,121257,1,8,0:0:0:0:
29,113,121331,1,8,0:0:0:0:
29,113,121406,2,0,L|35:206,1,77.5,8|8,0:0|0:0,0:0:0:0:
155,292,121703,5,8,0:0:0:0:
116,137,121851,1,0,1:0:0:0:
56,285,122000,1,0,1:0:0:0:
192,200,122149,5,0,1:0:0:0:
192,200,122223,1,0,1:0:0:0:
192,200,122297,1,8,0:0:0:0:
278,287,122445,2,0,P|327:260|419:253,1,124,0|0,1:0|0:0,0:0:0:0:
495,178,122891,2,0,P|446:139|317:118,1,186,0|0,0:0|0:0,0:0:0:0:
238,143,123485,6,0,B|150:124|193:181|97:161,1,139.499995742798,0|2,0:0|0:0,0:0:0:0:
105,162,124679,6,0,P|74:182|119:257,1,139.499995742798,0|2,0:0|0:0,0:0:0:0:
110,257,125873,6,0,B|150:258|174:231|174:231|206:253|248:245,1,139.499995742798,0|2,0:0|0:0,0:0:0:0:
238,246,127067,6,0,B|245:189|245:189|225:149,1,92.9999971618653,0|0,0:0|0:0,0:0:0:0:
181,77,127962,1,2,0:0:0:0:
181,77,128261,6,0,P|225:56|277:59,1,92.9999971618653,0|0,0:0|0:0,0:0:0:0:
354,102,129156,1,2,0:0:0:0:
354,102,129455,6,0,B|347:159|347:159|367:199,1,92.9999971618653,0|0,0:0|0:0,0:0:0:0:
415,273,130350,1,2,0:0:0:0:
415,273,130649,6,0,L|411:323,1,46.4999985809327,0|2,0:0|0:0,0:0:0:0:
323,351,131246,2,0,L|319:301,1,46.4999985809327,0|2,0:0|0:0,0:0:0:0:
255,236,131843,6,0,B|201:228|215:256|158:249,1,92.9999971618653,0|2,0:0|0:0,0:0:0:0:
77,218,132738,1,2,0:0:0:0:
179,76,133039,5,0,1:0:0:0:
179,76,133189,1,0,0:0:0:0:
236,141,133339,1,8,0:0:0:0:
361,19,133639,1,0,0:0:0:0:
361,19,133789,1,0,1:0:0:0:
304,84,133939,1,8,0:0:0:0:
420,213,134239,5,0,1:0:0:0:
420,213,134389,1,0,1:0:0:0:
363,148,134539,1,8,0:0:0:0:
335,230,134689,2,0,L|339:282,2,29.0625011086464,0|0|0,1:0|1:0|1:0,0:0:0:0:
277,164,134989,1,0,1:0:0:0:
250,246,135139,1,8,0:0:0:0:
93,170,135439,5,0,1:0:0:0:
93,170,135589,1,0,0:0:0:0:
171,208,135739,1,8,0:0:0:0:
327,130,136039,1,0,0:0:0:0:
327,130,136189,1,0,1:0:0:0:
249,168,136339,1,8,0:0:0:0:
403,87,136639,5,0,1:0:0:0:
403,87,136789,1,0,0:0:0:0:
403,174,136939,1,8,0:0:0:0:
479,132,137089,2,0,L|511:133,2,29.0625011086464,0|0|2,1:0|1:0|0:0,0:0:0:0:
403,87,137389,1,0,0:0:0:0:
327,130,137539,1,8,0:0:0:0:
249,168,137689,6,0,L|201:162,2,29.0625011086464,0|0|0,1:0|1:0|1:0,0:0:0:0:
321,217,137989,1,0,1:0:0:0:
242,255,138139,1,8,0:0:0:0:
403,174,138439,1,0,1:0:0:0:
403,174,138589,1,0,1:0:0:0:
397,260,138739,1,8,0:0:0:0:
403,87,139039,5,0,0:0:0:0:
403,87,139189,1,0,1:0:0:0:
327,130,139339,1,8,0:0:0:0:
329,42,139489,2,0,L|330:9,2,29.0625011086464,0|0|0,1:0|1:0|1:0,0:0:0:0:
253,85,139789,1,0,1:0:0:0:
250,172,139939,1,8,0:0:0:0:
176,124,140089,1,0,1:0:0:0:
172,211,140239,5,8,0:0:0:0:
170,240,140389,1,0,0:0:0:0:
170,240,141439,6,0,L|174:291,7,29.0625011086464,0|0|0|0|0|0|0|0,1:0|1:0|1:0|1:0|1:0|1:0|1:0|1:0,0:0:0:0:
224,336,142039,5,8,0:0:0:0:
241,325,142114,1,8,0:0:0:0:
260,317,142189,1,8,0:0:0:0:
279,310,142264,1,0,0:0:0:0:
299,305,142339,1,8,0:0:0:0:
319,302,142414,1,8,0:0:0:0:
339,301,142489,1,8,0:0:0:0:
359,302,142564,1,8,0:0:0:0:
379,305,142639,6,0,P|349:211|348:123,1,178.250003399849,6|10,1:2|0:0,0:0:0:0:
212,13,143078,2,0,P|208:101|179:185,1,178.250003399849,0|0,1:0|1:0,0:0:0:0:
66,324,143517,2,0,P|109:332|150:349,1,89.1250016999245,10|0,0:0|1:0,0:0:0:0:
263,235,143809,5,2,0:0:0:0:
101,235,143956,1,0,1:0:0:0:
247,336,144102,2,0,P|290:327|331:310,1,89.1250016999245,10|0,0:0|1:0,0:0:0:0:
376,119,144395,2,0,P|361:161|355:205,1,89.1250016999245,2|0,0:0|0:0,0:0:0:0:
499,337,144687,2,0,P|469:303|434:276,1,89.1250016999245,10|0,0:0|0:0,0:0:0:0:
263,235,144980,6,0,P|242:197|228:129,1,89.1250016999245,2|0,1:2|1:0,0:0:0:0:
113,55,145273,1,10,0:0:0:0:
23,176,145419,2,0,B|31:218|55:246|55:246|49:275|49:275|49:302|68:352,1,178.250003399849,0|0,1:0|1:0,0:0:0:0:
241,317,145858,2,0,P|193:302|143:300,1,89.1250016999245,10|0,0:0|0:0,0:0:0:0:
346,374,146151,5,2,1:2:0:0:
311,214,146297,1,0,0:0:0:0:
450,285,146443,2,0,P|460:241|458:197,1,89.1250016999245,10|0,0:0|0:0,0:0:0:0:
390,32,146736,1,2,1:2:0:0:
349,202,146882,1,0,1:0:0:0:
484,85,147029,1,10,0:0:0:0:
304,101,147175,1,0,0:0:0:0:
458,197,147321,6,0,P|458:260|393:357,2,178.250003399849,6|10|2,1:2|0:0|0:0,0:0:0:0:
304,101,148053,1,0,1:0:0:0:
254,271,148199,2,0,P|302:272|353:261,1,89.1250016999245,10|0,0:0|1:0,0:0:0:0:
274,98,148492,6,0,P|230:90|185:91,1,89.1250016999245,2|0,0:0|1:0,0:0:0:0:
48,176,148785,2,0,P|75:245|99:349,1,178.250003399849,10|2,0:0|0:0,0:0:0:0:
229,377,149224,1,0,1:0:0:0:
281,225,149370,2,0,P|230:236|187:259,1,89.1250016999245,10|0,0:0|0:0,0:0:0:0:
385,252,149663,6,0,P|380:183|363:140,1,89.1250016999245,2|0,1:2|1:0,0:0:0:0:
232,46,149956,2,0,P|199:89|179:174,1,133.687502549887,10|0,0:0|1:0,0:0:0:0:
197,252,150248,2,0,L|209:317,3,44.5625008499623,0|0|0|0,1:0|1:0|1:0|1:0,0:0:0:0:
289,328,150541,2,0,L|301:263,3,44.5625008499623,8|8|8|8,0:0|0:0|0:0|0:0,0:0:0:0:
326,199,150834,5,8,0:0:0:0:
354,211,150907,1,0,1:0:0:0:
385,214,150980,1,0,1:0:0:0:
415,209,151053,1,0,1:0:0:0:
443,194,151126,1,8,1:3:0:0:
465,173,151199,1,0,1:0:0:0:
480,146,151273,1,0,1:0:0:0:
486,115,151346,1,0,1:0:0:0:
485,84,151419,6,0,L|425:78,3,44.5625008499623,4|0|0|0,1:3|1:0|1:0|1:0,0:0:0:0:
358,43,151712,1,4,1:3:0:0:
328,61,151785,1,4,1:3:0:0:
294,70,151858,1,4,1:3:0:0:
258,68,151931,1,4,1:3:0:0:
225,55,152004,6,0,B|201:135|266:155|241:236,1,178.250003399849,6|10,1:2|0:0,0:0:0:0:
65,202,152443,2,0,B|112:177|163:198|163:198|147:240|177:289,1,178.250003399849,0|0,1:0|1:0,0:0:0:0:
329,213,152882,2,0,P|271:215|237:233,1,89.1250016999245,10|0,0:0|1:0,0:0:0:0:
110,333,153175,5,2,0:0:0:0:
251,315,153321,1,0,1:0:0:0:
151,194,153468,2,0,P|107:189|65:202,1,89.1250016999245,10|0,0:0|1:0,0:0:0:0:
237,110,153760,2,0,P|201:83|158:73,1,89.1250016999245,2|0,0:0|0:0,0:0:0:0:
355,80,154053,2,0,P|337:39|305:8,1,89.1250016999245,10|0,0:0|0:0,0:0:0:0:
493,113,154346,6,0,P|461:143|443:184,1,89.1250016999245,2|0,1:2|1:0,0:0:0:0:
420,344,154639,1,10,0:0:0:0:
283,259,154785,2,0,B|165:240|230:308|104:295,1,178.250003399849,0|0,0:0|1:0,0:0:0:0:
51,148,155224,2,0,P|79:124|162:109,1,89.1250016999245,10|8,0:0|0:0,0:0:0:0:
297,89,155517,6,0,L|292:1,2,59.4166677999497,8|8|8,0:0|0:0|0:0,0:0:0:0:
388,154,155809,2,0,L|383:242,2,59.4166677999497,8|8|8,0:0|0:0|0:0,0:0:0:0:
407,42,156102,6,0,P|435:45|472:56,2,59.4166677999497,8|8|8,0:3|0:3|0:3,0:0:0:0:
297,89,156395,2,0,P|269:92|232:103,2,59.4166677999497,4|4|4,0:3|0:3|0:3,0:0:0:0:
388,154,156687,5,6,1:2:0:0:
284,235,156837,2,0,P|231:211|189:207,1,77.5,0|0,1:0|0:0,0:0:0:0:
104,284,157137,1,0,1:0:0:0:
104,284,157212,1,0,1:0:0:0:
104,284,157287,2,0,P|109:341|127:380,1,77.5,10|0,0:0|0:0,0:0:0:0:
185,202,157587,5,2,1:2:0:0:
77,125,157737,2,0,P|27:129|-6:142,1,77.5,0|0,1:0|0:0,0:0:0:0:
158,199,158037,1,0,1:0:0:0:
217,81,158187,2,0,P|188:39|160:17,1,77.5,2|0,1:2|0:0,0:0:0:0:
77,125,158487,5,10,0:0:0:0:
185,202,158637,2,0,P|277:179|370:178,1,155,0|0,1:0|1:0,0:0:0:0:
478,242,159087,5,6,1:2:0:0:
500,120,159237,2,0,P|490:60|481:41,1,77.5,0|0,1:0|1:0,0:0:0:0:
364,9,159537,1,0,1:0:0:0:
298,123,159687,2,0,P|334:136|372:139,1,77.5,10|0,0:0|1:0,0:0:0:0:
253,16,159987,6,0,P|214:18|178:31,1,77.5,10|0,0:0|0:0,0:0:0:0:
76,117,160287,1,0,1:0:0:0:
194,173,160437,1,0,1:0:0:0:
194,173,160512,1,0,1:0:0:0:
194,173,160587,2,0,L|188:259,1,77.5,8|8,0:0|0:0,0:0:0:0:
41,300,160887,1,8,0:0:0:0:
78,149,161037,1,0,1:0:0:0:
186,280,161187,2,0,P|234:291|282:277,1,77.5,8|2,0:3|0:0,0:0:0:0:
384,230,161454,5,4,1:2:0:0:
256,192,161528,12,0,163681,0:0:0:0:
254,153,163830,5,2,1:2:0:0:
254,153,163978,2,0,P|174:157|106:191,1,155,0|0,1:0|1:0,0:0:0:0:
263,259,164424,2,0,P|296:270|342:275,1,77.5,10|0,0:0|0:0,0:0:0:0:
452,250,164721,1,2,1:2:0:0:
375,163,164869,1,0,1:0:0:0:
467,268,165018,5,2,0:0:0:0:
496,132,165166,2,0,L|486:48,1,77.5,8|2,0:0|0:0,0:0:0:0:
308,39,165463,1,0,1:0:0:0:
308,39,165538,1,0,1:0:0:0:
308,39,165612,2,0,L|294:154,2,116.25,8|8|8,0:0|0:0|0:0,0:0:0:0:
137,86,166206,5,6,1:2:0:0:
256,192,166281,12,0,168456,0:0:0:0:
259,104,168606,5,2,1:2:0:0:
259,104,168756,2,0,P|176:129|115:166,1,155,0|0,1:0|1:0,0:0:0:0:
233,299,169206,2,0,P|241:264|241:213,1,77.5,10|0,0:0|0:0,0:0:0:0:
137,328,169506,1,2,1:2:0:0:
311,364,169656,1,0,1:0:0:0:
311,364,169731,1,0,1:0:0:0:
311,364,169806,6,0,P|374:377|421:369,2,103.333333333333,10|0|0,0:0|1:0|1:0,0:0:0:0:
197,258,170406,2,0,P|134:245|78:253,2,103.333333333333,4|8|4,0:3|0:3|0:3,0:0:0:0:
348,207,171006,5,6,1:2:0:0:
348,207,171154,1,0,1:0:0:0:
261,128,171303,1,2,0:0:0:0:
355,60,171451,1,0,1:0:0:0:
371,50,171525,1,0,1:0:0:0:
386,37,171600,2,0,P|308:18|219:18,1,155,10|2,0:0|1:2,0:0:0:0:
127,139,172045,6,0,P|205:120|294:120,1,155,0|8,1:0|0:0,0:0:0:0:
406,153,172491,1,2,0:0:0:0:
406,153,172639,1,0,1:0:0:0:
328,260,172788,2,0,P|327:302|339:348,1,77.5,10|0,0:0|1:0,0:0:0:0:
208,375,173085,2,0,P|215:337|214:298,1,77.5,2|0,0:0|0:0,0:0:0:0:
164,193,173382,5,2,1:2:0:0:
164,193,173530,2,0,B|120:222|120:222|14:196,1,155,0|0,1:0|0:0,0:0:0:0:
128,85,173976,2,0,P|206:82|301:126,1,155,10|2,0:0|1:2,0:0:0:0:
390,213,174421,6,0,P|345:218|292:247,1,77.5,0|2,1:0|0:0,0:0:0:0:
411,353,174718,1,8,0:0:0:0:
411,353,174867,2,0,P|446:367|485:371,1,77.5,2|0,0:0|1:0,0:0:0:0:
507,217,175164,1,10,0:0:0:0:
507,217,175312,2,0,P|502:140|455:57,1,155,0|0,1:0|0:0,0:0:0:0:
318,31,175758,5,6,1:2:0:0:
318,31,175908,2,0,P|243:59|140:51,1,155,0|0,1:0|1:0,0:0:0:0:
43,151,176358,2,0,P|74:184|91:218,1,77.5,10|0,0:0|0:0,0:0:0:0:
190,296,176658,5,2,1:2:0:0:
190,296,176808,2,0,P|208:262|235:234,1,77.5,0|2,1:0|0:0,0:0:0:0:
347,164,177108,1,8,0:0:0:0:
347,164,177258,2,0,L|356:255,1,77.5,2|0,0:0|1:0,0:0:0:0:
231,122,177558,2,0,L|240:31,1,77.5,10|0,0:0|0:0,0:0:0:0:
350,14,177858,1,2,0:0:0:0:
445,79,178008,1,0,1:0:0:0:
461,89,178083,1,0,1:0:0:0:
475,97,178147,5,2,1:2:0:0:
413,195,178295,2,0,P|337:203|265:270,1,155,0|0,1:0|1:0,0:0:0:0:
157,350,178741,2,0,P|133:300|109:279,1,77.5,10|0,0:0|0:0,0:0:0:0:
7,245,179038,1,2,1:2:0:0:
80,155,179186,6,0,P|117:137|164:135,1,77.5,8|0,0:0|1:0,0:0:0:0:
315,185,179483,1,8,0:0:0:0:
331,195,179557,1,8,0:0:0:0:
347,205,179632,1,8,0:0:0:0:
195,236,179780,1,8,0:0:0:0:
261,95,179929,1,8,0:0:0:0:
195,236,180077,1,8,0:0:0:0:
261,95,180226,1,8,0:0:0:0:
363,216,180374,5,8,0:0:0:0:
452,159,180495,2,0,L|445:101,1,58.1250022172929,0|0,0:0|0:0,0:0:0:0:
357,56,180787,2,0,L|350:113,1,58.1250022172929,2|0,0:0|0:0,0:0:0:0:
270,172,181080,2,0,P|197:147|135:142,1,116.250004434586,0|2,0:0|0:0,0:0:0:0:
75,267,181561,6,0,P|132:257|186:237,1,116.250004434586,0|0,0:0|0:0,0:0:0:0:
283,256,182000,2,0,P|304:278|331:292,1,58.1250022172929,2|0,0:0|0:0,0:0:0:0:
407,169,182292,2,0,P|381:182|361:204,1,58.1250022172929,0|2,0:0|0:0,0:0:0:0:
442,262,182585,1,8,0:0:0:0:
271,151,182731,6,0,B|235:138|200:141|200:141|175:159|175:159|137:140|96:152|96:152,1,174.375006651879,0|0,0:0|0:0,0:0:0:0:
