osu file format v14

[General]
AudioFilename: audio.mp3
AudioLeadIn: 0
PreviewTime: 65878
Countdown: 0
SampleSet: Soft
StackLeniency: 0.7
Mode: 0
LetterboxInBreaks: 0
WidescreenStoryboard: 0

[Editor]
Bookmarks: 1188,10788,20388,29988,39588,53688,58788,66513,85363,104390,113935,123440,132994,142594,156642,161409,170961,182706
DistanceSpacing: 1
BeatDivisor: 4
GridSize: 4
TimelineZoom: 2.2

[Metadata]
Title:Ama no Jaku
TitleUnicode:天ノ弱
Artist:Kano
ArtistUnicode:鹿乃
Creator:Natteke
Version:Nsane
Source:
Tags:megpoid gumi vocaloid utaite Rizia Regou
BeatmapID:954843
BeatmapSetID:444415

[Difficulty]
HPDrainRate:7
CircleSize:4
OverallDifficulty:8
ApproachRate:9.5
SliderMultiplier:1.9
SliderTickRate:1

[Events]
//Background and Video events
0,0,"bg.png",0,0
//Break Periods
//Storyboard Layer 0 (Background)
//Storyboard Layer 1 (Fail)
//Storyboard Layer 2 (Pass)
//Storyboard Layer 3 (Foreground)
//Storyboard Sound Samples

[TimingPoints]
1188.31608127346,300,4,2,1,50,1,0
10713,-100,4,2,1,75,0,0
20388,-100,4,2,1,90,0,0
37188,-142.857142857143,4,2,1,90,0,0
38388,-100,4,2,1,90,0,0
39588,-117.647058823529,4,2,1,65,0,0
62388,297.029702970297,4,2,1,90,1,0
66513,292.682926829268,4,2,1,90,1,0
79393,297.029702970297,4,2,1,90,1,0
85363,297.029702970297,4,2,1,90,1,0
90108,297.029702970297,4,2,1,90,1,0
99638,297.029702970297,4,2,1,90,1,0
104390,300,4,2,1,90,1,0
109183,297.029702970297,4,2,1,90,1,0
123440,298.507462686567,4,2,1,90,1,0
132994,300,4,2,1,90,1,0
142594,292.682926829268,4,2,1,90,1,0
156642,300,4,2,1,90,1,0
161409,297.029702970297,4,2,1,90,1,0
166161,300,4,2,1,90,1,0
170961,297.029702970297,4,2,1,90,1,0
175713,300,4,2,1,90,1,0
180450,292.682926829268,4,2,1,90,1,0
181516,292.682926829268,4,2,1,90,1,0

[Colours]
Combo1 : 17,254,176
Combo2 : 173,255,95
Combo3 : 255,88,100
Combo4 : 255,94,55

[HitObjects]
36,304,1188,6,0,P|112:304|140:260,1,95,0|0,3:0|2:0,0:0:0:0:
180,80,1488,2,0,P|224:112|236:156,1,95,2|0,0:0|0:0,0:0:0:0:
319,309,1788,2,0,P|408:335|491:295,1,190,0|2,0:0|0:0,0:0:0:0:
460,56,2238,2,0,B|376:60|424:172|296:164,1,190
320,80,2688,2,0,L|204:72,1,95,2|0,0:0|0:0,0:0:0:0:
396,224,2988,2,0,L|512:232,1,95
216,232,3288,2,0,L|208:332,1,95,2|0,0:0|0:0,0:0:0:0:
72,360,3588,6,0,P|44:312|56:272,1,95
352,232,3888,2,0,P|378:269|370:315,1,95,2|0,0:0|0:0,0:0:0:0:
204,256,4188,2,0,L|172:64,1,190,0|2,0:0|0:0,0:0:0:0:
328,16,4638,2,0,L|312:120,1,95
328,328,4938,1,0,0:0:0:0:
488,252,5088,2,0,L|476:144,2,95,2|0|0,0:0|0:0|0:0,0:0:0:0:
364,200,5538,1,0,0:0:0:0:
232,240,5688,1,2,0:0:0:0:
176,356,5838,1,0,0:0:0:0:
44,336,5988,6,0,P|24:296|48:232,2,95,0|0|2,0:0|0:0|0:0,0:0:0:0:
144,264,6438,1,0,0:0:0:0:
168,40,6588,2,0,B|248:52|180:164|288:196,1,190,0|2,0:0|0:0,0:0:0:0:
376,256,7038,1,0,0:0:0:0:
464,184,7188,2,0,L|476:84,1,95
272,272,7488,2,0,L|260:372,1,95,2|0,0:0|0:0,0:0:0:0:
212,160,7788,2,0,L|160:240,1,95
188,44,8088,2,0,L|80:64,1,95,2|0,0:0|0:0,0:0:0:0:
328,80,8388,6,0,L|448:64,2,95,0|0|2,0:0|0:0|0:0,0:0:0:0:
272,172,8838,2,0,B|248:240|248:240|272:296|272:296|244:360,1,190
160,360,9288,2,0,L|120:368,4,31.6666666666667,2|0|0|0|0,0:0|0:0|0:0|0:0|0:0,0:0:0:0:
340,340,9588,2,0,L|380:348,4,31.6666666666667
160,220,9888,2,0,L|120:228,4,31.6666666666667,2|0|0|0|0,0:0|0:0|0:0|0:0|0:0,0:0:0:0:
340,200,10188,2,0,L|380:208,4,31.6666666666667
240,76,10488,1,2,0:0:0:0:
240,76,10638,1,0,0:0:0:0:
64,132,10788,6,0,P|56:192|56:236,1,95,0|0,3:0|3:0,0:0:0:0:
136,372,11088,2,0,P|152:300|156:216,1,142.5,8|0,0:0|0:0,0:0:0:0:
196,140,11388,2,0,P|200:88|220:40,1,95,0|0,3:0|3:0,0:0:0:0:
308,16,11688,1,8,0:0:0:0:
412,352,11988,6,0,L|416:248,1,95,0|0,3:0|3:0,3:0:0:0:
328,84,12288,1,8,0:0:0:0:
284,328,12438,1,0,3:0:0:0:
284,328,12513,1,0,3:0:0:0:
284,328,12588,1,0,3:0:0:0:
208,44,12738,1,0,3:0:0:0:
184,284,12888,2,0,L|36:272,1,142.5,8|0,0:0|0:0,0:0:0:0:
16,196,13188,5,0,3:0:0:0:
120,48,13338,1,0,3:0:0:0:
208,212,13488,1,8,0:0:0:0:
208,212,13788,2,0,L|224:108,1,95,0|0,3:0|3:0,3:0:0:0:
104,328,14088,1,8,0:0:0:0:
380,256,14388,5,0,3:0:0:0:
408,108,14538,1,0,3:0:0:0:
232,220,14688,1,8,0:0:0:0:
256,80,14838,1,8,0:0:0:0:
296,336,14988,1,0,3:0:0:0:
480,192,15138,1,0,3:0:0:0:
152,132,15288,1,8,0:0:0:0:
400,292,15438,1,8,0:0:0:0:
312,212,15588,6,0,P|244:224|208:240,1,95,0|0,3:0|3:0,3:0:0:0:
20,216,15888,2,0,P|96:260|144:320,1,142.5,8|0,0:0|0:0,0:0:0:0:
176,368,16188,1,0,3:0:0:0:
128,164,16338,1,0,3:0:0:0:
252,320,16488,2,0,P|312:280|384:260,1,142.5,8|0,0:0|0:0,0:0:0:0:
472,248,16788,5,0,3:0:0:0:
384,168,16938,1,0,3:0:0:0:
340,360,17088,1,8,0:0:0:0:
228,200,17238,1,0,3:0:0:0:
228,200,17313,1,0,3:0:0:0:
228,200,17388,1,0,3:0:0:0:
156,272,17538,1,0,3:0:0:0:
340,360,17688,1,8,0:0:0:0:
124,44,17988,6,0,P|188:64|220:84,1,95,0|0,3:0|3:0,3:0:0:0:
396,152,18288,2,0,P|348:192|300:204,1,95,8|0,0:0|3:0,0:0:0:0:
292,212,18513,1,0,3:0:0:0:
264,216,18588,1,0,3:0:0:0:
116,208,18738,1,0,3:0:0:0:
40,120,18888,1,8,0:0:0:0:
196,280,19038,1,0,3:0:0:0:
248,372,19188,5,0,3:0:0:0:
100,308,19338,1,0,3:0:0:0:
244,208,19488,1,8,0:0:0:0:
156,380,19638,1,0,3:0:0:0:
64,168,19788,5,8,0:0:0:0:
132,60,19938,1,8,0:0:0:0:
177,47,20013,1,8,0:0:0:0:
224,52,20088,1,8,0:0:0:0:
268,70,20163,1,8,0:0:0:0:
311,90,20238,1,8,0:0:0:0:
358,95,20313,1,8,0:0:0:0:
400,84,20388,6,0,L|512:72,1,95,4|0,3:0|3:0,0:0:0:0:
324,316,20688,2,0,L|216:300,1,95,8|0,0:0|0:0,0:0:0:0:
444,204,20988,2,0,P|472:260|456:316,1,95,0|0,3:0|3:0,3:0:0:0:
244,188,21288,1,8,0:0:0:0:
68,36,21438,6,0,B|44:100|44:100|68:144|68:144|40:220,1,190,0|0,3:0|3:0,3:0:0:0:
36,248,21813,1,0,3:0:0:0:
28,288,21888,1,8,0:0:0:0:
208,364,22038,1,8,0:0:0:0:
368,268,22188,2,0,L|424:264,2,47.5,0|0|0,3:0|0:0|3:0,0:0:0:0:
208,240,22488,2,0,L|232:92,1,142.5,8|8,0:0|0:0,0:0:0:0:
272,32,22788,5,0,3:0:0:0:
328,156,22938,1,0,0:0:0:0:
180,364,23088,1,8,0:0:0:0:
124,240,23238,1,0,0:0:0:0:
260,268,23388,2,0,L|364:276,1,95,0|0,3:0|3:0,3:0:0:0:
468,336,23688,1,8,0:0:0:0:
328,192,23838,6,0,P|352:132|304:20,1,190,4|0,3:0|3:0,0:0:0:0:
424,256,24288,2,0,P|404:304|404:368,1,95,8|8,0:0|0:0,0:0:0:0:
224,340,24588,1,4,3:0:0:0:
120,284,24738,1,0,3:0:0:0:
98,242,24813,1,0,3:0:0:0:
98,195,24888,1,8,0:0:0:0:
123,155,24963,1,8,0:0:0:0:
148,115,25038,1,8,0:0:0:0:
148,68,25113,1,8,0:0:0:0:
124,32,25188,6,0,L|220:28,1,95,4|0,3:0|3:0,0:0:0:0:
376,120,25488,1,8,0:0:0:0:
240,208,25638,1,0,0:0:0:0:
236,232,25713,1,0,0:0:0:0:
232,260,25788,2,0,L|220:360,1,95,0|0,3:0|3:0,3:0:0:0:
352,204,26088,1,8,0:0:0:0:
352,204,26238,6,0,P|404:228|508:156,1,190,0|0,3:0|3:0,3:0:0:0:
224,88,26688,2,0,P|180:132|184:172,1,95,8|0,0:0|0:0,0:0:0:0:
304,340,26988,2,0,P|264:308|208:316,1,95,0|0,3:0|3:0,3:0:0:0:
28,312,27288,2,0,L|40:156,1,142.5,8|0,0:0|0:0,0:0:0:0:
56,40,27588,6,0,L|168:56,1,95,0|0,3:0|0:0,0:0:0:0:
244,172,27888,1,8,0:0:0:0:
468,88,28038,2,0,L|356:104,1,95,0|0,0:0|3:0,0:0:0:0:
248,264,28338,1,0,3:0:0:0:
28,176,28488,2,0,L|140:192,1,95,8|0,0:0|3:0,0:0:0:0:
468,292,28788,2,0,L|356:308,1,95,0|0,0:0|3:0,0:0:0:0:
252,360,29088,1,8,0:0:0:0:
240,52,29238,1,8,0:0:0:0:
64,128,29388,5,0,0:0:0:0:
168,308,29538,1,8,0:0:0:0:
176,264,29613,1,8,0:0:0:0:
184,216,29688,1,0,3:0:0:0:
368,40,29838,1,8,0:0:0:0:
376,84,29913,1,8,0:0:0:0:
384,132,29988,5,4,3:0:0:0:
408,336,30138,1,0,0:0:0:0:
321,321,30288,2,0,P|343:280|384:256,1,95,8|0,0:0|0:0,0:0:0:0:
496,132,30588,2,0,P|436:76|384:76,1,95,0|0,3:0|3:0,3:0:0:0:
144,60,30888,1,8,0:0:0:0:
288,32,31038,6,0,B|276:108|276:108|288:132|288:132|268:220,1,190,0|0,3:0|3:0,3:0:0:0:
264,240,31413,1,0,3:0:0:0:
260,264,31488,1,8,0:0:0:0:
144,328,31638,1,0,3:0:0:0:
372,352,31788,1,0,3:0:0:0:
112,324,31938,1,0,3:0:0:0:
396,360,32088,2,0,P|417:312|408:256,1,95,8|0,0:0|0:0,0:0:0:0:
60,136,32388,5,0,3:0:0:0:
232,156,32538,2,0,L|144:192,1,95,0|8,3:0|0:0,0:0:0:0:
340,208,32838,1,0,0:0:0:0:
200,28,32988,2,0,L|292:72,1,95,0|0,3:0|3:0,3:0:0:0:
96,36,33288,1,8,0:0:0:0:
372,44,33438,6,0,P|396:112|320:216,1,190,4|0,3:0|0:0,0:0:0:0:
64,176,33888,2,0,P|124:160|156:180,1,95,8|0,0:0|3:0,0:0:0:0:
232,352,34188,1,0,3:0:0:0:
232,352,34338,1,0,3:0:0:0:
360,200,34488,1,8,0:0:0:0:
388,196,34563,1,0,0:0:0:0:
416,192,34638,1,0,3:0:0:0:
156,272,34788,6,0,L|64:252,1,95,4|0,3:0|3:0,0:0:0:0:
44,140,35088,1,8,0:0:0:0:
240,328,35238,1,0,3:0:0:0:
52,356,35388,1,0,3:0:0:0:
216,184,35538,2,0,L|308:204,1,95,0|8,3:0|0:0,0:0:0:0:
416,288,35838,6,0,P|460:196|428:112,1,190,0|0,3:0|3:0,0:0:0:0:
416,92,36213,1,0,3:0:0:0:
396,64,36288,1,8,0:0:0:0:
252,88,36438,1,0,3:0:0:0:
264,232,36588,1,0,3:0:0:0:
176,332,36738,1,8,0:0:0:0:
32,284,36888,1,8,0:0:0:0:
0,144,37038,1,0,3:0:0:0:
104,32,37188,6,0,L|116:124,1,66.4999979705811,4|8,3:0|0:0,0:0:0:0:
399,97,37488,2,0,L|408:32,1,66.4999979705811,2|0,0:0|3:0,0:0:0:0:
144,220,37788,2,0,L|76:252,1,66.4999979705811,8|0,0:0|3:0,0:0:0:0:
368,220,38088,2,0,L|436:252,1,66.4999979705811,2|0,0:0|3:0,0:0:0:0:
156,352,38388,5,0,3:0:0:0:
336,336,38538,1,0,0:0:0:0:
336,336,38613,1,8,0:0:0:0:
336,336,38688,1,8,0:0:0:0:
92,192,38838,1,8,0:0:0:0:
376,164,38988,1,8,0:0:0:0:
208,56,39138,1,8,0:0:0:0:
260,180,39288,2,0,L|240:288,1,95,2|8,0:0|0:0,0:0:0:0:
144,320,39588,6,0,P|88:340|16:280,1,161.500003080368,4|0,3:0|0:0,0:0:0:0:
64,164,40038,1,0,3:0:0:0:
380,332,40188,2,0,L|464:328,1,80.750001540184,8|0,0:0|0:0,0:0:0:0:
264,160,40488,2,0,L|256:244,1,80.750001540184,0|0,3:0|3:0,0:0:0:0:
208,80,40788,5,0,0:0:0:0:
208,80,40863,1,0,0:0:0:0:
208,80,40938,1,8,0:0:0:0:
364,232,41088,2,0,P|372:288|368:328,1,80.750001540184,0|0,0:0|3:0,0:0:0:0:
156,332,41388,2,0,P|148:276|152:236,1,80.750001540184,8|0,0:0|3:0,0:0:0:0:
52,32,41688,2,0,L|52:80,1,40.375000770092
132,164,41838,2,0,L|132:116,1,40.375000770092,8|8,0:0|0:0,0:0:0:0:
36,204,41988,6,0,P|56:240|64:300,1,80.750001540184,0|8,0:0|0:0,0:0:0:0:
68,304,42213,1,8,0:0:0:0:
68,328,42288,1,0,0:0:0:0:
216,348,42438,1,0,3:0:0:0:
32,188,42588,2,0,L|176:216,1,121.125002310276,8|0,0:0|0:0,0:0:0:0:
224,228,42888,1,0,3:0:0:0:
304,36,43038,6,0,L|396:56,1,80.750001540184,0|0,3:0|0:0,0:0:0:0:
224,228,43338,2,0,L|200:312,1,80.750001540184,8|0,0:0|0:0,0:0:0:0:
304,36,43638,2,0,L|276:132,1,80.750001540184,0|8,3:0|0:0,0:0:0:0:
408,200,43938,1,0,0:0:0:0:
147,232,44088,2,0,L|228:232,1,80.750001540184,0|8,0:0|0:0,0:0:0:0:
272,368,44388,6,0,B|232:308|232:308|292:312|312:228,1,161.500003080368,0|0,3:0|0:0,0:0:0:0:
340,200,44763,1,0,0:0:0:0:
340,200,44838,1,0,3:0:0:0:
152,312,44988,2,0,L|44:308,1,80.750001540184,8|0,0:0|0:0,0:0:0:0:
200,48,45288,2,0,L|208:136,1,80.750001540184,0|0,3:0|3:0,3:0:0:0:
316,356,45588,6,0,L|324:244,1,80.750001540184,0|8,0:0|0:0,0:0:0:0:
328,160,45888,1,0,0:0:0:0:
432,312,46038,1,0,3:0:0:0:
208,308,46188,1,8,0:0:0:0:
208,308,46263,1,8,0:0:0:0:
208,308,46338,2,0,P|172:232|104:236,1,161.500003080368,0|8,3:0|0:0,0:0:0:0:
48,288,46713,1,8,0:0:0:0:
48,288,46788,6,0,L|96:128,1,161.500003080368,0|0,3:0|0:0,0:0:0:0:
132,24,47238,1,0,3:0:0:0:
202,259,47388,2,0,L|228:336,1,80.750001540184,8|0,0:0|0:0,0:0:0:0:
308,100,47688,2,0,L|340:12,1,80.750001540184,0|0,3:0|3:0,3:0:0:0:
420,240,47988,5,0,0:0:0:0:
344,344,48138,1,8,0:0:0:0:
296,232,48288,1,0,0:0:0:0:
464,212,48438,1,0,3:0:0:0:
264,192,48588,1,8,0:0:0:0:
344,376,48738,1,0,3:0:0:0:
384,88,48888,5,0,0:0:0:0:
368,200,49038,1,0,0:0:0:0:
352,300,49188,2,0,B|320:328|320:328|280:240,1,121.125002310276,4|0,3:0|0:0,0:0:0:0:
220,232,49488,1,0,0:0:0:0:
64,336,49638,1,0,0:0:0:0:
56,156,49788,2,0,B|96:124|128:168|128:168|100:208|128:268,1,161.500003080368,8|0,0:0|3:0,0:0:0:0:
200,360,50238,1,0,3:0:0:0:
216,116,50388,6,0,L|240:28,1,80.750001540184,0|8,0:0|0:0,0:0:0:0:
320,280,50688,2,0,L|348:376,1,80.750001540184,0|0,0:0|3:0,0:0:0:0:
224,236,50988,1,8,0:0:0:0:
224,236,51063,1,0,0:0:0:0:
224,236,51138,2,0,L|52:260,1,161.500003080368,0|8,3:0|0:0,0:0:0:0:
24,316,51513,1,0,0:0:0:0:
24,316,51588,5,0,3:0:0:0:
48,56,51738,1,8,0:0:0:0:
52,80,51813,1,8,0:0:0:0:
56,104,51888,2,0,L|140:88,1,80.750001540184,0|0,0:0|3:0,0:0:0:0:
400,48,52188,2,0,L|252:88,1,121.125002310276,8|0,0:0|0:0,0:0:0:0:
256,148,52488,1,0,3:0:0:0:
404,360,52638,6,0,P|460:300|424:204,1,161.500003080368,0|8,3:0|0:0,0:0:0:0:
228,292,53088,2,0,L|336:304,1,80.750001540184
40,216,53388,2,0,L|160:232,1,121.125002310276,0|0,3:0|0:0,0:0:0:0:
472,216,53688,2,0,L|352:232,1,121.125002310276,0|0,3:0|0:0,0:0:0:0:
200,112,53988,6,0,P|192:56|192:20,1,80.750001540184,4|0,3:0|0:0,0:0:0:0:
248,220,54288,1,0,0:0:0:0:
172,312,54438,1,0,3:0:0:0:
352,232,54588,2,0,P|408:212|468:164,1,121.125002310276,8|0,0:0|0:0,0:0:0:0:
512,228,54888,1,0,3:0:0:0:
392,328,55038,6,0,L|260:320,1,121.125002310276
200,344,55338,1,8,0:0:0:0:
32,320,55488,1,0,0:0:0:0:
56,140,55638,1,0,3:0:0:0:
112,356,55788,1,8,0:0:0:0:
112,356,55863,1,0,0:0:0:0:
112,356,55938,2,0,P|136:288|232:264,1,161.500003080368,0|8,3:0|0:0,3:0:0:0:
288,268,56313,1,0,0:0:0:0:
364,276,56388,6,0,L|456:288,1,80.750001540184,0|8,3:0|0:0,3:0:0:0:
