osu file format v14

[General]
AudioFilename: audio.mp3
AudioLeadIn: 0
PreviewTime: 209333
Countdown: 0
SampleSet: None
StackLeniency: 0.4
Mode: 0
LetterboxInBreaks: 0
WidescreenStoryboard: 1

[Editor]
Bookmarks: 87333,92395,120365,127865,154865,219365,292865,312986,337921,350389
DistanceSpacing: 0.7
BeatDivisor: 16
GridSize: 8
TimelineZoom: 1

[Metadata]
Title:Haru ni Ochite
TitleUnicode:春に落ちて
Artist:Kano / R3 Music Box
ArtistUnicode:鹿乃 / R3 Music Box
Creator:sinn
Version:Bond
Source:実験品家族
Tags:Jikken-hin Kazoku: Creatures Family Days, Jikkenhin Kazoku Shiyan Pin Jiating ending ed full
BeatmapID:1685493
BeatmapSetID:802956

[Difficulty]
HPDrainRate:6
CircleSize:4
OverallDifficulty:8
ApproachRate:8.2
SliderMultiplier:3.2
SliderTickRate:1

[Events]
//Background and Video events
0,0,"shiyan.jpg",0,0
//Break Periods
2,87607,91677
2,174607,184677
2,210607,218615
2,293107,298825
//Storyboard Layer 0 (Background)
//Storyboard Layer 1 (Fail)
//Storyboard Layer 2 (Pass)
//Storyboard Layer 3 (Foreground)
//Storyboard Sound Samples

[TimingPoints]
3407,750,4,2,2,40,1,0
15407,-125,4,2,2,40,0,0
39407,-111.111111111111,4,2,2,50,0,0
48407,-125,4,2,2,50,0,0
48782,-83.3333333333333,4,2,2,60,0,0
49157,-62.5,4,2,2,70,0,0
49532,-100,4,2,2,70,0,0
50657,-55.5555555555556,4,2,2,60,0,0
50844,-50,4,2,2,70,0,0
51032,-45.4545454545455,4,2,2,80,0,0
51219,-41.6666666666667,4,2,2,90,0,0
51407,-71.4285714285714,4,2,5,75,0,1
51500,-71.4285714285714,4,2,2,75,0,1
63407,-71.4285714285714,4,2,5,75,0,1
63500,-71.4285714285714,4,2,2,75,0,1
75407,-71.4285714285714,4,2,0,75,0,1
75500,-71.4285714285714,4,2,2,75,0,1
83657,-100,4,2,2,75,0,1
84407,-100,4,2,2,60,0,0
87407,-100,4,2,2,20,0,0
90407,-100,4,2,2,50,0,0
97157,-125,4,2,2,50,0,0
124157,-125,4,2,3,50,0,0
124250,-125,4,2,2,50,0,0
127157,-125,4,2,3,50,0,0
127250,-125,4,2,2,50,0,0
141407,-125,4,2,2,60,0,1
142719,-125,4,2,2,65,0,0
142907,-125,4,2,2,70,0,1
143563,-125,4,2,2,70,0,0
143657,-125,4,2,2,80,0,1
144313,-125,4,2,2,80,0,0
144407,-71.4285714285714,4,2,0,75,0,1
144500,-71.4285714285714,4,2,2,75,0,1
156407,-71.4285714285714,4,2,0,75,0,1
156500,-71.4285714285714,4,2,2,75,0,1
168407,-71.4285714285714,4,2,0,75,0,1
168500,-71.4285714285714,4,2,2,75,0,1
172907,-100,4,2,0,60,0,0
173282,-100,4,2,2,50,0,0
173657,-100,4,2,2,40,0,0
174032,-100,4,2,2,30,0,0
174407,-100,4,2,2,60,0,0
189782,-83.3333333333333,4,2,2,60,0,0
190157,-71.4285714285714,4,2,2,60,0,0
190532,-62.5,4,2,2,60,0,0
191657,-100,4,2,2,60,0,0
198407,-125,4,2,2,60,0,0
204407,-166.666666666667,4,2,2,60,0,0
207407,-125,4,2,2,60,0,0
207782,-83.3333333333333,4,2,2,60,0,0
208157,-62.5,4,2,2,60,0,0
208532,-100,4,2,2,60,0,0
210407,-100,4,2,10,18,0,0
219407,-125,4,2,2,60,0,0
222407,-71.4285714285714,4,2,0,80,0,1
222500,-71.4285714285714,4,2,2,80,0,1
234407,-71.4285714285714,4,2,0,80,0,1
234500,-71.4285714285714,4,2,2,80,0,1
240782,-62.5,4,2,2,80,0,1
241157,-55.5555555555556,4,2,2,80,0,1
242094,-50,4,2,0,80,0,1
242188,-55.5555555555556,4,2,2,80,0,1
242657,-55.5555555555556,4,2,2,80,0,1
242844,-50,4,2,2,80,0,1
243032,-45.4545454545455,4,2,2,80,0,1
243219,-41.6666666666667,4,2,2,80,0,1
243407,-71.4285714285714,4,2,0,80,0,1
243500,-71.4285714285714,4,2,2,80,0,1
255407,-71.4285714285714,4,2,0,80,0,1
255500,-71.4285714285714,4,2,2,80,0,1
267407,-71.4285714285714,4,2,0,80,0,1
267500,-71.4285714285714,4,2,2,80,0,1
275657,-142.857142857143,4,2,2,60,0,0
276407,-142.857142857143,4,2,2,50,0,0
289625,-142.857142857143,4,2,2,5,0,0
292907,-142.857142857143,4,2,2,20,0,0
299545,779.220779220779,4,2,2,40,1,0
299545,-200,4,2,2,40,0,0
300519,779.220779220779,4,2,2,40,1,0
300519,-200,4,2,2,40,0,0
372207,857.142857142857,4,2,2,40,1,0
372207,-250,4,2,2,30,0,0
373921,-250,4,2,2,25,0,0
374424,857.142857142857,4,2,2,20,1,0
374424,-100,4,2,2,20,0,0
374893,1052.63157894737,4,2,2,15,1,0
374893,-100,4,2,2,15,0,0

[Colours]
Combo1 : 255,192,0
Combo2 : 255,128,192
Combo3 : 244,244,0
Combo4 : 255,43,43

[HitObjects]
97,331,3407,6,0,P|136:331|176:306,1,80,4|0,0:0|0:0,0:0:0:0:
214,264,3782,2,0,L|215:365,1,80,2|0,0:0|0:0,0:0:0:0:
117,250,4157,2,0,P|103:190|161:106,1,160,10|0,0:0|0:0,0:0:0:0:
213,165,4719,1,0,0:0:0:0:
306,44,4907,6,0,B|388:18|383:102|480:68,1,160,4|0,0:0|0:0,0:0:0:0:
510,10,5469,1,0,0:0:0:0:
334,122,5657,2,0,P|327:145|329:179,2,40,8|0|0,0:0|0:0|0:0,0:0:0:0:
408,185,6032,2,0,P|421:226|414:277,1,80
340,342,6407,6,0,L|245:337,1,80,4|0,0:0|0:0,0:0:0:0:
188,367,6782,2,0,P|207:338|211:284,1,80
95,165,7157,2,0,P|81:225|139:309,1,160,10|0,0:0|0:0,0:0:0:0:
166,234,7719,1,0,0:0:0:0:
260,338,7907,6,0,B|342:364|337:280|434:314,1,160,4|0,0:0|0:0,0:0:0:0:
472,360,8469,1,0,0:0:0:0:
500,285,8657,1,8,0:0:0:0:
457,218,8844,1,0,0:0:0:0:
410,307,9032,2,0,P|387:311|332:295,1,80
204,241,9407,6,0,L|208:330,1,80,4|0,0:0|0:0,0:0:0:0:
233,380,9782,2,0,P|200:360|143:364,1,80
28,337,10157,2,0,P|74:274|63:197,1,160,10|0,0:0|0:0,0:0:0:0:
0,245,10719,1,0,0:0:0:0:
162,313,10907,6,0,B|192:274|192:274|184:155,1,160,4|0,0:0|0:0,0:0:0:0:
148,92,11469,1,0,0:0:0:0:
63,197,11657,2,0,P|43:201|19:201,2,40,8|0|0,0:0|0:0|0:0,0:0:0:0:
32,105,12032,2,0,P|29:80|45:20,1,80
150,92,12407,6,0,P|183:98|239:85,1,80,4|0,0:0|0:0,0:0:0:0:
279,58,12782,2,0,L|274:159,1,80
114,231,13157,2,0,P|100:171|158:87,1,160,10|0,0:0|0:0,0:0:0:0:
188,162,13719,1,0,0:0:0:0:
279,58,13907,6,0,B|361:32|356:116|453:82,1,160,4|0,0:0|0:0,0:0:0:0:
483,24,14469,1,0,0:0:0:0:
307,136,14657,2,0,P|284:192|288:296,1,160,8|0,0:0|0:0,0:0:0:0:
314,364,15219,1,0,0:0:0:0:
317,111,15407,5,6,0:0:0:0:
317,111,15969,1,0,0:0:0:0:
246,176,16157,6,0,P|202:175|130:123,1,128,8|0,0:0|0:0,0:0:0:0:
126,53,16719,1,0,0:0:0:0:
215,18,16907,2,0,P|222:45|216:87,1,64,2|0,0:0|0:0,0:0:0:0:
63,56,17282,2,0,P|90:49|132:55,1,64
66,171,17657,2,0,P|73:132|127:171,1,128,10|0,0:0|0:0,0:0:0:0:
107,236,18219,1,0,0:0:0:0:
31,339,18407,6,0,B|97:322|88:377|181:349,1,128,4|0,0:0|0:0,0:0:0:0:
222,318,18969,1,0,0:0:0:0:
306,366,19157,2,0,P|317:334|316:295,1,64,8|0,0:0|0:0,0:0:0:0:
220,190,19532,2,0,L|222:330,1,128,4|0,0:0|0:0,0:0:0:0:
146,271,20094,1,2,0:0:0:0:
70,284,20282,1,2,0:0:0:0:
96,212,20469,1,2,0:0:0:0:
221,317,20657,6,0,P|230:289|228:251,1,64,8|0,0:0|0:0,0:0:0:0:
45,174,21032,2,0,P|64:195|98:213,1,64,2|0,0:0|0:0,0:0:0:0:
192,108,21407,6,0,B|195:21|195:21|160:56,1,128,4|0,0:0|0:0,0:0:0:0:
116,107,21969,1,0,0:0:0:0:
204,190,22157,2,0,P|225:184|260:153,1,64,8|0,0:0|0:0,0:0:0:0:
264,81,22532,1,0,0:0:0:0:
192,108,22719,1,0,0:0:0:0:
274,244,22907,6,0,L|356:241,1,64,4|0,0:0|0:0,0:0:0:0:
455,136,23282,2,0,P|433:159|422:189,1,64
421,285,23657,1,8,0:0:0:0:
457,367,23844,1,0,0:0:0:0:
367,363,24032,2,0,P|339:346|318:322,1,64,4|0,0:0|0:0,0:0:0:0:
261,180,24407,6,0,P|272:214|270:254,1,64,4|0,0:0|0:0,0:0:0:0:
198,222,24782,1,0,0:0:0:0:
280,98,24969,2,0,P|306:110|334:140,1,64,0|8,0:0|0:0,0:0:0:0:
272,242,25344,1,0,0:0:0:0:
193,149,25532,2,0,L|119:155,1,64
272,242,25907,5,6,0:0:0:0:
280,98,26094,1,0,0:0:0:0:
380,203,26282,1,2,0:0:0:0:
193,149,26469,1,0,0:0:0:0:
357,42,26657,2,0,L|430:48,1,64,10|0,0:0|0:0,0:0:0:0:
256,154,27032,2,0,L|183:148,1,64
344,322,27407,6,0,P|374:268|377:191,1,128,4|0,0:0|0:0,0:0:0:0:
306,227,27969,1,0,0:0:0:0:
254,335,28157,2,0,P|224:335|187:319,1,64,8|0,0:0|0:0,0:0:0:0:
133,272,28532,1,0,0:0:0:0:
202,232,28719,1,0,0:0:0:0:
55,310,28907,6,0,L|51:238,1,64,4|0,0:0|0:0,0:0:0:0:
116,184,29282,1,0,0:0:0:0:
133,272,29469,1,0,0:0:0:0:
54,128,29657,6,0,P|81:108|112:99,1,64,10|0,0:0|0:0,0:0:0:0:
192,137,30032,1,0,0:0:0:0:
116,184,30219,1,0,0:0:0:0:
183,51,30407,6,0,L|268:56,1,64,4|0,0:0|0:0,0:0:0:0:
329,58,30782,1,0,0:0:0:0:
284,187,30969,2,0,P|277:157|284:119,1,64,4|8,0:0|0:0,0:0:0:0:
360,153,31344,1,0,0:0:0:0:
366,236,31532,2,0,P|344:260|314:273,1,64,2|0,0:0|0:0,0:0:0:0:
228,253,31907,5,6,0:0:0:0:
283,123,32094,1,0,0:0:0:0:
366,236,32282,1,2,0:0:0:0:
191,159,32469,1,0,0:0:0:0:
368,83,32657,5,10,0:0:0:0:
228,253,32844,2,0,P|181:260|102:212,1,128,4|0,0:0|0:0,0:0:0:0:
78,155,33407,5,4,0:0:0:0:
228,253,34157,2,0,P|260:255|294:239,1,64,8|0,0:0|0:0,0:0:0:0:
344,189,34532,1,0,0:0:0:0:
254,128,34719,1,0,0:0:0:0:
148,237,34907,6,0,P|148:274|166:308,1,64,4|0,0:0|0:0,0:0:0:0:
312,149,35282,2,0,P|279:130|241:129,1,64
294,338,35657,2,0,P|348:313|302:276,1,128,10|0,0:0|0:0,0:0:0:0:
239,282,36219,1,0,0:0:0:0:
416,352,36407,6,0,B|457:292|380:271|447:179,1,128,4|0,0:0|0:0,0:0:0:0:
467,166,36969,2,0,P|411:176|370:111,1,128,2|0,0:0|0:0,0:0:0:0:
386,47,37532,2,0,P|418:58|444:88,1,64,2|0,0:0|0:0,0:0:0:0:
369,125,37907,5,4,0:0:0:0:
274,136,38094,1,0,0:0:0:0:
179,150,38282,2,0,L|186:227,1,64
187,226,38563,1,0,0:0:0:0:
189,238,38657,5,12,0:0:0:0:
171,70,38844,1,0,0:0:0:0:
65,203,39032,1,0,0:0:0:0:
274,136,39219,1,0,0:0:0:0:
94,77,39407,5,6,0:0:0:0:
179,150,39594,1,0,0:0:0:0:
65,203,39782,2,0,P|50:252|51:363,1,143.999995605469,2|8,0:0|0:0,0:0:0:0:
120,311,40344,2,0,L|202:316,2,71.9999978027344
207,235,40907,6,0,P|260:271|260:354,1,143.999995605469,4|0,0:0|0:0,0:0:0:0:
191,315,41469,1,0,0:0:0:0:
326,231,41657,2,0,P|350:218|403:215,1,71.9999978027344,10|0,0:0|0:0,0:0:0:0:
221,141,42032,2,0,P|197:128|144:125,1,71.9999978027344,2|0,0:0|0:0,0:0:0:0:
330,61,42407,6,0,L|335:138,1,71.9999978027344,4|0,0:0|0:0,0:0:0:0:
216,212,42782,2,0,L|221:135,1,71.9999978027344
311,214,43157,2,0,P|347:215|391:196,1,71.9999978027344,8|0,0:0|0:0,0:0:0:0:
427,139,43532,1,0,0:0:0:0:
330,61,43719,1,0,0:0:0:0:
376,274,43907,6,0,L|381:192,1,71.9999978027344,4|0,0:0|0:0,0:0:0:0:
295,230,44282,1,0,0:0:0:0:
433,335,44469,2,0,P|451:311|458:266,1,71.9999978027344
380,202,44844,1,0,0:0:0:0:
261,339,45032,2,0,L|348:339,1,71.9999978027344
295,230,45407,5,4,0:0:0:0:
295,230,46157,1,2,0:0:0:0:
295,230,46532,5,0,0:0:0:0:
370,271,46719,2,0,P|378:234|374:201,1,71.9999978027344
295,230,47094,1,0,0:0:0:0:
447,162,47282,2,0,P|426:138|385:121,1,71.9999978027344
292,310,47657,5,0,0:0:0:0:
295,230,48032,5,0,0:0:0:0:
192,68,48407,6,0,P|168:108|170:173,1,96,4|0,0:0|0:0,0:0:0:0:
126,281,48782,6,0,P|168:231|162:151,1,143.999995605469,6|0,0:0|0:0,0:0:0:0:
39,48,49157,6,0,P|74:133|172:154,1,192,14|0,0:0|0:0,0:0:0:0:
309,65,49532,5,6,0:0:0:0:
309,65,50469,1,4,0:0:0:0:
397,106,50657,6,0,P|380:130|340:157,1,71.9999978027344,2|0,0:0|0:0,0:0:0:0:
214,84,50844,2,0,P|230:122|271:153,1,80,2|0,0:0|0:0,0:0:0:0:
422,194,51032,2,0,P|392:222|345:239,1,88.000002685547,2|0,0:0|0:0,0:0:0:0:
180,203,51219,2,0,P|220:237|269:242,1,95.9999970703126,2|0,0:0|0:0,0:0:0:0:
309,65,51407,6,0,B|187:46|217:141|77:103,1,223.999993164063,4|0,0:0|0:0,0:0:0:0:
33,63,51969,1,0,0:0:0:0:
78,214,52157,2,0,P|97:170|93:97,1,111.999996582031,8|0,0:0|0:0,0:0:0:0:
21,270,52532,1,0,0:0:0:0:
79,352,52719,1,0,0:0:0:0:
170,233,52907,6,0,P|222:234|286:275,1,111.999996582031,4|0,0:0|0:0,0:0:0:0:
291,339,53282,1,0,0:0:0:0:
158,238,53469,1,0,0:0:0:0:
288,83,53657,6,0,P|307:123|306:196,1,111.999996582031,10|0,0:0|0:0,0:0:0:0:
273,261,54032,1,0,0:0:0:0:
184,161,54219,1,0,0:0:0:0:
276,67,54407,6,0,P|325:63|394:97,1,111.999996582031,4|0,0:0|0:0,0:0:0:0:
408,161,54782,1,0,0:0:0:0:
273,261,54969,1,0,0:0:0:0:
162,92,55157,6,0,P|125:71|55:66,1,111.999996582031,10|0,0:0|0:0,0:0:0:0:
75,142,55532,1,0,0:0:0:0:
181,12,55719,1,0,0:0:0:0:
252,194,55907,6,0,P|268:154|264:81,1,111.999996582031,6|0,0:0|0:0,0:0:0:0:
144,180,56282,2,0,P|184:196|257:192,1,111.999996582031,2|0,0:0|0:0,0:0:0:0:
157,72,56657,2,0,P|141:112|145:185,1,111.999996582031,10|0,0:0|0:0,0:0:0:0:
265,86,57032,2,0,L|398:94,1,111.999996582031,2|0,0:0|0:0,0:0:0:0:
251,193,57407,5,4,0:0:0:0:
251,193,57782,1,0,0:0:0:0:
178,245,57969,1,0,0:0:0:0:
301,125,58157,2,0,P|331:172|328:227,1,111.999996582031,8|0,0:0|0:0,0:0:0:0:
195,330,58532,1,0,0:0:0:0:
171,164,58719,1,0,0:0:0:0:
295,328,58907,5,4,0:0:0:0:
328,226,59094,1,0,0:0:0:0:
195,330,59282,2,0,L|79:323,1,111.999996582031
196,246,59657,2,0,P|254:272|276:319,1,111.999996582031,8|0,0:0|0:0,0:0:0:0:
195,330,60032,1,0,0:0:0:0:
89,234,60219,1,0,0:0:0:0:
250,161,60407,6,0,P|257:106|228:50,1,111.999996582031,4|0,0:0|0:0,0:0:0:0:
72,129,60782,2,0,P|65:184|94:240,1,111.999996582031
233,56,61157,2,0,L|120:64,1,111.999996582031,8|0,0:0|0:0,0:0:0:0:
250,161,61532,1,0,0:0:0:0:
313,98,61719,1,0,0:0:0:0:
246,245,61907,6,0,P|203:230|167:171,1,111.999996582031,4|0,0:0|0:0,0:0:0:0:
168,165,62188,1,0,0:0:0:0:
168,154,62282,1,10,0:0:0:0:
337,95,62469,1,0,0:0:0:0:
246,245,62657,1,10,0:0:0:0:
220,49,62844,1,0,0:0:0:0:
350,204,63032,1,10,0:0:0:0:
87,153,63219,2,0,P|92:124|107:97,1,55.9999982910157,10|0,0:0|0:0,0:0:0:0:
220,49,63407,6,0,B|215:128|215:128|233:179|233:179|225:284,1,223.999993164063,4|0,0:0|0:0,0:0:0:0:
145,210,63969,1,0,0:0:0:0:
317,103,64157,2,0,P|366:87|446:100,1,111.999996582031,10|0,0:0|0:0,0:0:0:0:
481,148,64532,1,0,0:0:0:0:
377,265,64719,1,0,0:0:0:0:
303,109,64907,6,0,P|294:59|314:0,1,111.999996582031,4|0,0:0|0:0,0:0:0:0:
386,30,65282,1,0,0:0:0:0:
315,182,65469,1,0,0:0:0:0:
193,61,65657,6,0,P|157:41|86:39,1,111.999996582031,10|0,0:0|0:0,0:0:0:0:
33,95,66032,1,0,0:0:0:0:
199,69,66219,1,0,0:0:0:0:
142,201,66407,6,0,L|147:323,1,111.999996582031,4|0,0:0|0:0,0:0:0:0:
253,196,66782,2,0,L|131:201,1,111.999996582031
257,307,67157,2,0,L|252:185,1,111.999996582031,10|0,0:0|0:0,0:0:0:0:
146,312,67532,1,0,0:0:0:0:
257,307,67719,1,0,0:0:0:0:
110,123,67907,6,0,P|69:159|61:224,1,111.999996582031,4|0,0:0|0:0,0:0:0:0:
335,208,68282,2,0,P|324:153|283:117,1,111.999996582031,4|0,0:0|0:0,0:0:0:0:
142,201,68657,2,0,L|147:322,1,111.999996582031,10|0,0:0|0:0,0:0:0:0:
283,117,69032,2,0,P|228:103|178:125,1,111.999996582031,2|0,0:0|0:0,0:0:0:0:
279,272,69407,6,0,L|398:280,1,111.999996582031,4|0,0:0|0:0,0:0:0:0:
332,361,69782,1,0,0:0:0:0:
339,182,69969,1,0,0:0:0:0:
502,287,70157,6,0,L|390:279,1,111.999996582031,10|0,0:0|0:0,0:0:0:0:
257,270,70532,1,2,0:0:0:0:
332,361,70719,1,0,0:0:0:0:
90,318,70907,6,0,L|98:199,1,111.999996582031,4|0,0:0|0:0,0:0:0:0:
179,265,71282,1,0,0:0:0:0:
0,258,71469,1,0,0:0:0:0:
105,95,71657,6,0,L|97:206,1,111.999996582031,10|0,0:0|0:0,0:0:0:0:
88,340,72032,1,2,0:0:0:0:
179,265,72219,1,0,0:0:0:0:
295,363,72407,6,0,P|321:323|327:246,1,111.999996582031,4|0,0:0|0:0,0:0:0:0:
296,189,72782,1,0,0:0:0:0:
179,265,72969,1,0,0:0:0:0:
315,363,73157,6,0,L|435:359,1,111.999996582031,10|0,0:0|0:0,0:0:0:0:
495,320,73532,1,2,0:0:0:0:
383,237,73719,1,0,0:0:0:0:
295,363,73907,6,0,P|251:349|216:284,1,111.999996582031,4|0,0:0|0:0,0:0:0:0:
252,225,74282,1,0,0:0:0:0:
315,363,74469,1,0,0:0:0:0:
462,236,74657,6,0,L|473:121,1,111.999996582031,10|0,0:0|0:0,0:0:0:0:
484,13,75032,1,0,0:0:0:0:
371,138,75219,1,0,0:0:0:0:
211,34,75407,6,0,B|141:-11|56:29|56:29|102:71|147:90,1,223.999993164063,4|0,0:0|0:0,0:0:0:0:
168,112,75969,1,0,0:0:0:0:
312,22,76157,2,0,L|306:139,1,111.999996582031,10|0,0:0|0:0,0:0:0:0:
155,217,76532,2,0,P|146:167|170:108,1,111.999996582031,2|0,0:0|0:0,0:0:0:0:
440,156,76907,6,0,B|388:190|388:190|209:171,1,223.999993164063,4|0,0:0|0:0,0:0:0:0:
155,217,77469,1,0,0:0:0:0:
10,132,77657,2,0,L|17:258,1,111.999996582031,10|0,0:0|0:0,0:0:0:0:
139,323,78032,2,0,B|160:281|160:281|154:212,1,111.999996582031,2|0,0:0|0:0,0:0:0:0:
100,59,78407,6,0,P|127:114|146:25,1,223.999993164063,4|0,0:0|0:0,0:0:0:0:
27,140,78969,1,0,0:0:0:0:
126,193,79157,2,0,B|255:212|192:95|360:129,1,223.999993164063,10|0,0:0|0:0,0:0:0:0:
401,168,79719,1,0,0:0:0:0:
311,310,79907,6,0,P|291:259|302:201,1,111.999996582031,6|0,0:0|0:0,0:0:0:0:
401,168,80282,1,0,0:0:0:0:
321,331,80469,1,0,0:0:0:0:
211,193,80657,6,0,P|234:142|284:114,1,111.999996582031,12|0,0:0|0:0,0:0:0:0:
401,168,81032,2,0,L|398:284,1,111.999996582031,2|0,0:0|0:0,0:0:0:0:
300,203,81407,6,0,B|194:221|207:126|77:161,2,223.999993164063,4|0|10,0:0|0:0|0:0,0:0:0:0:
401,168,82344,1,0,0:0:0:0:
285,20,82532,2,0,P|263:73|268:139,1,111.999996582031
396,23,82907,6,0,L|273:19,1,111.999996582031,4|4,0:0|0:0,0:0:0:0:
452,84,83282,1,0,0:0:0:0:
235,146,83657,6,0,B|240:70|344:68|365:159|325:218|275:217|275:217|275:306,1,320,4|2,0:0|0:0,0:0:0:0:
256,192,84500,12,2,87407,0:0:0:0:
38,347,92469,5,2,0:0:0:0:
54,346,92563,1,0,0:0:0:0:
68,339,92657,1,2,0:0:0:0:
31,272,92844,1,0,0:0:0:0:
109,236,93032,2,0,P|137:192|146:112,1,120,2|0,0:3|0:0,0:0:0:0:
96,33,93407,6,0,P|27:61|56:133,2,160,4|0|10,0:0|0:0|0:0,0:0:0:0:
147,125,94532,2,0,L|145:157,4,20,2|0|0|0|0,0:0|0:0|0:0|0:0|0:0,0:0:0:0:
209,48,94907,6,0,P|246:49|302:90,1,80,4|0,0:0|0:0,0:0:0:0:
317,141,95282,1,2,0:0:0:0:
208,278,95657,6,0,P|187:247|189:177,1,80,12|0,0:0|0:0,0:0:0:0:
222,136,96032,1,2,0:0:0:0:
266,203,96219,1,0,0:0:0:0:
139,135,96407,5,4,0:0:0:0:
139,135,96969,1,0,0:0:0:0:
241,81,97157,2,0,P|258:112|258:227,1,128,8|0,0:0|0:0,0:0:0:0:
232,272,97719,1,0,0:0:0:0:
139,135,97907,2,0,P|116:127|64:130,1,64,4|0,0:0|0:0,0:0:0:0:
265,202,98282,2,0,P|288:194|340:197,1,64,2|0,0:0|0:0,0:0:0:0:
183,333,98657,2,0,P|134:332|168:276,1,128,10|0,0:0|0:0,0:0:0:0:
232,272,99219,1,0,0:0:0:0:
351,361,99407,6,0,B|371:327|371:327|367:230,1,128,4|0,0:0|0:0,0:0:0:0:
326,174,99969,1,0,0:0:0:0:
281,294,100157,2,0,P|228:288|174:228,1,128,10|0,0:0|0:0,0:0:0:0:
200,163,100719,1,0,0:0:0:0:
255,217,100907,1,2,0:0:0:0:
104,256,101094,1,2,0:0:0:0:
145,105,101282,2,0,L|140:34,1,64,2|0,0:0|0:0,0:0:0:0:
73,148,101657,6,0,P|95:171|127:185,1,64,6|0,0:0|0:0,0:0:0:0:
113,283,102032,2,0,P|144:283|177:270,1,64,2|0,0:0|0:0,0:0:0:0:
267,222,102407,6,0,L|271:74,1,128,4|0,0:0|0:0,0:0:0:0:
308,27,102969,1,0,0:0:0:0:
409,147,103157,2,0,P|377:160|339:156,1,64,10|0,0:0|0:0,0:0:0:0:
274,137,103532,1,0,0:0:0:0:
289,212,103719,1,0,0:0:0:0:
205,84,103907,6,0,L|152:41,1,64,4|0,0:0|0:0,0:0:0:0:
213,188,104282,2,0,L|202:255,1,64
289,124,104657,2,0,P|322:113|355:115,1,64,8|0,0:0|0:0,0:0:0:0:
346,273,105032,1,0,0:0:0:0:
332,196,105219,1,0,0:0:0:0:
377,353,105407,6,0,L|307:350,1,64,4|0,0:0|0:0,0:0:0:0:
248,297,105782,1,0,0:0:0:0:
400,211,105969,2,0,P|421:239|427:272,1,64,0|10,0:0|0:0,0:0:0:0:
346,273,106344,1,0,0:0:0:0:
388,128,106532,2,0,P|417:129|452:147,1,64
346,273,106907,5,6,0:0:0:0:
388,128,107094,1,0,0:0:0:0:
270,222,107282,1,2,0:0:0:0:
400,211,107469,1,0,0:0:0:0:
290,119,107657,2,0,L|295:49,1,64,10|0,0:0|0:0,0:0:0:0:
193,248,108032,2,0,L|197:311,1,64,2|0,0:0|0:0,0:0:0:0:
80,186,108407,6,0,P|71:140|140:73,1,128,4|0,0:0|0:0,0:0:0:0:
175,139,108969,1,0,0:0:0:0:
256,66,109157,2,0,P|280:57|325:59,1,64,8|0,0:0|0:0,0:0:0:0:
379,114,109532,1,0,0:0:0:0:
297,137,109719,1,0,0:0:0:0:
418,198,109907,6,0,L|412:273,1,64,4|0,0:0|0:0,0:0:0:0:
339,223,110282,1,0,0:0:0:0:
331,312,110469,1,0,0:0:0:0:
267,182,110657,6,0,P|288:158|317:142,1,64,8|0,0:0|0:0,0:0:0:0:
339,223,111032,1,0,0:0:0:0:
271,270,111219,1,0,0:0:0:0:
191,146,111407,6,0,L|112:152,1,64,4|0,0:0|0:0,0:0:0:0:
167,224,111782,1,0,0:0:0:0:
252,92,111969,2,0,P|226:72|192:63,1,64,0|10,0:0|0:0,0:0:0:0:
127,150,112344,1,0,0:0:0:0:
332,112,112532,2,0,P|334:81|325:50,1,64,2|0,0:0|0:0,0:0:0:0:
267,182,112907,1,2,0:0:0:0:
205,250,113094,1,2,0:0:0:0:
332,112,113282,2,0,L|407:118,1,64,2|0,0:0|0:0,0:0:0:0:
355,191,113657,5,12,0:0:0:0:
371,38,113844,1,0,0:0:0:0:
260,145,114032,2,0,L|196:139,1,64,2|0,0:0|0:0,0:0:0:0:
355,191,114407,5,4,0:0:0:0:
355,191,115157,2,0,L|350:258,1,64,8|0,0:0|0:0,0:0:0:0:
430,231,115532,1,0,0:0:0:0:
309,122,115719,2,0,P|284:148|275:191,1,64,0|4,0:0|0:0,0:0:0:0:
300,254,116094,1,0,0:0:0:0:
355,191,116281,1,0,0:0:0:0:
220,237,116469,1,0,0:0:0:0:
309,348,116657,6,0,L|379:345,1,64,10|0,0:0|0:0,0:0:0:0:
453,322,117032,1,0,0:0:0:0:
388,243,117219,1,0,0:0:0:0:
235,384,117407,6,0,P|227:348|235:312,1,64,4|0,0:0|0:0,0:0:0:0:
269,237,117782,1,0,0:0:0:0:
152,322,117969,2,0,P|162:285|184:258,1,64,0|8,0:0|0:0,0:0:0:0:
305,347,118344,1,0,0:0:0:0:
113,259,118532,2,0,L|184:265,1,64,2|0,0:0|0:0,0:0:0:0:
32,254,118907,5,4,0:0:0:0:
67,329,119094,1,0,0:0:0:0:
113,259,119282,2,0,L|119:188,1,64,2|0,0:0|0:0,0:0:0:0:
54,65,119657,6,0,P|34:94|29:130,1,64,10|0,0:0|0:0,0:0:0:0:
118,195,120032,2,0,L|124:124,1,64,2|0,0:0|0:0,0:0:0:0:
176,69,120407,1,4,0:0:0:0:
256,192,120500,12,2,122282,0:0:0:0:
165,121,122657,5,6,0:0:0:0:
186,127,122750,1,0,0:0:0:0:
203,142,122844,1,2,0:0:0:0:
89,173,123032,2,0,L|16:167,1,64,2|0,0:0|0:0,0:0:0:0:
114,265,123407,6,0,B|72:256|35:189|98:134|158:145|189:197|189:197|210:241|254:263|301:273|376:237|371:179|304:127|278:187,1,512,6|4,0:0|0:0,0:0:0:0:
273,193,125282,1,2,0:0:0:0:
193,199,125469,1,0,0:0:0:0:
162,126,125657,1,10,0:0:0:0:
222,73,125844,1,0,0:0:0:0:
290,115,126032,2,0,P|321:117|358:100,1,64,2|0,0:0|0:0,0:0:0:0:
456,35,126407,6,0,B|391:126|538:166|528:264|481:317|432:324|368:272|386:182|386:182|355:212|301:203,1,512,4|6,0:0|0:0,0:0:0:0:
240,142,128094,1,0,0:0:0:0:
325,109,128282,1,0,0:0:0:0:
171,189,128657,5,10,0:0:0:0:
160,166,128750,1,0,0:0:0:0:
159,140,128844,1,2,0:0:0:0:
240,142,129032,2,0,L|239:63,1,64
139,58,129407,6,0,P|97:85|81:166,2,128,4|0|10,0:0|0:0|0:0,0:0:0:0:
220,145,130532,2,0,P|191:148|154:138,1,64,2|0,0:0|0:0,0:0:0:0:
264,92,130907,6,0,L|260:228,1,128,4|0,0:0|0:0,0:0:0:0:
325,281,131469,1,0,0:0:0:0:
278,349,131657,1,8,0:0:0:0:
197,337,131844,1,0,0:0:0:0:
167,260,132032,2,0,P|170:233|196:194,1,64,2|0,0:0|0:0,0:0:0:0:
341,349,132407,6,0,L|276:348,1,64,4|0,0:0|0:0,0:0:0:0:
406,296,132782,1,0,0:0:0:0:
406,296,133157,2,0,B|410:263|410:263|399:230,1,64,8|0,0:0|0:0,0:0:0:0:
332,269,133532,1,0,0:0:0:0:
283,187,133719,1,0,0:0:0:0:
198,325,133907,6,0,L|133:324,1,64,4|0,0:0|0:0,0:0:0:0:
257,270,134282,1,0,0:0:0:0:
257,270,134657,2,0,B|261:237|261:237|251:207,1,64,8|0,0:0|0:0,0:0:0:0:
166,170,135032,2,0,B|162:203|162:203|171:232,1,64,2|0,0:0|0:0,0:0:0:0:
257,84,135407,6,0,L|322:83,1,64,4|0,0:0|0:0,0:0:0:0:
184,45,135782,1,0,0:0:0:0:
184,45,136157,2,0,B|174:74|174:74|178:107,1,64,8|0,0:0|0:0,0:0:0:0:
257,84,136532,1,0,0:0:0:0:
186,189,136719,1,0,0:0:0:0:
71,59,136907,5,6,0:0:0:0:
35,134,137094,1,2,0:0:0:0:
118,127,137282,1,2,0:0:0:0:
81,201,137469,1,2,0:0:0:0:
182,73,137657,2,0,B|198:101|198:101|197:139,1,64,10|0,0:0|0:0,0:0:0:0:
96,260,138032,2,0,B|80:232|80:232|81:194,1,64
217,257,138407,6,0,L|215:333,1,64,4|0,0:0|0:0,0:0:0:0:
271,198,138782,1,0,0:0:0:0:
271,198,139157,2,0,B|301:209|301:209|344:202,1,64,10|0,0:0|0:0,0:0:0:0:
306,125,139532,1,0,0:0:0:0:
199,170,139719,1,0,0:0:0:0:
124,49,139907,6,0,L|58:54,1,64,4|0,0:0|0:0,0:0:0:0:
195,87,140282,1,0,0:0:0:0:
195,87,140657,2,0,B|226:98|226:98|259:88,1,64,10|0,0:0|0:0,0:0:0:0:
328,63,141032,1,12,0:0:0:0:
228,7,141219,1,0,0:0:0:0:
226,176,141407,5,4,0:0:0:0:
348,157,141594,1,0,0:0:0:0:
307,274,141782,1,2,0:0:0:0:
255,88,141969,1,0,0:0:0:0:
426,180,142157,1,8,0:0:0:0:
222,272,142344,1,0,0:0:0:0:
334,75,142532,1,2,0:0:0:0:
388,295,142719,1,2,0:0:0:0:
388,295,142813,1,2,0:0:0:0:
388,295,142907,5,12,0:0:0:0:
164,244,143094,1,0,0:0:0:0:
301,59,143282,1,8,0:0:0:0:
265,312,143469,1,0,0:0:0:0:
130,94,143657,5,12,0:0:0:0:
383,126,143844,1,12,0:0:0:0:
168,341,144032,1,12,0:0:0:0:
220,6,144219,1,12,0:0:0:0:
374,207,144407,6,0,B|259:175|279:283|140:234,1,223.999993164063,4|0,0:0|0:0,0:0:0:0:
89,188,144969,1,0,0:0:0:0:
193,43,145157,2,0,P|214:97|204:152,2,111.999996582031,10|0|0,0:0|0:0|0:0,0:0:0:0:
119,106,145719,1,0,0:0:0:0:
277,16,145907,6,0,B|432:24|432:24|394:32|339:82,1,223.999993164063,4|0,0:0|0:0,0:0:0:0:
324,120,146469,1,0,0:0:0:0:
448,227,146657,2,0,P|460:182|446:117,2,111.999996582031,10|0|0,0:0|0:0|0:0,0:0:0:0:
406,306,147219,1,0,0:0:0:0:
325,198,147407,6,0,B|251:201|251:201|197:235|197:235|106:237,1,223.999993164063,4|0,0:0|0:0,0:0:0:0:
152,132,147969,1,0,0:0:0:0:
290,278,148157,2,0,P|307:341|280:404,2,111.999996582031,10|0|0,0:0|0:0|0:0,0:0:0:0:
212,335,148719,1,0,0:0:0:0:
393,323,148907,6,0,P|433:316|482:264,1,111.999996582031,6|0,0:0|0:0,0:0:0:0:
457,180,149282,1,2,0:0:0:0:
402,239,149469,1,0,0:0:0:0:
376,163,149657,1,10,0:0:0:0:
481,266,149844,1,0,0:0:0:0:
439,91,150032,1,2,0:0:0:0:
325,228,150219,1,0,0:0:0:0:
255,63,150407,6,0,B|143:46|171:141|14:98,1,223.999993164063,4|0,0:0|0:0,0:0:0:0:
87,14,150969,1,0,0:0:0:0:
227,158,151157,2,0,P|255:209|244:282,2,111.999996582031,10|0|0,0:0|0:0|0:0,0:0:0:0:
162,231,151719,1,0,0:0:0:0:
288,339,151907,6,0,B|331:315|342:249|342:249|364:316|418:350,1,223.999993164063,4|0,0:0|0:0,0:0:0:0:
472,297,152469,1,0,0:0:0:0:
362,144,152657,2,0,P|341:195|343:255,2,111.999996582031,10|0|0,0:0|0:0|0:0,0:0:0:0:
424,94,153219,1,0,0:0:0:0:
386,336,153407,6,0,P|329:346|255:215,1,223.999993164063,4|0,0:0|0:0,0:0:0:0:
301,149,153969,1,0,0:0:0:0:
383,226,154157,2,0,P|434:228|499:183,2,111.999996582031,10|0|0,0:0|0:0|0:0,0:0:0:0:
301,149,154719,1,0,0:0:0:0:
207,299,154907,5,4,0:0:0:0:
251,223,155094,1,0,0:0:0:0:
299,298,155282,1,2,0:0:0:0:
161,222,155469,1,2,0:0:0:0:
161,222,155563,1,2,0:0:0:0:
161,222,155657,5,12,0:0:0:0:
340,216,155844,1,0,0:0:0:0:
256,375,156032,1,6,0:0:0:0:
256,131,156219,1,0,0:0:0:0:
165,331,156407,6,0,P|86:302|73:159,1,223.999993164063,4|0,0:0|0:0,0:0:0:0:
119,106,156969,1,0,0:0:0:0:
266,205,157157,2,0,P|213:227|152:219,2,111.999996582031,10|0|0,0:0|0:0|0:0,0:0:0:0:
329,141,157719,1,0,0:0:0:0:
196,54,157907,6,0,B|119:-6|31:32|51:133|137:100,1,223.999993164063,4|0,0:0|0:0,0:0:0:0:
201,139,158469,1,0,0:0:0:0:
287,35,158657,2,0,P|322:20|395:26,2,111.999996582031,10|0|0,0:0|0:0|0:0,0:0:0:0:
349,112,159219,1,0,0:0:0:0:
490,20,159407,6,0,B|481:90|481:90|506:150|506:150|489:251,1,223.999993164063,4|0,0:0|0:0,0:0:0:0:
438,310,159969,1,0,0:0:0:0:
381,188,160157,2,0,P|333:165|268:172,2,111.999996582031,10|0|0,0:0|0:0|0:0,0:0:0:0:
313,258,160719,1,0,0:0:0:0:
231,348,160907,6,0,P|199:304|194:243,1,111.999996582031,4|0,0:0|0:0,0:0:0:0:
275,169,161282,1,0,0:0:0:0:
313,258,161469,1,0,0:0:0:0:
277,72,161657,6,0,P|227:85|180:144,1,111.999996582031,10|0,0:0|0:0,0:0:0:0:
315,364,162032,2,0,P|328:314|301:243,1,111.999996582031,2|0,0:0|0:0,0:0:0:0:
96,352,162407,6,0,B|48:292|28:201|184:191|130:305,2,223.999993164063,4|0|10,0:0|0:0|0:0,0:0:0:0:
175,380,163344,1,0,0:0:0:0:
201,210,163532,2,0,P|166:171|105:153,1,111.999996582031,2|0,0:0|0:0,0:0:0:0:
245,293,163907,6,0,P|280:265|294:199,1,111.999996582031,4|0,0:0|0:0,0:0:0:0:
146,121,164282,2,0,P|152:165|202:210,1,111.999996582031,2|0,0:0|0:0,0:0:0:0:
331,83,164657,2,0,B|294:33|243:21|243:21|209:56|230:141,1,223.999993164063,10|0,0:0|0:0,0:0:0:0:
282,203,165219,1,0,0:0:0:0:
409,189,165407,6,0,B|491:203|581:102|449:27|449:171,1,223.999993164063,4|0,0:0|0:0,0:0:0:0:
398,205,165969,1,0,0:0:0:0:
312,96,166157,2,0,P|282:83|202:82,1,111.999996582031,10|0,0:0|0:0,0:0:0:0:
139,133,166532,1,0,0:0:0:0:
216,163,166719,1,0,0:0:0:0:
62,74,166907,6,0,P|45:119|58:187,1,111.999996582031,4|4,0:0|0:0,0:0:0:0:
134,223,167282,1,0,0:0:0:0:
139,133,167469,1,0,0:0:0:0:
95,296,167657,6,0,P|138:306|201:272,1,111.999996582031,10|0,0:0|0:0,0:0:0:0:
120,31,168032,2,0,P|110:74|144:137,1,111.999996582031
282,73,168407,6,0,B|390:45|379:133|498:101,2,223.999993164063,4|0|10,0:0|0:0|0:0,0:0:0:0:
206,121,169344,1,0,0:0:0:0:
327,148,169532,2,0,L|323:274,1,111.999996582031,2|0,0:0|0:0,0:0:0:0:
201,358,169907,6,0,B|119:388|65:372|49:278|92:268|148:330,2,223.999993164063,4|0|10,0:0|0:0|0:0,0:0:0:0:
266,315,170844,1,0,0:0:0:0:
176,248,171032,2,0,L|177:132,1,111.999996582031,2|0,0:0|0:0,0:0:0:0:
99,52,171407,6,0,P|146:96|258:9,1,223.999993164063,4|0,0:0|0:0,0:0:0:0:
176,19,171969,1,0,0:0:0:0:
51,113,172157,2,0,P|87:154|156:173,1,111.999996582031,10|0,0:0|0:0,0:0:0:0:
226,138,172532,1,0,0:0:0:0:
140,195,172719,1,0,0:0:0:0:
343,283,172907,5,4,0:0:0:0:
374,288,173282,5,2,0:0:0:0:
442,246,173657,5,8,0:0:0:0:
464,120,174032,5,2,0:0:0:0:
256,189,174407,5,4,0:0:0:0:
55,86,185469,5,2,0:0:0:0:
73,77,185563,1,0,0:0:0:0:
92,76,185657,1,2,0:0:0:0:
94,151,185844,1,0,0:0:0:0:
135,7,186032,2,0,P|167:47|173:95,1,80,2|0,0:0|0:0,0:0:0:0:
20,201,186407,6,0,L|180:195,1,160,4|0,0:0|0:0,0:0:0:0:
102,278,187157,2,0,L|11:283,1,80,10|0,0:0|0:0,0:0:0:0:
173,338,187532,1,0,0:0:0:0:
173,338,187907,5,4,0:0:0:0:
228,280,188094,1,0,0:0:0:0:
284,368,188282,1,0,0:0:0:0:
284,368,188657,6,0,P|322:367|362:347,2,80,10|0|0,0:0|0:0|0:0,0:0:0:0:
304,286,189219,1,0,0:0:0:0:
435,382,189407,6,0,P|442:349|430:304,1,80,4|0,0:0|0:0,0:0:0:0:
219,248,189782,2,0,P|254:276|304:285,1,95.9999970703126,6|0,0:0|0:0,0:0:0:0:
453,129,190157,2,0,P|406:153|379:209,1,111.999996582031,14|0,0:0|0:0,0:0:0:0:
464,41,190532,6,0,P|384:70|287:220,1,256,6|2,0:0|0:0,0:0:0:0:
303,285,191094,1,0,0:0:0:0:
484,39,191282,2,0,P|443:23|356:22,1,128,4|0,0:0|0:0,0:0:0:0:
284,59,191657,5,10,0:0:0:0:
214,98,191844,1,0,0:0:0:0:
208,18,192032,1,2,0:0:0:0:
287,138,192219,1,0,0:0:0:0:
144,66,192407,6,0,L|57:73,1,80,4|0,0:0|0:0,0:0:0:0:
195,130,192782,2,0,P|217:105|224:47,1,80,2|0,0:0|0:0,0:0:0:0:
119,144,193157,2,0,L|123:305,1,160,10|0,0:0|0:0,0:0:0:0:
126,384,193719,1,0,0:0:0:0:
211,299,193907,6,0,P|240:287|305:296,2,80,4|0|0,0:0|0:0|0:0,0:0:0:0:
260,367,194469,1,0,0:0:0:0:
369,307,194657,2,0,P|369:277|346:229,1,80,10|0,0:0|0:0,0:0:0:0:
181,182,195032,2,0,P|206:197|260:201,1,80,2|0,0:0|0:0,0:0:0:0:
324,135,195407,6,0,P|341:82|251:52,1,160,4|0,0:0|0:0,0:0:0:0:
236,120,195969,1,0,0:0:0:0:
397,162,196157,2,0,P|416:104|380:2,1,160,10|0,0:0|0:0,0:0:0:0:
317,46,196719,1,0,0:0:0:0:
390,180,196907,5,4,0:0:0:0:
363,255,197094,1,0,0:0:0:0:
307,198,197282,2,0,P|268:202|231:223,1,80,2|0,0:0|0:0,0:0:0:0:
281,357,197657,2,0,P|294:315|289:268,2,80,10|0|0,0:0|0:0|0:0,0:0:0:0:
212,307,198219,1,0,0:0:0:0:
103,344,198407,6,0,L|100:278,1,64,4|0,0:0|0:0,0:0:0:0:
20,240,198782,2,0,P|39:213|69:197,1,64,2|0,0:0|0:0,0:0:0:0:
154,214,199157,1,10,0:0:0:0:
154,214,199532,1,2,0:0:0:0:
224,170,199719,1,0,0:0:0:0:
306,246,199907,6,0,P|331:195|320:121,1,128,4|0,0:0|0:0,0:0:0:0:
272,60,200469,1,0,0:0:0:0:
161,162,200657,2,0,P|191:171|224:169,1,64,10|0,0:0|0:0,0:0:0:0:
106,102,201032,2,0,P|85:130|81:169,1,64
157,289,201407,6,0,L|161:159,2,128,4|0|10,0:0|0:0|0:0,0:0:0:0:
154,366,202344,1,0,0:0:0:0:
230,318,202532,1,0,0:0:0:0:
290,375,202719,1,0,0:0:0:0:
381,313,202907,6,0,P|396:276|374:191,1,128,6|0,0:0|0:0,0:0:0:0:
302,257,203469,2,0,P|248:268|186:225,1,128,2|0,0:0|0:0,0:0:0:0:
246,124,204032,2,0,P|259:160|256:196,1,64
188,59,204407,6,0,B|150:62|150:62|133:75|133:75|89:77,2,95.9999970703126,4|2|10,0:0|0:0|0:0,0:0:0:0:
18,81,205532,1,0,0:0:0:0:
98,210,205719,2,0,P|107:187|106:161,1,47.9999985351563,0|4,0:0|0:0,0:0:0:0:
27,168,206094,1,0,0:0:0:0:
113,292,206282,2,0,P|140:282|159:267,1,47.9999985351563
190,202,206657,1,10,0:0:0:0:
37,270,207032,1,2,0:0:0:0:
130,359,207407,6,0,P|153:321|154:269,1,96,4|0,0:0|0:0,0:0:0:0:
82,163,207782,6,0,P|95:232|158:271,1,143.999995605469,6|0,0:0|0:0,0:0:0:0:
266,139,208157,6,0,P|196:168|154:281,1,192,14|0,0:0|0:0,0:0:0:0:
285,384,208532,5,4,0:0:0:0:
256,192,208719,12,4,210407,0:0:0:0:
85,137,219407,6,0,P|127:146|93:63,1,192,4|0,0:0|0:0,0:0:0:0:
78,218,220157,2,0,P|122:227|203:185,1,128,10|0,0:0|0:0,0:0:0:0:
250,134,220719,1,2,0:0:0:0:
266,130,220813,1,0,0:0:0:0:
283,133,220907,5,4,0:0:0:0:
328,225,221094,1,0,0:0:0:0:
291,322,221282,1,2,0:0:0:0:
210,241,221469,1,2,0:0:0:0:
204,225,221563,1,2,0:0:0:0:
206,208,221657,5,12,0:0:0:0:
283,133,221844,1,8,0:0:0:0:
410,139,222032,1,10,0:0:0:0:
481,259,222219,1,12,0:0:0:0:
189,122,222407,6,0,P|241:45|363:81,1,223.999993164063,4|0,0:0|0:0,0:0:0:0:
283,133,222969,1,0,0:0:0:0:
151,197,223157,2,0,P|118:166|110:97,1,111.999996582031,8|0,0:0|0:0,0:0:0:0:
138,21,223532,1,0,0:0:0:0:
189,122,223719,1,0,0:0:0:0:
290,21,223907,6,0,B|399:-3|389:93|502:57,1,223.999993164063,4|0,0:0|0:0,0:0:0:0:
323,127,224469,1,2,0:0:0:0:
325,143,224563,1,0,0:0:0:0:
326,160,224657,2,0,L|440:161,1,111.999996582031,10|0,0:0|0:0,0:0:0:0:
272,238,225032,1,0,0:0:0:0:
189,122,225219,1,0,0:0:0:0:
111,269,225407,6,0,P|47:281|65:158,2,223.999993164063,4|0|10,0:0|0:0|0:0,0:0:0:0:
126,192,226344,1,0,0:0:0:0:
184,314,226532,2,0,P|224:316|295:276,1,111.999996582031,2|0,0:0|0:0,0:0:0:0:
248,119,226907,6,0,P|219:159|214:228,1,111.999996582031,4|4,0:0|0:0,0:0:0:0:
407,233,227282,2,0,P|367:203|298:198,1,111.999996582031,2|0,0:0|0:0,0:0:0:0:
278,294,227657,1,10,0:0:0:0:
330,122,227844,2,0,P|314:69|263:37,1,111.999996582031,0|2,0:0|0:0,0:0:0:0:
202,99,228219,1,2,0:0:0:0:
82,16,228407,6,0,B|49:74|49:74|64:237,1,223.999993164063,4|0,0:0|0:0,0:0:0:0:
77,319,228969,1,0,0:0:0:0:
167,235,229157,2,0,P|218:213|278:219,1,111.999996582031,10|0,0:0|0:0,0:0:0:0:
339,279,229532,1,0,0:0:0:0:
253,304,229719,1,0,0:0:0:0:
358,172,229907,6,0,B|372:17|372:17|345:46|306:73,1,223.999993164063,4|0,0:0|0:0,0:0:0:0:
267,141,230469,1,2,0:0:0:0:
219,57,230657,2,0,P|177:105|173:161,1,111.999996582031,10|0,0:0|0:0,0:0:0:0:
213,218,231032,1,0,0:0:0:0:
267,141,231219,1,2,0:0:0:0:
351,294,231407,6,0,P|378:259|374:187,1,111.999996582031,4|0,0:0|0:0,0:0:0:0:
320,63,231782,1,2,0:0:0:0:
213,218,231969,2,0,P|158:218|108:69,1,223.999993164063,2|0,0:0|0:0,0:0:0:0:
186,125,232532,1,2,0:0:0:0:
254,5,232719,1,0,0:0:0:0:
376,105,232907,6,0,P|388:160|374:214,1,111.999996582031,4|0,0:0|0:0,0:0:0:0:
334,293,233282,1,0,0:0:0:0:
108,213,233469,2,0,P|149:175|203:160,1,111.999996582031,2|10,0:0|0:0,0:0:0:0:
292,158,233844,1,0,0:0:0:0:
237,318,234032,1,0,0:0:0:0:
172,90,234219,1,0,0:0:0:0:
309,269,234407,6,0,L|434:264,1,111.999996582031,4|0,0:0|0:0,0:0:0:0:
219,217,234782,2,0,L|94:212,1,111.999996582031,2|0,0:0|0:0,0:0:0:0:
331,71,235157,2,0,P|359:120|353:180,1,111.999996582031,10|0,0:0|0:0,0:0:0:0:
265,140,235532,2,0,L|153:135,1,111.999996582031,2|0,0:0|0:0,0:0:0:0:
70,268,235907,6,0,P|144:312|221:212,1,223.999993164063,4|0,0:0|0:0,0:0:0:0:
127,184,236469,1,2,0:0:0:0:
134,206,236563,1,0,0:0:0:0:
141,228,236657,2,0,B|158:184|158:184|134:112,1,111.999996582031,10|0,0:0|0:0,0:0:0:0:
16,14,237032,2,0,P|58:47|121:43,1,111.999996582031,2|0,0:0|0:0,0:0:0:0:
228,23,237407,6,0,B|301:-4|301:-4|330:59|264:151,1,223.999993164063,4|0,0:0|0:0,0:0:0:0:
222,223,237969,1,0,0:0:0:0:
137,122,238157,2,0,P|99:119|36:173,1,111.999996582031,10|0,0:0|0:0,0:0:0:0:
94,310,238532,1,0,0:0:0:0:
114,201,238719,1,0,0:0:0:0:
213,322,238907,5,6,0:0:0:0:
32,241,239094,1,0,0:0:0:0:
203,134,239282,2,0,P|222:178|216:244,1,111.999996582031,2|0,0:0|0:0,0:0:0:0:
34,352,239657,2,0,L|31:234,1,111.999996582031,10|0,0:0|0:0,0:0:0:0:
112,184,240032,2,0,P|147:185|106:202,1,111.999996582031,2|0,0:0|0:0,0:0:0:0:
67,122,240407,6,0,P|115:100|182:111,1,111.999996582031,4|0,0:0|0:0,0:0:0:0:
199,16,240782,2,0,P|251:47|270:127,1,128,4|0,0:0|0:0,0:0:0:0:
371,130,241157,2,0,P|336:189|244:204,1,143.999995605469,12|0,0:0|0:0,0:0:0:0:
172,106,241532,1,0,0:0:0:0:
242,345,241719,2,0,P|267:298|264:202,1,143.999995605469,6|4,0:0|0:0,0:0:0:0:
165,103,242094,2,0,P|108:111|195:128,1,320,4|0,0:0|0:0,0:0:0:0:
247,52,242657,6,0,P|222:25|190:9,1,71.9999978027344,2|0,0:0|0:0,0:0:0:0:
331,106,242844,2,0,P|339:71|366:32,1,80,4|0,0:0|0:0,0:0:0:0:
202,143,243032,2,0,P|169:118|117:107,1,88.000002685547,2|0,0:0|0:0,0:0:0:0:
349,199,243219,2,0,P|380:163|425:148,1,95.9999970703126,2|0,0:0|0:0,0:0:0:0:
271,283,243407,6,0,B|162:255|171:343|49:307,1,223.999993164063,4|0,0:0|0:0,0:0:0:0:
104,219,243969,1,0,0:0:0:0:
236,360,244157,2,0,P|274:366|337:333,1,111.999996582031,10|0,0:0|0:0,0:0:0:0:
374,258,244532,1,0,0:0:0:0:
328,156,244719,1,0,0:0:0:0:
271,283,244907,6,0,L|155:279,1,111.999996582031,4|0,0:0|0:0,0:0:0:0:
0,223,245282,2,0,P|49:197|123:216,1,111.999996582031,2|0,0:0|0:0,0:0:0:0:
159,279,245657,1,10,0:0:0:0:
243,204,245844,2,0,L|240:90,1,111.999996582031,2|0,0:0|0:0,0:0:0:0:
164,129,246219,1,0,0:0:0:0:
265,16,246407,6,0,P|312:49|325:109,1,111.999996582031,4|0,0:0|0:0,0:0:0:0:
122,223,246782,2,0,P|127:165|172:124,1,111.999996582031,2|0,0:0|0:0,0:0:0:0:
453,239,247157,2,0,B|341:275|353:170|228:206,1,223.999993164063,12|0,0:0|0:0,0:0:0:0:
273,341,247719,1,2,0:0:0:0:
275,318,247813,1,0,0:0:0:0:
277,295,247907,6,0,L|161:298,1,111.999996582031,6|0,0:0|0:0,0:0:0:0:
71,301,248282,2,0,P|83:256|141:210,1,111.999996582031,2|0,0:0|0:0,0:0:0:0:
143,35,248657,2,0,P|175:67|186:141,1,111.999996582031,10|0,0:0|0:0,0:0:0:0:
228,223,249032,1,0,0:0:0:0:
93,119,249219,1,0,0:0:0:0:
276,54,249407,6,0,B|329:8|329:8|319:176,1,223.999993164063,4|0,0:0|0:0,0:0:0:0:
237,128,249969,1,0,0:0:0:0:
405,91,250157,2,0,P|453:89|511:143,1,111.999996582031,10|0,0:0|0:0,0:0:0:0:
391,255,250532,1,0,0:0:0:0:
432,169,250719,1,0,0:0:0:0:
359,336,250907,6,0,P|325:310|310:234,1,111.999996582031,4|0,0:0|0:0,0:0:0:0:
347,167,251282,1,2,0:0:0:0:
391,255,251469,1,0,0:0:0:0:
265,171,251657,6,0,L|151:177,1,111.999996582031,10|0,0:0|0:0,0:0:0:0:
70,144,252032,1,0,0:0:0:0:
138,86,252219,1,0,0:0:0:0:
80,227,252407,6,0,P|37:220|-8:169,2,111.999996582031,4|0|0,0:0|0:0|0:0,0:0:0:0:
153,176,252969,1,0,0:0:0:0:
247,235,253157,2,0,L|242:350,1,111.999996582031,10|0,0:0|0:0,0:0:0:0:
163,284,253532,1,0,0:0:0:0:
119,375,253719,1,0,0:0:0:0:
326,213,253907,6,0,P|303:173|237:153,1,111.999996582031,4|4,0:0|0:0,0:0:0:0:
170,205,254282,1,2,0:0:0:0:
250,321,254469,1,0,0:0:0:0:
272,321,254563,1,0,0:0:0:0:
292,311,254657,1,10,0:0:0:0:
247,235,254844,1,0,0:0:0:0:
164,312,255032,1,10,0:0:0:0:
97,151,255219,1,0,0:0:0:0:
292,311,255407,6,0,P|343:272|339:117,1,223.999993164063,4|0,0:0|0:0,0:0:0:0:
280,168,255969,1,0,0:0:0:0:
212,79,256157,2,0,P|177:52|102:55,1,111.999996582031,10|0,0:0|0:0,0:0:0:0:
122,208,256532,1,0,0:0:0:0:
145,128,256719,1,0,0:0:0:0:
68,266,256907,6,0,B|39:323|72:372|72:372|137:341|139:276,1,223.999993164063,4|0,0:0|0:0,0:0:0:0:
122,208,257469,1,2,0:0:0:0:
104,194,257563,1,0,0:0:0:0:
85,182,257657,2,0,P|34:191|-3:241,1,111.999996582031,10|0,0:0|0:0,0:0:0:0:
73,368,258032,1,2,0:0:0:0:
138,287,258219,1,0,0:0:0:0:
256,357,258407,6,0,B|345:388|384:323|384:323|352:294|303:317,2,223.999993164063,4|0|10,0:0|0:0|0:0,0:0:0:0:
184,303,259344,1,0,0:0:0:0:
292,208,259532,2,0,P|314:252|307:322,1,111.999996582031
207,162,259907,6,0,P|240:126|310:112,1,111.999996582031,4|4,0:0|0:0,0:0:0:0:
189,257,260282,2,0,P|138:232|113:183,1,111.999996582031,2|0,0:0|0:0,0:0:0:0:
144,100,260657,1,10,0:0:0:0:
292,208,260844,2,0,P|309:257|300:322,1,111.999996582031,2|0,0:0|0:0,0:0:0:0:
243,383,261219,1,0,0:0:0:0:
94,339,261407,6,0,B|94:268|94:268|124:219|124:219|125:112,1,223.999993164063,4|0,0:0|0:0,0:0:0:0:
37,193,261969,1,0,0:0:0:0:
182,300,262157,2,0,P|225:302|287:249,1,111.999996582031,10|0,0:0|0:0,0:0:0:0:
295,164,262532,1,0,0:0:0:0:
209,207,262719,1,0,0:0:0:0:
360,236,262907,6,0,B|419:270|470:258|518:227|470:130|410:189,1,223.999993164063,4|0,0:0|0:0,0:0:0:0:
341,244,263469,1,0,0:0:0:0:
295,164,263657,2,0,P|281:130|302:50,1,111.999996582031,10|0,0:0|0:0,0:0:0:0:
376,112,264032,1,0,0:0:0:0:
360,236,264219,1,0,0:0:0:0:
310,46,264407,6,0,L|194:54,1,111.999996582031,4|0,0:0|0:0,0:0:0:0:
114,100,264782,1,0,0:0:0:0:
91,195,264969,2,0,P|155:188|190:41,1,223.999993164063,2|0,0:0|0:0,0:0:0:0:
117,14,265532,1,2,0:0:0:0:
35,129,265719,1,0,0:0:0:0:
162,293,265907,6,0,L|167:181,1,111.999996582031,4|0,0:0|0:0,0:0:0:0:
78,234,266282,1,0,0:0:0:0:
217,357,266469,1,2,0:0:0:0:
233,342,266563,1,0,0:0:0:0:
243,315,266657,1,10,0:0:0:0:
119,363,266844,1,0,0:0:0:0:
342,321,267032,2,0,P|366:308|319:290,1,111.999996582031,2|0,0:0|0:0,0:0:0:0:
433,344,267407,6,0,P|437:249|310:202,1,223.999993164063,4|0,0:0|0:0,0:0:0:0:
257,242,267969,1,0,0:0:0:0:
119,363,268157,2,0,P|106:316|131:243,1,111.999996582031,10|0,0:0|0:0,0:0:0:0:
261,125,268532,2,0,P|226:159|151:174,1,111.999996582031,2|0,0:0|0:0,0:0:0:0:
77,49,268907,6,0,B|147:-1|207:69|207:69|180:104|119:104,1,223.999993164063,4|0,0:0|0:0,0:0:0:0:
54,123,269469,1,0,0:0:0:0:
279,16,269657,2,0,P|292:68|272:127,1,111.999996582031,10|0,0:0|0:0,0:0:0:0:
73,225,270032,2,0,P|111:187|172:175,1,111.999996582031,2|0,0:0|0:0,0:0:0:0:
269,230,270407,6,0,B|310:273|310:273|411:276|411:276|456:232|459:234|457:225,1,223.999993164063,4|0,0:0|0:0,0:0:0:0:
359,191,270969,1,2,0:0:0:0:
177,243,271157,2,0,P|175:207|222:148,1,111.999996582031,10|0,0:0|0:0,0:0:0:0:
269,230,271532,1,0,0:0:0:0:
235,314,271719,1,0,0:0:0:0:
167,91,271907,6,0,P|203:72|280:92,1,111.999996582031,4|4,0:0|0:0,0:0:0:0:
120,158,272282,2,0,P|90:123|95:54,1,111.999996582031,2|0,0:0|0:0,0:0:0:0:
219,149,272657,2,0,L|215:270,1,111.999996582031,10|0,0:0|0:0,0:0:0:0:
266,333,273032,2,0,P|217:349|159:320,1,111.999996582031
98,189,273407,6,0,P|188:159|203:273,2,223.999993164063,4|0|10,0:0|0:0|0:0,0:0:0:0:
127,274,274344,1,0,0:0:0:0:
299,274,274532,2,0,P|309:230|296:158,1,111.999996582031
255,85,274907,1,4,0:0:0:0:
293,294,275094,1,4,0:0:0:0:
393,173,275282,1,0,0:0:0:0:
186,220,275469,1,0,0:0:0:0:
380,334,275657,6,0,B|434:331|434:331|482:295|482:295|406:294,1,167.999994873047,6|0,0:0|0:0,0:0:0:0:
306,358,276407,6,0,P|277:362|242:353,2,55.9999982910157,4|0|0,0:0|0:0|0:0,0:0:0:0:
162,381,277157,2,0,L|158:263,1,111.999996582031,10|0,0:0|0:0,0:0:0:0:
196,200,277719,1,0,0:0:0:0:
279,278,277907,6,0,P|327:278|376:225,1,111.999996582031,4|0,0:0|0:0,0:0:0:0:
301,198,278469,1,0,0:0:0:0:
199,261,278657,2,0,P|196:276|198:294,2,27.9999991455078,10|0|0,0:0|0:0|0:0,0:0:0:0:
234,363,279032,2,0,P|206:372|172:368,1,55.9999982910157,2|0,0:0|0:0,0:0:0:0:
99,310,279407,6,0,L|43:313,2,55.9999982910157,4|0|0,0:0|0:0|0:0,0:0:0:0:
152,160,280157,2,0,P|100:179|72:232,1,111.999996582031,10|0,0:0|0:0,0:0:0:0:
153,244,280719,1,0,0:0:0:0:
243,180,280907,2,0,L|241:68,1,111.999996582031,4|0,0:0|0:0,0:0:0:0:
317,103,281469,1,0,0:0:0:0:
381,48,281657,2,0,P|402:44|443:51,1,55.9999982910157,10|0,0:0|0:0,0:0:0:0:
433,206,282032,2,0,P|405:210|377:206,1,55.9999982910157
407,127,282407,6,0,L|478:127,2,55.9999982910157,4|0|0,0:0|0:0|0:0,0:0:0:0:
284,73,283157,2,0,P|265:132|287:182,1,111.999996582031,10|0,0:0|0:0,0:0:0:0:
337,240,283719,1,0,0:0:0:0:
463,127,283907,2,0,L|343:126,1,111.999996582031,4|0,0:0|0:0,0:0:0:0:
282,176,284469,1,0,0:0:0:0:
197,84,284657,2,0,P|185:82|165:83,2,27.9999991455078,10|0|0,0:0|0:0|0:0,0:0:0:0:
86,131,285032,2,0,P|75:101|77:66,1,55.9999982910157,2|0,0:0|0:0,0:0:0:0:
169,82,285407,5,6,0:0:0:0:
175,160,285782,1,0,0:0:0:0:
114,240,286157,1,10,0:0:0:0:
120,318,286532,1,0,0:0:0:0:
175,160,286907,6,0,P|210:136|293:148,1,111.999996582031,4|0,0:0|0:0,0:0:0:0:
134,56,287657,2,0,L|18:63,1,111.999996582031,10|0,0:0|0:0,0:0:0:0:
175,160,288407,5,6,0:0:0:0:
255,222,288782,1,2,0:0:0:0:
334,160,289157,1,10,0:0:0:0:
438,95,289532,6,0,B|408:29|313:8|257:60|257:60|179:-16|-4:16|-14:261|250:355|250:355|379:311|431:212,1,1007.99996923828,2|0,0:0|0:0,0:0:0:0:
103,90,299545,6,0,P|80:92|61:101,2,40,2|0|2,0:0|0:0|0:0,0:0:0:0:
101,174,300129,2,0,L|100:217,1,40,2|2,0:0|0:0,0:0:0:0:
91,300,300519,6,0,P|132:297|171:267,1,80,2|0,0:0|0:0,0:0:0:0:
246,311,301103,2,0,P|250:291|248:258,1,40,2|0,0:0|0:0,0:0:0:0:
131,252,301493,2,0,P|146:265|175:280,1,40,2|0,0:0|0:0,0:0:0:0:
193,197,301882,2,0,L|192:108,1,80,2|0,0:0|0:0,0:0:0:0:
154,46,302467,1,2,0:0:0:0:
229,8,302661,2,0,P|236:26|236:52,1,40,2|0,0:0|0:0,0:0:0:0:
320,75,303051,2,0,P|312:92|293:111,1,40,2|0,0:0|0:0,0:0:0:0:
297,194,303441,6,0,P|257:182|226:145,1,80,2|0,0:0|0:0,0:0:0:0:
298,107,304025,2,0,L|385:110,2,80,2|0|2,0:0|0:0|0:0,0:0:0:0:
452,68,305194,6,0,P|462:109|454:147,1,80,2|0,0:0|0:0,0:0:0:0:
222,143,305973,2,0,P|214:103|224:65,1,80,2|0,0:0|0:0,0:0:0:0:
336,107,306752,1,2,0:0:0:0:
336,107,307142,6,0,L|334:149,1,40,2|0,0:0|0:0,0:0:0:0:
372,228,307531,2,0,P|329:234|288:219,1,80,2|0,0:0|0:0,0:0:0:0:
229,177,308116,1,2,0:0:0:0:
217,256,308311,6,0,L|214:298,2,40,2|0|0,0:0|0:0|0:0,0:0:0:0:
137,266,308895,1,2,0:0:0:0:
54,274,309090,2,0,P|55:249|63:225,1,40,2|0,0:0|0:0,0:0:0:0:
124,187,309480,1,2,0:0:0:0:
137,266,309674,2,0,L|131:310,1,40,2|0,0:0|0:0,0:0:0:0:
214,295,310064,1,0,0:0:0:0:
276,351,310259,6,0,P|291:326|294:271,1,80,2|0,0:0|0:0,0:0:0:0:
238,218,310843,1,2,0:0:0:0:
214,295,311038,1,2,0:0:0:0:
155,240,311233,1,2,0:0:0:0:
177,163,311428,2,0,P|179:144|176:123,1,40,2|0,0:0|0:0,0:0:0:0:
96,147,311817,1,2,0:0:0:0:
15,127,312012,2,0,P|12:146|14:166,1,40,2|0,0:0|0:0,0:0:0:0:
96,147,312402,2,0,L|95:64,1,80,2|0,0:0|0:0,0:0:0:0:
186,109,312986,6,0,P|226:115|271:94,1,80,2|0,0:0|0:0,0:0:0:0:
335,58,313570,2,0,P|343:76|348:109,1,40,2|0,0:0|0:0,0:0:0:0:
229,124,313960,2,0,P|244:110|261:100,1,40,2|0,0:0|0:0,0:0:0:0:
292,178,314349,2,0,L|274:256,1,80,2|0,0:0|0:0,0:0:0:0:
233,325,314934,1,2,0:0:0:0:
151,341,315129,2,0,P|149:322|155:297,1,40,2|0,0:0|0:0,0:0:0:0:
88,258,315519,2,0,P|100:243|121:229,1,40,2|0,0:0|0:0,0:0:0:0:
174,171,315908,6,0,P|195:197|203:248,1,80,2|0,0:0|0:0,0:0:0:0:
117,231,316493,2,0,L|37:234,2,80,2|0|2,0:0|0:0|0:0,0:0:0:0:
174,171,317467,1,2,0:0:0:0:
248,211,317661,6,0,P|256:190|258:169,1,40,2|0,0:0|0:0,0:0:0:0:
187,75,318051,2,0,P|201:92|218:104,1,40,2|0,0:0|0:0,0:0:0:0:
335,87,318441,2,0,P|312:90|293:99,1,40,2|0,0:0|0:0,0:0:0:0:
337,171,318830,2,0,L|386:168,1,40,2|0,0:0|0:0,0:0:0:0:
452,198,319220,5,2,0:0:0:0:
452,198,319609,2,0,L|449:249,1,40,2|0,0:0|0:0,0:0:0:0:
476,322,319999,2,0,P|436:324|398:304,1,80,2|0,0:0|0:0,0:0:0:0:
351,244,320583,1,2,0:0:0:0:
306,310,320778,6,0,L|261:306,2,40,2|0|0,0:0|0:0|0:0,0:0:0:0:
280,384,321363,1,2,0:0:0:0:
196,392,321557,2,0,P|200:359|211:337,1,40,2|0,0:0|0:0,0:0:0:0:
266,306,321947,1,2,0:0:0:0:
195,273,322142,1,2,0:0:0:0:
120,308,322337,6,0,P|112:284|113:268,1,40,2|0,0:0|0:0,0:0:0:0:
162,206,322726,1,2,0:0:0:0:
195,273,322921,2,0,P|214:262|231:236,1,40,2|0,0:0|0:0,0:0:0:0:
162,206,323311,2,0,L|166:162,2,40,2|0|2,0:0|0:0|0:0,0:0:0:0:
84,171,323895,6,0,P|90:129|123:94,1,80,2|2,0:0|0:0,0:0:0:0:
165,166,324480,2,0,L|210:163,1,40,2|0,0:0|0:0,0:0:0:0:
282,141,324869,1,2,0:0:0:0:
348,195,325064,2,0,P|358:176|366:146,1,40,2|0,0:0|0:0,0:0:0:0:
294,65,325454,6,0,B|278:92|278:92|282:151,2,80,2|0|2,0:0|0:0|0:0,0:0:0:0:
348,195,326622,1,2,0:0:0:0:
253,299,327012,2,0,L|173:293,1,80,2|0,0:0|0:0,0:0:0:0:
295,366,327791,1,2,0:0:0:0:
358,304,328181,1,2,0:0:0:0:
429,372,328570,6,0,P|447:346|455:296,1,80,2|0,0:0|0:0,0:0:0:0:
307,244,329350,2,0,P|320:272|359:304,1,80,2|0,0:0|0:0,0:0:0:0:
442,214,330129,2,0,P|414:215|390:222,2,40,2|0|2,0:0|0:0|0:0,0:0:0:0:
357,303,330908,1,2,0:0:0:0:
303,224,331298,1,2,0:0:0:0:
259,309,331687,6,0,B|227:317|220:293|171:302,2,80,2|0|2,0:0|0:0|0:0,0:0:0:0:
194,384,332856,1,2,0:0:0:0:
111,353,333246,1,2,0:0:0:0:
180,300,333635,1,2,0:0:0:0:
98,269,334025,1,2,0:0:0:0:
98,269,334609,5,2,0:0:0:0:
163,211,334804,2,0,P|171:179|155:124,2,80,2|0|2,0:0|0:0|0:0,0:0:0:0:
88,173,335973,1,2,0:0:0:0:
127,55,336363,2,0,P|148:49|181:52,1,40,2|0,0:0|0:0,0:0:0:0:
239,5,336752,2,0,P|251:28|251:55,1,40,2|0,0:0|0:0,0:0:0:0:
217,114,337142,5,2,0:0:0:0:
172,180,337337,1,2,0:0:0:0:
233,243,337531,1,2,0:0:0:0:
165,311,337726,1,2,0:0:0:0:
291,305,337921,6,0,P|312:272|311:216,1,80,2|0,0:0|0:0,0:0:0:0:
318,149,338506,2,0,P|288:153|267:164,1,40,2|0,0:0|0:0,0:0:0:0:
323,270,338895,2,0,P|319:240|308:219,1,40,2|0,0:0|0:0,0:0:0:0:
240,264,339285,2,0,L|153:259,1,80,2|0,0:0|0:0,0:0:0:0:
91,219,339869,1,2,0:0:0:0:
40,153,340064,2,0,P|58:141|76:136,1,40,2|0,0:0|0:0,0:0:0:0:
85,57,340454,2,0,P|106:61|122:70,1,40,2|0,0:0|0:0,0:0:0:0:
203,40,340843,6,0,P|209:79|195:121,1,80,2|0,0:0|0:0,0:0:0:0:
122,70,341428,2,0,L|41:68,2,80,2|0|2,0:0|0:0|0:0,0:0:0:0:
203,40,342402,1,2,0:0:0:0:
280,69,342596,6,0,P|269:91|257:103,1,40,2|0,0:0|0:0,0:0:0:0:
262,222,342986,2,0,P|248:201|244:185,1,40,2|0,0:0|0:0,0:0:0:0:
134,139,343376,2,0,P|158:137|174:141,1,40,2|0,0:0|0:0,0:0:0:0:
149,221,343765,2,0,L|102:220,1,40,2|0,0:0|0:0,0:0:0:0:
34,248,344155,5,2,0:0:0:0:
34,248,344544,2,0,L|36:298,1,40,2|0,0:0|0:0,0:0:0:0:
1,366,344934,2,0,P|43:375|91:357,1,80,2|0,0:0|0:0,0:0:0:0:
141,315,345519,1,0,0:0:0:0:
198,371,345713,6,0,L|246:368,2,40,2|0|0,0:0|0:0|0:0,0:0:0:0:
213,292,346298,1,2,0:0:0:0:
295,304,346493,2,0,P|296:283|291:261,1,40,2|0,0:0|0:0,0:0:0:0:
230,214,346882,1,2,0:0:0:0:
213,292,347077,2,0,L|167:288,1,40,2|0,0:0|0:0,0:0:0:0:
104,248,347467,1,2,0:0:0:0:
35,295,347661,6,0,P|22:265|27:217,1,80,2|0,0:0|0:0,0:0:0:0:
90,169,348246,1,2,0:0:0:0:
104,248,348441,1,2,0:0:0:0:
169,202,348635,1,2,0:0:0:0:
180,285,348830,2,0,P|203:279|222:267,1,40,2|0,0:0|0:0,0:0:0:0:
257,201,349220,1,2,0:0:0:0:
306,134,349415,2,0,P|324:150|333:169,1,40,2|0,0:0|0:0,0:0:0:0:
257,201,349804,2,0,L|171:199,1,80,2|0,0:0|0:0,0:0:0:0:
81,231,350389,6,0,P|76:200|90:153,1,80,2|0,0:0|0:0,0:0:0:0:
132,84,350973,2,0,P|152:97|167:125,1,40,2|0,0:0|0:0,0:0:0:0:
81,192,351363,2,0,P|82:168|99:141,1,40,2|0,0:0|0:0,0:0:0:0:
162,187,351752,2,0,L|260:185,1,80,2|0,0:0|0:0,0:0:0:0:
312,146,352337,1,2,0:0:0:0:
386,105,352531,2,0,P|394:130|394:150,1,40,2|0,0:0|0:0,0:0:0:0:
476,175,352921,2,0,P|463:198|449:212,1,40,2|0,0:0|0:0,0:0:0:0:
466,296,353311,6,0,P|431:291|389:258,1,80,2|0,0:0|0:0,0:0:0:0:
454,208,353895,2,0,L|457:126,2,80,2|0|2,0:0|0:0|0:0,0:0:0:0:
395,265,354869,1,2,0:0:0:0:
339,204,355064,6,0,P|321:225|316:246,1,40,2|0,0:0|0:0,0:0:0:0:
339,355,355454,2,0,P|329:328|314:314,1,40,2|0,0:0|0:0,0:0:0:0:
205,292,355843,2,0,P|232:297|252:290,1,40,2|0,0:0|0:0,0:0:0:0:
227,213,356233,2,0,L|174:209,1,40,2|0,0:0|0:0,0:0:0:0:
112,238,356622,5,2,0:0:0:0:
112,238,357012,2,0,L|109:194,1,40,2|0,0:0|0:0,0:0:0:0:
69,130,357402,2,0,P|108:117|151:127,1,80,2|0,0:0|0:0,0:0:0:0:
202,181,357986,1,2,0:0:0:0:
262,128,358181,6,0,L|307:126,2,40,2|0|0,0:0|0:0|0:0,0:0:0:0:
280,50,358765,1,2,0:0:0:0:
355,12,358960,2,0,P|362:32|362:53,1,40,2|0,0:0|0:0,0:0:0:0:
327,123,359350,1,2,0:0:0:0:
376,186,359544,1,2,0:0:0:0:
297,241,359739,6,0,L|300:327,1,80,2|0,0:0|0:0,0:0:0:0:
238,381,360324,2,0,P|218:346|220:300,1,80,2|0,0:0|0:0,0:0:0:0:
299,324,360908,1,2,0:0:0:0:
375,291,361103,1,2,0:0:0:0:
297,241,361298,6,0,L|294:161,1,80,2|0,0:0|0:0,0:0:0:0:
377,137,361882,2,0,P|360:109|313:83,1,80,2|0,0:0|0:0,0:0:0:0:
254,159,362467,2,0,P|275:163|299:159,1,40,2|0,0:0|0:0,0:0:0:0:
193,108,362856,6,0,B|177:135|177:135|180:202,2,80,2|0|2,0:0|0:0|0:0,0:0:0:0:
113,224,364025,1,2,0:0:0:0:
215,321,364415,2,0,L|309:318,1,80,2|0,0:0|0:0,0:0:0:0:
168,382,365194,1,2,0:0:0:0:
111,315,365583,1,2,0:0:0:0:
29,369,365973,6,0,P|14:335|18:289,1,80,2|0,0:0|0:0,0:0:0:0:
170,266,366752,2,0,P|148:295|106:315,1,80,2|0,0:0|0:0,0:0:0:0:
54,229,367531,2,0,P|76:227|106:239,2,40,2|0|0,0:0|0:0|0:0,0:0:0:0:
110,314,368311,1,2,0:0:0:0:
183,252,368700,1,2,0:0:0:0:
261,308,369090,6,0,B|293:316|300:292|349:301,2,80,2|0|2,0:0|0:0|0:0,0:0:0:0:
326,383,370259,1,2,0:0:0:0:
409,352,370649,1,0,0:0:0:0:
346,261,371038,2,0,P|339:280|340:303,1,40,2|0,0:0|0:0,0:0:0:0:
422,293,371428,1,2,0:0:0:0:
422,293,372012,5,0,0:0:0:0:
346,261,372207,2,0,L|278:264,1,64,2|0,0:0|0:0,0:0:0:0:
350,176,373064,2,0,P|382:183|413:211,1,64,2|0,0:0|0:0,0:0:0:0:
346,261,373921,5,2,0:0:0:0:
268,291,374424,5,2,0:0:0:0:
350,176,374893,5,2,0:0:0:0:
