osu file format v14

[General]
AudioFilename: Kannamix - Cerulean (Nostalgia Remix) - remix.mp3
AudioLeadIn: 0
PreviewTime: 229021
Countdown: 2
SampleSet: Soft
StackLeniency: 0.2
Mode: 0
LetterboxInBreaks: 1
WidescreenStoryboard: 1

[Editor]
Bookmarks: 33095,44004,54913,65481,76731,87629,109458,131277,142186,153095,164004,174913,185819,207640,229458,251277,273095
DistanceSpacing: 1.8
BeatDivisor: 4
GridSize: 16
TimelineZoom: 3.099999

[Metadata]
Title:Cerulean (Nostalgia Remix)
TitleUnicode:Cerulean (Nostalgia Remix)
Artist:Kannamix feat. Veela
ArtistUnicode:Kannamix feat. Veela
Creator:Echoy
Version:Insane
Source:
Tags:drumstep dubstep dnb edm electronic 幻電放映 pixiv id=412469
BeatmapID:864967
BeatmapSetID:397704

[Difficulty]
HPDrainRate:6
CircleSize:4.3
OverallDifficulty:8
ApproachRate:9.5
SliderMultiplier:1.8
SliderTickRate:1

[Events]
//Background and Video events
0,0,"bg2.jpg",0,0
//Break Periods
2,133993,152559
//Storyboard Layer 0 (Background)
//Storyboard Layer 1 (Fail)
//Storyboard Layer 2 (Pass)
//Storyboard Layer 3 (Foreground)
//Storyboard Layer 4 (Overlay)
//Storyboard Sound Samples

[TimingPoints]
357,340.909090909091,4,2,1,10,1,0
33084,-100,4,2,0,70,0,0
34447,-200,4,2,0,70,0,0
35811,-100,4,2,0,70,0,0
37175,-200,4,2,0,70,0,0
38538,-100,4,2,0,70,0,0
39902,-200,4,2,2,70,0,0
43993,-200,4,1,0,50,0,0
45357,-200,4,1,0,55,0,0
46720,-200,4,1,0,60,0,0
48084,-200,4,1,0,65,0,0
49447,-200,4,1,0,65,0,0
50811,-200,4,1,0,60,0,0
52175,-200,4,1,0,55,0,0
53538,-200,4,1,0,50,0,0
54902,-100,4,2,1,70,0,0
56692,-80,4,2,1,70,0,0
57203,-76.9230769230769,4,2,1,70,0,0
57288,-90.9090909090909,4,2,1,70,0,0
57374,-111.111111111111,4,2,1,70,0,0
57459,-142.857142857143,4,2,1,70,0,0
57544,-200,4,2,1,70,0,0
57629,-66.6666666666667,4,2,1,80,0,0
58993,-58.8235294117647,4,2,1,90,0,0
60357,-58.8235294117647,4,1,1,70,0,0
65470,-50,4,2,1,70,0,0
66152,-66.6666666666667,4,2,2,70,0,0
68538,-50,4,2,2,70,0,0
68879,-66.6666666666667,4,2,2,70,0,0
70925,-50,4,2,2,70,0,0
71266,-66.6666666666667,4,2,2,70,0,0
73993,-50,4,2,2,70,0,0
74334,-66.6666666666667,4,2,2,70,0,0
76720,-200,4,2,2,70,0,1
77061,-133.333333333333,4,2,2,70,0,1
77402,-117.647058823529,4,2,2,70,0,1
77743,-105.263157894737,4,2,2,70,0,1
78084,-95.2380952380952,4,2,2,70,0,1
78425,-86.9565217391304,4,2,2,70,0,1
78766,-100,4,2,2,70,0,1
79447,-66.6666666666667,4,2,2,70,0,1
79788,-133.333333333333,4,2,2,70,0,1
80129,-117.647058823529,4,2,2,70,0,1
80470,-105.263157894737,4,2,2,70,0,1
80811,-95.2380952380952,4,2,2,70,0,1
81152,-86.9565217391304,4,2,2,70,0,1
81493,-100,4,2,2,70,0,1
82175,-66.6666666666667,4,2,2,70,0,1
82516,-133.333333333333,4,2,2,70,0,1
82857,-117.647058823529,4,2,2,70,0,1
83197,-105.263157894737,4,2,2,70,0,1
83538,-95.2380952380952,4,2,2,70,0,1
83879,-86.9565217391304,4,2,2,70,0,1
84220,-100,4,2,2,70,0,1
84902,-66.6666666666667,4,2,2,70,0,1
85243,-133.333333333333,4,2,2,70,0,1
85584,-117.647058823529,4,2,2,70,0,1
85925,-105.263157894737,4,2,2,70,0,1
86266,-95.2380952380952,4,2,2,70,0,1
86607,-86.9565217391304,4,2,2,70,0,1
86947,-66.6666666666667,4,2,1,70,0,1
86947,-66.6666666666667,4,2,2,70,0,1
87629,-200,4,2,2,70,0,0
88311,-100,4,2,2,70,0,0
89163,-66.6666666666667,4,2,2,70,0,0
93084,-200,4,2,2,70,0,0
93766,-66.6666666666667,4,2,2,70,0,0
95802,-100,4,2,2,70,0,0
95982,-100,4,2,2,5,0,0
96493,-66.6666666666667,4,2,2,70,0,0
98538,-200,4,2,1,70,0,0
98709,-200,4,2,2,70,0,0
99732,-100,4,2,2,70,0,0
100072,-66.6666666666667,4,2,2,70,0,0
103993,-200,4,2,2,70,0,0
105186,-66.6666666666667,4,2,2,70,0,0
108084,-50,4,2,2,70,0,0
108766,-200,4,2,2,70,0,0
109021,-200,4,2,1,70,0,1
109447,-50,4,2,0,70,0,1
109788,-66.6666666666667,4,2,0,70,0,1
112175,-50,4,2,0,70,0,1
112516,-66.6666666666667,4,2,0,70,0,1
114561,-50,4,2,0,70,0,1
114902,-66.6666666666667,4,2,0,70,0,1
117970,-50,4,2,0,70,0,1
118993,-66.6666666666667,4,2,0,70,0,1
119331,-66.6666666666667,4,2,0,70,0,1
120357,-50,4,2,1,80,0,1
120697,-66.6666666666667,4,2,0,70,0,1
123084,-50,4,2,0,70,0,1
123425,-66.6666666666667,4,2,0,70,0,1
125470,-50,4,2,0,70,0,1
125811,-66.6666666666667,4,2,0,70,0,1
128538,-50,4,2,0,70,0,1
128879,-66.6666666666667,4,2,0,70,0,1
130925,-66.6666666666667,4,1,0,50,0,1
131266,-1000,4,2,1,30,0,0
133993,-200,4,2,1,30,0,0
159135,-200,4,2,1,5,0,0
159220,-200,4,2,1,30,0,0
159476,-200,4,2,1,5,0,0
159561,-200,4,2,1,30,0,0
159987,-200,4,2,1,5,0,0
160072,-200,4,2,1,30,0,0
160328,-200,4,2,1,5,0,0
160413,-200,4,2,1,30,0,0
160839,-200,4,2,1,5,0,0
160925,-200,4,2,1,30,0,0
161180,-200,4,2,1,5,0,0
161266,-200,4,2,1,30,0,0
161521,-200,4,2,1,5,0,0
161607,-200,4,2,1,30,0,0
161862,-200,4,2,1,5,0,0
161947,-200,4,2,1,30,0,0
162203,-200,4,2,1,5,0,0
162288,-200,4,2,1,30,0,0
162800,-200,4,2,1,30,0,0
163822,-142.857142857143,4,2,1,60,0,0
163993,-200,4,2,1,60,0,0
164277,-200,4,2,1,5,0,0
164334,-142.857142857143,4,2,1,60,0,0
165357,-111.111111111111,4,2,1,60,0,0
166720,-142.857142857143,4,2,1,60,0,0
166976,-111.111111111111,4,2,1,5,0,0
167061,-142.857142857143,4,2,1,60,0,0
168084,-111.111111111111,4,2,1,60,0,0
169107,-90.9090909090909,4,2,1,60,0,0
169192,-90.9090909090909,4,2,1,5,0,0
169277,-90.9090909090909,4,2,1,60,0,0
169362,-90.9090909090909,4,2,1,5,0,0
169447,-142.857142857143,4,2,1,60,0,0
169703,-142.857142857143,4,2,1,5,0,0
169788,-111.111111111111,4,2,1,60,0,0
170811,-90.9090909090909,4,2,1,60,0,0
171834,-76.9230769230769,4,2,1,60,0,0
171919,-76.9230769230769,4,2,1,5,0,0
172004,-76.9230769230769,4,2,1,60,0,0
172089,-76.9230769230769,4,2,1,5,0,0
172175,-111.111111111111,4,2,1,60,0,0
172430,-111.111111111111,4,2,1,5,0,0
172516,-90.9090909090909,4,2,1,60,0,0
173538,-76.9230769230769,4,2,1,60,0,0
173794,-76.9230769230769,4,2,1,5,0,0
173879,-76.9230769230769,4,2,1,60,0,0
174476,-76.9230769230769,4,2,1,5,0,0
174561,-76.9230769230769,4,2,1,60,0,0
174902,-133.333333333333,4,2,2,60,0,0
177629,-100,4,2,2,60,0,0
180357,-100,4,1,2,40,0,0
183084,-200,4,2,1,60,0,0
183766,-200,4,2,2,40,0,0
184447,-200,4,2,2,30,0,0
185129,-200,4,2,1,20,0,0
185811,-50,4,2,0,60,0,0
186152,-66.6666666666667,4,2,0,60,0,0
188538,-50,4,2,0,60,0,0
188879,-66.6666666666667,4,2,0,60,0,0
190925,-50,4,2,0,60,0,0
191607,-66.6666666666667,4,2,0,60,0,0
193993,-50,4,2,0,60,0,0
194334,-66.6666666666667,4,2,0,60,0,0
195868,-100,4,2,0,60,0,0
196209,-80,4,2,0,60,0,0
196379,-66.6666666666667,4,2,0,60,0,0
196720,-50,4,2,0,60,0,0
197061,-66.6666666666667,4,2,0,60,0,0
199447,-50,4,2,0,60,0,0
199788,-66.6666666666667,4,2,0,60,0,0
201834,-50,4,2,0,60,0,0
202516,-66.6666666666667,4,2,0,60,0,0
204902,-50,4,2,0,60,0,0
205243,-66.6666666666667,4,2,0,60,0,0
207629,-200,4,2,2,60,0,0
208822,-100,4,2,2,60,0,0
209163,-66.6666666666667,4,2,2,60,0,0
213084,-200,4,2,2,60,0,0
214277,-66.6666666666667,4,2,2,60,0,0
215811,-100,4,2,2,60,0,0
216493,-66.6666666666667,4,2,2,60,0,0
218538,-200,4,2,2,60,0,0
219220,-66.6666666666667,4,2,2,60,0,0
223993,-200,4,2,2,60,0,0
224675,-66.6666666666667,4,2,2,60,0,0
228084,-50,4,2,2,60,0,0
228766,-200,4,2,2,60,0,0
229107,-200,4,1,0,30,0,0
229703,-200,4,1,0,5,0,0
229788,-133.333333333333,4,2,2,60,0,1
230129,-117.647058823529,4,2,2,60,0,1
230470,-105.263157894737,4,2,2,60,0,1
230811,-95.2380952380952,4,2,2,60,0,1
231152,-86.9565217391304,4,2,2,60,0,1
231493,-133.333333333333,4,2,2,60,0,1
231834,-100,4,2,2,60,0,1
232175,-66.6666666666667,4,2,2,60,0,1
232516,-133.333333333333,4,2,2,60,0,1
232857,-117.647058823529,4,2,2,60,0,1
233197,-105.263157894737,4,2,2,60,0,1
233538,-95.2380952380952,4,2,2,60,0,1
233879,-86.9565217391304,4,2,2,60,0,1
234220,-133.333333333333,4,2,2,60,0,1
234561,-100,4,2,2,60,0,1
234902,-66.6666666666667,4,2,2,60,0,1
235243,-133.333333333333,4,2,2,60,0,1
235584,-117.647058823529,4,2,2,60,0,1
235925,-105.263157894737,4,2,2,60,0,1
236266,-95.2380952380952,4,2,2,60,0,1
236607,-86.9565217391304,4,2,2,60,0,1
236947,-133.333333333333,4,2,2,60,0,1
237288,-100,4,2,2,60,0,1
237629,-66.6666666666667,4,2,2,60,0,1
237970,-133.333333333333,4,2,2,60,0,1
238311,-117.647058823529,4,2,2,60,0,1
238652,-105.263157894737,4,2,2,60,0,1
238993,-95.2380952380952,4,2,2,60,0,1
239334,-86.9565217391304,4,2,2,60,0,1
239675,-80,4,2,2,60,0,1
240016,-74.0740740740741,4,2,2,60,0,1
240357,-200,4,2,2,70,0,1
240697,-133.333333333333,4,2,2,70,0,1
241038,-117.647058823529,4,2,2,70,0,1
241379,-105.263157894737,4,2,2,70,0,1
241720,-95.2380952380952,4,2,2,70,0,1
242061,-86.9565217391304,4,2,2,70,0,1
242402,-133.333333333333,4,2,2,70,0,1
242743,-100,4,2,2,70,0,1
243084,-66.6666666666667,4,2,2,70,0,1
243425,-133.333333333333,4,2,2,70,0,1
243766,-117.647058823529,4,2,2,70,0,1
244107,-105.263157894737,4,2,2,70,0,1
244447,-95.2380952380952,4,2,2,70,0,1
244788,-86.9565217391304,4,2,2,70,0,1
245129,-133.333333333333,4,2,2,70,0,1
245470,-100,4,2,2,70,0,1
245811,-66.6666666666667,4,2,2,70,0,1
246152,-133.333333333333,4,2,2,70,0,1
246493,-117.647058823529,4,2,2,70,0,1
246834,-105.263157894737,4,2,2,70,0,1
247175,-95.2380952380952,4,2,2,70,0,1
247516,-86.9565217391304,4,2,2,70,0,1
247857,-133.333333333333,4,2,2,70,0,1
248197,-100,4,2,2,70,0,1
248538,-66.6666666666667,4,2,2,70,0,1
248879,-133.333333333333,4,2,2,70,0,1
249220,-117.647058823529,4,2,2,70,0,1
249561,-105.263157894737,4,2,2,70,0,1
249902,-95.2380952380952,4,2,2,70,0,1
250243,-86.9565217391304,4,2,2,70,0,1
250584,-66.6666666666667,4,2,2,70,0,1
250839,-66.6666666666667,4,2,2,5,0,1
250925,-66.6666666666667,4,2,2,40,0,1
251266,-200,4,2,2,40,0,0
251521,-100,4,2,2,70,0,0
272743,-100,4,1,2,30,0,0

[Colours]
Combo1 : 128,128,255
Combo2 : 215,133,250

[HitObjects]
206,346,33084,5,4,0:0:0:0:
206,346,33595,2,0,L|206:226,1,90
206,124,34447,2,0,B|204:84|230:60|260:61|260:61|307:67|310:124|310:124|310:275,1,315,2|0,0:0|2:0,0:0:0:0:
311,35,35811,1,0,0:0:0:0:
311,35,36322,2,0,L|310:143,1,90
310,256,37175,2,0,B|311:295|285:320|255:319|255:319|208:313|205:255|205:255|205:110,1,315,4|0,0:0|2:0,0:0:0:0:
203,13,38538,5,0,0:0:0:0:
203,13,39050,2,0,P|146:19|116:43,1,90
14,143,39561,2,0,P|80:144|140:209,1,135
191,277,39902,6,0,B|229:338|305:367|364:344|382:292|343:277|343:277|304:266|281:313,1,315,4|0,0:0|0:0,0:0:0:0:
256,192,41266,12,0,42800,0:0:0:0:
295,231,43993,5,12,0:3:0:0:
256,247,44163,1,0,0:0:0:0:
216,231,44333,1,0,0:0:0:0:
200,192,44504,1,0,0:0:0:0:
216,152,44675,1,0,0:0:0:0:
256,136,44845,1,0,0:0:0:0:
295,152,45016,1,0,0:0:0:0:
311,192,45186,1,0,0:0:0:0:
315,251,45357,5,4,0:2:0:0:
340,192,45527,1,0,0:0:0:0:
315,131,45697,1,0,0:0:0:0:
256,106,45868,1,0,0:0:0:0:
195,131,46038,1,0,0:0:0:0:
170,192,46209,1,0,0:0:0:0:
195,251,46380,1,0,0:0:0:0:
256,276,46550,1,0,0:0:0:0:
338,274,46720,5,4,0:2:0:0:
256,307,46890,1,0,0:0:0:0:
172,274,47060,1,0,0:0:0:0:
139,192,47231,1,0,0:0:0:0:
172,108,47402,1,0,0:0:0:0:
256,75,47572,1,0,0:0:0:0:
338,108,47743,1,0,0:0:0:0:
371,192,47913,1,0,0:0:0:0:
360,296,48084,5,4,0:2:0:0:
404,192,48254,1,0,0:0:0:0:
360,87,48424,1,0,0:0:0:0:
256,43,48595,1,0,0:0:0:0:
151,87,48765,1,0,0:0:0:0:
107,192,48936,1,0,0:0:0:0:
151,296,49107,1,0,0:0:0:0:
256,340,49277,1,0,0:0:0:0:
348,284,49447,5,4,0:2:0:0:
254,323,49617,1,0,0:0:0:0:
162,284,49788,1,0,0:0:0:0:
123,192,49959,1,0,0:0:0:0:
162,98,50129,1,0,0:0:0:0:
254,59,50300,1,0,0:0:0:0:
348,98,50470,1,0,0:0:0:0:
387,192,50640,1,0,0:0:0:0:
331,114,50811,5,4,0:2:0:0:
256,83,50981,1,0,0:0:0:0:
178,114,51152,1,0,0:0:0:0:
147,192,51322,1,0,0:0:0:0:
178,267,51493,1,0,0:0:0:0:
256,298,51664,1,0,0:0:0:0:
331,267,51834,1,0,0:0:0:0:
362,192,52004,1,0,0:0:0:0:
314,250,52174,5,4,0:2:0:0:
256,276,52344,1,0,0:0:0:0:
194,250,52515,1,0,0:0:0:0:
169,192,52686,1,0,0:0:0:0:
194,130,52856,1,0,0:0:0:0:
256,105,53027,1,0,0:0:0:0:
314,130,53197,1,0,0:0:0:0:
340,192,53367,1,0,0:0:0:0:
300,144,53538,5,4,0:2:0:0:
256,126,53708,1,0,0:0:0:0:
208,144,53879,1,0,0:0:0:0:
190,192,54049,1,0,0:0:0:0:
208,236,54220,1,0,0:0:0:0:
256,255,54391,1,0,0:0:0:0:
300,236,54561,1,0,0:0:0:0:
319,192,54732,1,0,0:0:0:0:
256,192,54902,5,4,1:3:0:0:
256,192,55072,1,4,1:3:0:0:
281,122,55243,2,0,P|254:100|232:94,1,45,8|0,0:3|0:3,0:0:0:0:
153,88,55584,2,0,P|126:92|90:110,1,45,8|0,0:3|0:3,0:0:0:0:
43,162,55925,2,0,P|26:188|21:232,1,45,8|0,0:3|0:0,0:0:0:0:
27,300,56266,6,0,P|38:331|59:357,1,45,8|0,0:3|0:0,0:0:0:0:
156,384,56493,2,0,P|193:379|215:366,1,60,0|8,0:0|0:3,0:0:0:0:
272,314,56692,6,0,P|291:273|289:237,1,56.25,0|4,0:0|0:3,0:0:0:0:
291,185,56862,2,0,P|274:139|252:112,1,56.25,0|8,0:0|0:3,0:0:0:0:
201,83,57033,2,0,P|155:72|123:77,1,56.25,0|4,0:0|0:3,0:0:0:0:
64,87,57203,6,0,L|40:72,1,29.2499986610413
46,104,57288,2,0,L|23:97,1,24.7500007553101,8|0,0:3|0:0,0:0:0:0:
33,130,57374,2,0,L|14:126,1,20.2499993820191
29,157,57459,2,0,L|14:158,1,15.7499995193482,4|0,0:3|0:0,0:0:0:0:
35,184,57544,2,0,L|24:184,1,11.25
55,201,57629,6,0,L|63:273,1,67.5000025749208,4|0,1:3|0:0,0:0:0:0:
219,215,57800,2,0,L|209:117,1,67.5000025749208,4|0,1:3|0:0,0:0:0:0:
133,175,57970,6,0,L|141:247,1,67.5000025749208,4|0,1:3|0:0,0:0:0:0:
297,189,58141,2,0,L|287:91,1,67.5000025749208,4|0,1:3|0:0,0:0:0:0:
212,147,58311,6,0,L|220:219,1,67.5000025749208,4|0,1:3|0:0,0:0:0:0:
376,161,58482,2,0,L|366:63,1,67.5000025749208,4|0,1:3|0:0,0:0:0:0:
290,121,58652,6,0,L|298:193,1,67.5000025749208,4|0,1:3|0:0,0:0:0:0:
454,135,58823,2,0,L|444:37,1,67.5000025749208,4|0,1:3|0:0,0:0:0:0:
269,40,58993,6,0,L|181:32,1,76.5000014591217,4|0,1:2|0:0,0:0:0:0:
243,344,59163,2,0,L|331:351,1,76.5000014591217,4|0,1:3|0:0,0:0:0:0:
349,77,59334,6,0,L|261:69,1,76.5000014591217,0|0,1:0|0:0,0:0:0:0:
163,307,59504,2,0,L|251:314,1,76.5000014591217,4|0,1:3|0:0,0:0:0:0:
430,113,59675,6,0,L|342:105,1,76.5000014591217,4|0,1:3|0:0,0:0:0:0:
82,271,59845,2,0,L|170:278,1,76.5000014591217,4|0,1:3|0:0,0:0:0:0:
512,155,60016,6,0,L|424:147,1,76.5000014591217,4|0,1:3|0:0,0:0:0:0:
0,229,60186,2,0,L|88:236,1,76.5000014591217,4|0,1:3|0:0,0:0:0:0:
499,72,60357,5,4,0:3:0:0:
479,55,60442,1,4,0:3:0:0:
451,56,60527,1,4,0:3:0:0:
434,75,60612,1,4,0:3:0:0:
421,111,60697,1,4,0:3:0:0:
405,146,60783,1,4,0:3:0:0:
371,162,60868,1,4,0:3:0:0:
332,160,60953,1,4,0:3:0:0:
296,145,61038,5,4,0:3:0:0:
270,116,61124,1,4,0:3:0:0:
263,78,61209,1,4,0:3:0:0:
269,40,61294,1,4,0:3:0:0:
294,11,61379,1,4,0:3:0:0:
331,6,61464,1,4,0:3:0:0:
367,17,61550,1,4,0:3:0:0:
386,49,61635,1,4,0:3:0:0:
388,87,61720,5,4,0:3:0:0:
342,93,61805,1,4,0:3:0:0:
296,99,61891,1,4,0:3:0:0:
250,105,61976,1,4,0:3:0:0:
204,111,62061,1,4,0:3:0:0:
158,117,62146,1,4,0:3:0:0:
112,123,62232,1,4,0:3:0:0:
66,130,62317,1,4,0:3:0:0:
20,135,62402,5,4,0:3:0:0:
79,146,62487,1,4,0:3:0:0:
138,157,62572,1,4,0:3:0:0:
198,168,62658,1,4,0:3:0:0:
257,179,62743,1,4,0:3:0:0:
316,191,62828,1,4,0:3:0:0:
375,203,62913,1,4,0:3:0:0:
435,215,62999,1,4,0:3:0:0:
494,227,63084,5,4,0:3:0:0:
372,241,63425,1,4,0:3:0:0:
250,256,63766,1,4,0:3:0:0:
128,271,64107,1,4,0:3:0:0:
6,286,64447,1,4,0:3:0:0:
171,307,64618,5,4,0:3:0:0:
128,271,64703,1,4,0:3:0:0:
144,237,64788,1,4,1:3:0:0:
368,124,64959,5,4,0:3:0:0:
382,73,65044,1,4,0:3:0:0:
339,68,65129,1,4,1:3:0:0:
245,23,65300,5,4,0:3:0:0:
245,23,65470,2,0,B|220:81|251:117|251:117|313:148|313:224|263:258|176:272,1,270,4|0,0:0|0:0,0:0:0:0:
173,228,65811,6,0,P|191:311|275:321,1,180,4|0,1:1|0:0,0:0:0:0:
410,333,66152,2,0,L|276:322,1,135.000005149842,8|0,1:0|0:0,0:0:0:0:
281,308,66408,1,0,0:0:0:0:
286,293,66493,1,0,0:0:0:0:
290,278,66578,1,0,0:0:0:0:
296,260,66663,2,0,P|256:217|254:133,1,135.000005149842,8|8,1:0|1:0,0:0:0:0:
280,127,66919,1,0,0:0:0:0:
326,127,67004,1,0,0:0:0:0:
369,160,67089,1,0,0:0:0:0:
390,208,67175,6,0,P|329:133|414:54,1,202.500007724762,4|0,1:2|0:0,0:0:0:0:
512,86,67516,2,0,P|497:128|469:149,1,67.5000025749208,0|0,1:0|0:0,0:0:0:0:
390,208,67686,2,0,B|265:248|295:164|148:212,1,202.500007724762,4|0,0:0|0:0,0:0:0:0:
79,226,68027,2,0,P|101:274|146:296,1,67.5000025749208,8|0,1:0|0:0,0:0:0:0:
238,302,68197,2,0,B|267:235|267:235|279:85,1,202.500007724762,8|0,1:0|0:0,0:0:0:0:
382,57,68538,6,0,P|446:27|498:124,1,180,0|0,1:0|0:0,0:0:0:0:
269,358,68879,2,0,B|213:347|212:247,1,135.000005149842,8|0,1:0|0:0,0:0:0:0:
201,122,69135,1,0,0:0:0:0:
168,153,69220,1,0,0:0:0:0:
126,163,69306,1,0,0:0:0:0:
83,161,69391,2,0,P|24:130|18:27,1,135.000005149842,8|8,1:0|1:0,0:0:0:0:
154,19,69646,1,0,0:0:0:0:
221,12,69731,1,0,0:0:0:0:
280,43,69816,1,0,0:0:0:0:
313,101,69902,6,0,P|296:197|222:242,1,135.000005149842,4|0,1:2|0:0,0:0:0:0:
212,247,70158,1,0,0:0:0:0:
145,252,70243,2,0,L|77:245,1,67.5000025749208,8|0,1:0|0:0,0:0:0:0:
308,363,70413,1,4,0:0:0:0:
350,367,70499,1,0,0:0:0:0:
388,343,70584,1,0,0:0:0:0:
427,349,70670,1,0,0:0:0:0:
457,319,70754,1,0,1:0:0:0:
501,120,70925,6,0,P|497:55|418:27,1,90,8|0,1:0|0:0,0:0:0:0:
398,17,71095,2,0,P|402:82|481:110,1,90
481,211,71266,2,0,P|421:151|336:168,1,135.000005149842,0|0,1:0|0:0,0:0:0:0:
225,154,71607,2,0,B|138:170|138:170|84:161,1,135.000005149842,8|0,1:0|0:0,0:0:0:0:
7,52,71862,1,0,0:0:0:0:
39,59,71947,1,0,0:0:0:0:
65,80,72032,1,0,0:0:0:0:
112,144,72118,2,0,B|159:151|159:151|244:135,1,135.000005149842,8|8,1:0|1:0,0:0:0:0:
376,110,72374,2,0,L|368:42,2,67.5000025749208
483,71,72629,6,0,B|501:160|433:199|433:199|419:259,1,202.500007724762,4|0,1:2|0:0,0:0:0:0:
496,364,72970,2,0,L|516:277,1,67.5000025749208,8|0,1:0|0:0,0:0:0:0:
315,179,73141,2,0,B|299:248|299:248|254:165|132:205,1,202.500007724762,4|0,0:0|0:0,0:0:0:0:
43,252,73482,2,0,L|109:263,1,67.5000025749208,8|0,1:0|0:0,0:0:0:0:
201,87,73652,1,8,1:0:0:0:
136,89,73737,1,0,0:0:0:0:
77,114,73822,1,0,0:0:0:0:
40,176,73907,1,0,0:0:0:0:
43,252,73993,6,0,P|72:208|194:195,1,180,0|0,1:0|0:0,0:0:0:0:
356,252,74334,2,0,P|438:273|537:227,1,135.000005149842,8|0,1:0|0:0,0:0:0:0:
494,165,74589,1,0,0:0:0:0:
490,142,74674,1,0,0:0:0:0:
486,115,74759,1,0,0:0:0:0:
421,74,74845,2,0,P|342:76|349:190,1,135.000005149842,8|0,1:0|0:0,0:0:0:0:
210,66,75101,2,0,L|121:57,2,67.5000025749208
239,199,75357,6,0,B|265:298|220:363|220:363|211:325,1,202.500007724762,4|0,1:2|0:0,0:0:0:0:
157,252,75697,2,0,P|144:216|140:174,1,67.5000025749208
296,152,75868,2,0,P|306:112|305:75,1,67.5000025749208
20,67,76038,6,0,B|92:113|155:61|155:61|213:67,1,202.500007724762
306,85,76379,2,0,P|305:119|296:152,1,67.5000025749208,8|0,1:0|0:0,0:0:0:0:
141,188,76550,2,0,P|146:221|158:253,1,67.5000025749208
416,376,76720,6,0,L|492:364,1,67.5000025749208,4|0,1:3|0:0,0:0:0:0:
503,303,77061,6,0,P|509:289|513:266,1,33.7500012874604,8|0,1:0|0:0,0:0:0:0:
490,296,77232,2,0,P|491:275|485:256,1,33.7500012874604
512,173,77402,2,0,P|509:152|503:130,1,38.2500007295609
466,217,77572,2,0,P|454:191|434:167,1,38.2500007295609,8|0,1:0|0:0,0:0:0:0:
457,59,77743,2,0,P|435:39|401:21,1,42.7499988584519,8|0,1:0|0:0,0:0:0:0:
412,154,77913,2,0,P|381:137|361:132,1,42.7499988584519
316,7,78084,2,0,P|279:0|252:-1,1,47.2499985580445,8|0,1:0|0:0,0:0:0:0:
316,123,78254,2,0,P|285:118|258:121,1,47.2499985580445
145,0,78425,2,0,P|106:0|76:7,1,51.7500009870529,8|0,1:0|0:0,0:0:0:0:
200,123,78595,2,0,P|160:127|127:138,1,51.7500009870529
26,42,78766,6,0,P|-1:84|2:168,1,135
10,151,79107,2,0,P|7:105|28:62,1,90,8|0,1:0|0:0,0:0:0:0:
93,125,79362,1,0,0:0:0:0:
182,109,79447,2,0,P|117:39|24:65,1,202.500007724762,4|0,1:3|0:0,0:0:0:0:
178,224,79788,6,0,L|167:270,1,33.7500012874604,8|0,1:0|0:0,0:0:0:0:
194,266,79959,2,0,L|201:233,1,33.7500012874604
74,180,80129,2,0,L|61:231,1,38.2500007295609
116,348,80300,2,0,L|167:361,1,38.2500007295609,8|0,1:0|0:0,0:0:0:0:
294,306,80470,2,0,L|307:255,1,42.7499988584519,8|0,1:0|0:0,0:0:0:0:
249,131,80641,2,0,L|205:120,1,42.7499988584519
178,224,80811,2,0,L|195:268,1,47.2499985580445,12|0,1:0|0:0,0:0:0:0:
363,308,80982,2,0,L|407:291,1,47.2499985580445
454,135,81152,2,0,L|435:86,1,51.7500009870529,8|0,1:0|0:0,0:0:0:0:
264,39,81322,2,0,L|210:58,1,51.7500009870529
251,149,81493,6,0,P|301:149|376:196,1,135
304,264,81834,2,0,P|280:264|256:272,1,45,8|0,1:0|0:0,0:0:0:0:
317,367,82004,2,0,P|334:377|359:380,1,45
475,363,82175,2,0,B|566:323|494:183|408:304|519:310,1,202.500007724762,4|0,1:3|0:0,0:0:0:0:
478,192,82516,6,0,L|512:192,1,33.7500012874604,8|0,1:0|0:0,0:0:0:0:
435,108,82686,2,0,L|469:109,1,33.7500012874604
373,192,82857,2,0,L|412:192,1,38.2500007295609
312,304,83027,2,0,L|351:304,1,38.2500007295609,8|0,1:0|0:0,0:0:0:0:
264,192,83198,2,0,L|307:192,1,42.7499988584519,8|0,1:0|0:0,0:0:0:0:
211,53,83368,2,0,L|254:53,1,42.7499988584519
150,192,83539,2,0,L|198:192,1,47.2499985580445,8|0,1:0|0:0,0:0:0:0:
59,356,83709,2,0,L|107:356,1,47.2499985580445
32,192,83880,2,0,L|84:192,1,51.7500009870529,8|0,1:0|0:0,0:0:0:0:
0,2,84050,2,0,L|51:2,1,51.7500009870529
254,53,84220,6,0,P|284:110|250:204,1,135
271,177,84561,2,0,P|253:231|260:262,1,90,8|0,1:0|0:0,0:0:0:0:
336,345,84817,1,0,0:0:0:0:
336,345,84902,2,0,P|255:288|182:363,1,202.500007724762,4|0,1:3|0:0,0:0:0:0:
46,369,85243,6,0,L|59:311,1,33.7500012874604,8|0,1:0|0:0,0:0:0:0:
81,357,85413,2,0,L|91:309,1,33.7500012874604
469,337,85584,2,0,L|456:279,1,38.2500007295609
434,325,85754,2,0,L|424:277,1,38.2500007295609,8|0,1:0|0:0,0:0:0:0:
126,235,85925,2,0,L|139:177,1,42.7499988584519,8|0,1:0|0:0,0:0:0:0:
161,223,86095,2,0,L|171:175,1,42.7499988584519
385,186,86266,2,0,L|372:128,1,47.2499985580445,8|0,1:0|0:0,0:0:0:0:
350,174,86436,2,0,L|340:126,1,47.2499985580445
223,63,86607,2,0,L|236:2,1,51.7500009870529,8|0,1:0|0:0,0:0:0:0:
259,50,86777,2,0,L|269:0,1,51.7500009870529
247,161,86947,6,0,B|246:204|229:243|294:248|357:309|314:398|270:407|194:390|164:327|191:272|236:252|284:275|261:329,1,405.000015449525,4|0,0:0|0:0,0:0:0:0:
442,126,87629,6,0,L|429:51,1,67.5,4|0,3:0|0:0,0:0:0:0:
323,28,87970,1,2,0:0:0:0:
134,48,88311,1,8,0:1:0:0:
113,58,88396,1,0,0:0:0:0:
96,72,88481,1,0,0:0:0:0:
83,90,88566,1,0,0:0:0:0:
75,111,88652,2,0,L|71:156,1,45
153,267,88822,6,0,L|159:175,1,90,0|0,1:0|0:0,0:0:0:0:
159,177,89163,2,0,P|185:156|226:148,1,67.5000025749208
330,209,89334,2,0,P|362:190|376:152,1,67.5000025749208
335,108,89675,1,8,0:1:0:0:
323,131,89760,1,0,0:0:0:0:
317,158,89845,1,0,0:0:0:0:
320,184,89930,1,0,0:0:0:0:
330,209,90016,5,2,0:0:0:0:
341,274,90101,1,0,0:0:0:0:
311,332,90186,1,0,0:0:0:0:
250,360,90271,1,0,0:0:0:0:
186,344,90357,2,0,B|121:300|134:202|230:222|208:287,1,202.500007724762,4|0,0:3|0:0,0:0:0:0:
122,252,90697,2,0,L|15:238,1,67.5000025749208
67,132,90868,2,0,L|-40:118,1,67.5000025749208
156,8,91038,6,0,P|175:32|186:80,1,67.5000025749208,8|0,0:1|0:0,0:0:0:0:
315,32,91209,2,0,P|323:85|311:130,1,67.5000025749208
434,140,91379,2,0,P|426:205|410:230,1,67.5000025749208
506,304,91550,6,0,P|485:358|401:377,1,135.000005149842,4|0,3:0|0:0,0:0:0:0:
307,289,91891,1,0,0:0:0:0:
91,282,92061,2,0,P|121:207|181:193,1,135.000005149842,4|0,3:0|0:0,0:0:0:0:
425,205,92402,2,0,L|440:132,1,67.5000025749208,8|0,0:1|0:0,0:0:0:0:
506,304,92572,2,0,P|485:358|401:377,1,135.000005149842,4|0,1:3|0:0,0:0:0:0:
379,370,92828,1,0,0:0:0:0:
340,364,92913,1,0,0:0:0:0:
302,366,92998,1,0,0:0:0:0:
264,372,93084,6,0,P|192:384|131:328,1,157.5,4|0,0:3|0:0,0:0:0:0:
126,250,93766,1,8,0:1:0:0:
150,235,93851,1,0,0:0:0:0:
173,247,93936,1,0,0:0:0:0:
176,275,94021,1,0,0:0:0:0:
154,298,94107,1,0,0:0:0:0:
119,308,94192,1,0,0:0:0:0:
85,296,94277,6,0,B|31:262|34:145|107:141,1,135.000005149842,4|0,3:0|0:0,0:0:0:0:
67,154,94618,2,0,L|75:61,1,67.5000025749208
164,26,94788,2,0,P|160:59|157:93,1,67.5000025749208
256,192,95129,5,8,0:1:0:0:
275,210,95470,1,0,0:0:0:0:
275,210,95555,1,0,0:0:0:0:
275,210,95641,1,0,0:0:0:0:
275,210,95726,1,0,0:0:0:0:
274,210,95811,2,0,L|283:94,1,90,4|0,0:3|0:0,0:0:0:0:
311,81,96493,6,0,P|335:69|379:64,1,67.5000025749208,8|0,1:1|0:0,0:0:0:0:
487,167,96663,2,0,P|461:152|425:147,1,67.5000025749208
335,271,96834,2,0,P|341:237|365:191,1,67.5000025749208
449,362,97004,6,0,P|393:318|301:318,1,135.000005149842,4|0,0:3|0:0,0:0:0:0:
194,346,97345,1,0,0:0:0:0:
85,218,97516,2,0,P|143:179|239:210,1,135.000005149842,4|0,0:3|0:0,0:0:0:0:
131,142,97857,2,0,L|126:54,1,67.5000025749208,8|0,0:1|0:0,0:0:0:0:
271,66,98027,2,0,P|359:128|313:212,1,202.500007724762,4|0,1:3|0:0,0:0:0:0:
267,274,98368,2,0,L|387:278,1,67.5000025749208
468,307,98538,6,0,P|466:259|471:230,1,67.5,4|0,0:0|0:0,0:0:0:0:
491,163,98879,1,0,0:0:0:0:
351,53,99220,1,8,0:1:0:0:
310,46,99305,1,0,0:0:0:0:
270,53,99390,1,0,0:0:0:0:
235,76,99475,1,0,0:0:0:0:
203,101,99561,1,0,0:0:0:0:
182,119,99646,1,0,0:0:0:0:
153,124,99732,2,0,P|95:108|69:73,1,90,4|0,0:3|0:0,0:0:0:0:
84,128,100072,2,0,P|75:184|52:214,1,67.5000025749208
84,369,100243,2,0,P|75:312|52:282,1,67.5000025749208
0,247,100584,5,8,0:1:0:0:
0,247,100925,1,0,0:0:0:0:
51,230,101010,1,0,0:0:0:0:
100,252,101095,1,0,0:0:0:0:
149,231,101180,1,0,0:0:0:0:
201,246,101266,6,0,B|276:222|298:309|388:249|362:208,1,202.500007724762,4|0,1:3|0:0,0:0:0:0:
305,136,101607,2,0,P|278:163|279:229,1,67.5000025749208
291,287,101777,2,0,P|320:316|349:326,1,67.5000025749208
439,326,101947,6,0,P|478:301|494:264,1,67.5000025749208,8|0,0:1|0:0,0:0:0:0:
511,177,102118,2,0,P|505:124|480:90,1,67.5000025749208
401,24,102288,2,0,P|344:13|306:22,1,67.5000025749208
212,58,102459,6,0,P|174:128|201:204,1,135.000005149842,4|0,0:3|0:0,0:0:0:0:
52,251,102800,1,0,0:0:0:0:
182,382,102970,2,0,P|220:312|193:236,1,135.000005149842,4|0,0:3|0:0,0:0:0:0:
100,176,103311,2,0,L|-7:165,1,67.5000025749208,8|0,0:1|0:0,0:0:0:0:
183,179,103482,2,0,P|282:184|334:129,1,135.000005149842,4|0,1:3|0:0,0:0:0:0:
347,61,103737,1,0,0:0:0:0:
346,34,103822,1,0,0:0:0:0:
328,8,103908,1,0,0:0:0:0:
315,35,103993,6,0,P|308:75|320:115,1,67.5,4|0,0:3|0:0,0:0:0:0:
337,187,104334,2,0,P|346:227|336:260,1,67.5,4|0,0:3|0:0,0:0:0:0:
305,338,104675,1,8,0:1:0:0:
291,319,104760,1,0,0:0:0:0:
272,305,104845,1,0,0:0:0:0:
250,299,104930,1,0,0:0:0:0:
227,296,105016,1,0,0:0:0:0:
191,302,105101,1,0,0:0:0:0:
161,322,105186,6,0,P|90:348|27:320,1,135.000005149842,4|0,0:3|0:0,0:0:0:0:
14,283,105527,2,0,L|24:203,1,67.5000025749208
99,186,105697,2,0,L|109:106,1,67.5000025749208
213,37,106038,5,8,0:1:0:0:
213,37,106379,1,0,0:0:0:0:
255,10,106464,1,0,0:0:0:0:
308,19,106549,1,0,0:0:0:0:
340,61,106634,1,2,0:0:0:0:
336,111,106720,6,0,P|390:206|475:176,1,202.500007724762,4|0,0:3|0:0,0:0:0:0:
336,111,107061,2,0,L|199:91,1,135.000005149842,8|0,0:1|0:0,0:0:0:0:
167,211,107402,1,0,0:0:0:0:
303,122,107572,2,0,L|169:103,1,135.000005149842,0|8,0:0|0:1,0:0:0:0:
157,230,107913,1,4,0:3:0:0:
119,330,108084,6,0,P|225:327|245:247,1,180
249,270,108425,2,0,P|341:261|369:175,1,180
371,189,108766,6,0,L|362:127,1,45
365,144,109447,6,0,B|358:99|358:99|448:82|448:182,1,180,4|0,1:3|0:0,0:0:0:0:
470,302,109788,2,0,L|445:154,1,135,8|0,0:0|0:0,0:0:0:0:
285,108,110044,1,0,0:0:0:0:
226,98,110129,1,2,0:0:0:0:
167,90,110214,1,0,0:0:0:0:
213,30,110300,2,0,L|241:196,1,135.000005149842,0|8,1:0|0:0,0:0:0:0:
191,220,110555,1,0,0:0:0:0:
167,216,110641,1,2,0:0:0:0:
150,201,110726,1,0,0:0:0:0:
235,163,110811,6,0,P|258:248|188:290,1,135.000005149842,0|0,1:0|0:0,0:0:0:0:
112,320,111067,1,0,0:0:0:0:
112,320,111152,2,0,L|29:310,1,67.5000025749208,8|0,0:0|0:0,0:0:0:0:
229,370,111322,2,0,P|257:289|353:272,1,135.000005149842,2|0,0:0|0:0,0:0:0:0:
436,262,111578,1,0,0:0:0:0:
436,262,111663,2,0,L|453:170,1,67.5000025749208,0|0,1:0|0:0,0:0:0:0:
362,43,111834,2,0,P|392:102|371:165,1,135.000005149842,8|0,0:0|0:0,0:0:0:0:
282,194,112089,1,0,0:0:0:0:
190,219,112175,6,0,B|55:198|55:198|98:178,1,180,4|0,3:0|0:0,0:0:0:0:
251,62,112516,2,0,B|363:42|363:42|327:87,1,135.000005149842,8|0,0:0|0:0,0:0:0:0:
286,137,112771,1,0,0:0:0:0:
284,168,112857,1,2,0:0:0:0:
282,194,112942,1,0,0:0:0:0:
333,258,113027,2,0,B|346:275|346:275|372:159,1,135.000005149842,0|8,1:0|0:0,0:0:0:0:
288,262,113283,1,0,0:0:0:0:
243,266,113368,1,2,0:0:0:0:
198,270,113453,1,0,0:0:0:0:
146,326,113538,6,0,B|182:314|200:272|200:272|168:162,1,135.000005149842,4|0,1:2|0:0,0:0:0:0:
217,33,113794,1,0,0:0:0:0:
217,33,113879,2,0,P|252:38|289:71,1,67.5000025749208,8|0,0:0|0:0,0:0:0:0:
427,187,114050,1,4,0:0:0:0:
466,140,114135,1,0,0:0:0:0:
433,89,114220,1,0,0:0:0:0:
375,104,114305,1,0,0:0:0:0:
370,164,114391,2,0,P|355:181|351:271,1,67.5000025749208,0|0,1:0|0:0,0:0:0:0:
359,336,114561,6,0,P|370:287|349:233,1,90,8|0,0:0|0:0,0:0:0:0:
276,147,114732,2,0,P|238:125|166:130,1,90
60,191,114902,6,0,P|64:241|132:204,1,135.000005149842,4|0,3:0|0:0,0:0:0:0:
252,244,115243,2,0,P|200:213|107:251,1,135.000005149842,8|0,0:0|0:0,0:0:0:0:
210,321,115499,1,0,0:0:0:0:
238,338,115584,1,2,0:0:0:0:
271,343,115669,1,0,0:0:0:0:
359,336,115754,2,0,P|403:282|504:292,1,135.000005149842,0|8,1:0|0:0,0:0:0:0:
392,245,116010,1,0,0:0:0:0:
387,228,116095,1,2,0:0:0:0:
382,212,116180,1,0,0:0:0:0:
314,184,116266,6,0,B|344:177|378:200|378:200|397:162|438:158,1,135.000005149842,0|0,1:0|0:0,0:0:0:0:
294,96,116521,1,0,0:0:0:0:
294,96,116607,2,0,L|198:73,1,67.5000025749208,8|0,0:0|0:0,0:0:0:0:
38,45,116777,2,0,B|62:73|92:83|92:83|72:105|68:151,1,135.000005149842
27,279,117033,1,0,0:0:0:0:
27,279,117118,2,0,P|64:260|110:263,1,67.5000025749208,0|0,1:0|0:0,0:0:0:0:
234,274,117288,1,8,0:0:0:0:
291,297,117374,1,0,0:0:0:0:
321,345,117459,1,0,0:0:0:0:
329,327,117544,1,0,0:0:0:0:
342,313,117629,6,0,B|382:213|311:208|361:105,1,202.500007724762,4|0,3:0|0:0,0:0:0:0:
373,97,117970,2,0,P|408:153|322:162,1,180,8|0,0:0|0:0,0:0:0:0:
168,76,118226,1,0,0:0:0:0:
134,82,118311,1,2,0:0:0:0:
101,89,118396,1,0,0:0:0:0:
118,163,118482,2,0,P|36:126|45:37,1,180,0|8,1:0|0:0,0:0:0:0:
199,164,118737,1,0,0:0:0:0:
189,207,118822,1,2,0:0:0:0:
155,235,118907,1,0,0:0:0:0:
118,163,118993,6,0,L|346:146,1,202.500007724762,0|0,1:0|0:0,0:0:0:0:
309,45,119334,2,0,P|345:48|387:74,1,67.5000025749208,8|0,0:0|0:0,0:0:0:0:
490,189,119504,2,0,P|448:192|417:208,1,67.5000025749208
389,323,119675,6,0,B|342:339|342:339|284:323|284:323|231:343|178:349|79:385|54:225|170:184|222:225|259:295|176:343|170:286,1,472.500018024445
81,326,120357,6,0,B|110:273|110:273|89:207|89:207|97:144,1,180,4|0,0:3|0:0,0:0:0:0:
238,62,120697,2,0,P|304:83|335:147,1,135.000005149842,8|0,0:0|0:0,0:0:0:0:
331,44,120953,1,0,0:0:0:0:
363,47,121038,1,2,0:0:0:0:
395,58,121124,1,0,0:0:0:0:
460,122,121209,2,0,P|386:111|326:147,1,135.000005149842,0|8,1:0|0:0,0:0:0:0:
316,303,121464,1,0,0:0:0:0:
338,301,121549,1,2,0:0:0:0:
360,299,121634,1,0,0:0:0:0:
430,337,121720,6,0,L|405:188,1,135.000005149842,0|0,1:0|0:0,0:0:0:0:
267,199,121976,1,0,0:0:0:0:
267,199,122061,2,0,P|261:168|222:129,1,67.5000025749208,8|0,0:0|0:0,0:0:0:0:
100,163,122232,2,0,L|126:308,1,135.000005149842
248,366,122487,1,0,0:0:0:0:
248,366,122572,2,0,P|273:337|283:291,1,67.5000025749208,0|0,1:0|0:0,0:0:0:0:
323,106,122743,2,0,P|264:53|183:76,1,135.000005149842,8|0,0:0|0:0,0:0:0:0:
239,139,122999,1,0,0:0:0:0:
323,106,123084,6,0,B|477:86|477:86|446:128,1,180,4|0,3:0|0:0,0:0:0:0:
282,309,123425,2,0,P|190:326|158:399,1,135.000005149842,8|0,0:0|0:0,0:0:0:0:
191,318,123680,1,0,0:0:0:0:
191,273,123766,1,2,0:0:0:0:
166,237,123850,1,0,0:0:0:0:
85,203,123936,2,0,P|133:158|199:156,1,135.000005149842,0|8,1:0|0:0,0:0:0:0:
243,160,124192,1,0,0:0:0:0:
285,143,124277,1,2,0:0:0:0:
314,110,124362,1,0,0:0:0:0:
294,36,124447,6,0,B|315:116|315:116|376:162,1,135.000005149842,4|0,1:2|0:0,0:0:0:0:
460,236,124703,1,0,0:0:0:0:
460,236,124788,2,0,P|477:266|477:322,1,67.5000025749208,8|0,0:0|0:0,0:0:0:0:
304,284,124959,1,4,0:0:0:0:
311,295,125044,1,0,0:0:0:0:
236,278,125129,1,0,0:0:0:0:
243,289,125214,1,0,0:0:0:0:
176,284,125300,2,0,P|132:298|111:328,1,67.5000025749208,0|0,1:0|0:0,0:0:0:0:
321,372,125470,6,0,P|366:351|386:308,1,90,8|0,0:0|0:0,0:0:0:0:
356,147,125641,2,0,P|370:93|436:66,1,90
460,236,125811,6,0,B|463:150|463:150|412:224,1,135.000005149842,4|0,3:0|0:0,0:0:0:0:
118,163,126152,2,0,P|42:162|-12:223,1,135.000005149842,8|0,0:0|0:0,0:0:0:0:
201,194,126408,1,0,0:0:0:0:
202,177,126493,1,2,0:0:0:0:
204,160,126578,1,0,0:0:0:0:
124,133,126663,2,0,P|48:132|-6:193,1,135.000005149842,0|8,1:0|0:0,0:0:0:0:
281,219,126919,1,0,0:0:0:0:
282,202,127004,1,2,0:0:0:0:
284,185,127089,1,0,0:0:0:0:
270,104,127175,6,0,B|197:76|197:76|168:9,1,135.000005149842,0|0,1:0|0:0,0:0:0:0:
389,47,127430,1,0,0:0:0:0:
389,47,127516,2,0,P|370:94|372:148,1,67.5000025749208,8|0,0:0|0:0,0:0:0:0:
389,219,127686,2,0,B|406:295|406:295|367:356,1,135.000005149842
219,297,127942,1,0,0:0:0:0:
219,297,128027,2,0,P|174:300|108:352,1,67.5000025749208,0|0,1:0|0:0,0:0:0:0:
5,384,128197,1,8,0:0:0:0:
14,317,128282,1,0,0:0:0:0:
24,250,128367,1,0,0:0:0:0:
36,234,128453,1,0,0:0:0:0:
48,220,128538,6,0,B|112:48|-3:2|3:68|18:117|62:149,1,270,4|0,3:0|0:0,0:0:0:0:
64,140,128879,2,0,P|96:156|202:160,1,135.000005149842,8|0,0:0|0:0,0:0:0:0:
279,129,129135,1,0,0:0:0:0:
361,99,129220,2,0,P|406:85|442:88,1,67.5000025749208,2|0,0:0|0:0,0:0:0:0:
402,184,129391,2,0,L|370:339,1,135.000005149842,0|8,1:0|0:0,0:0:0:0:
296,357,129646,1,0,0:0:0:0:
248,287,129732,2,0,P|246:239|260:197,1,67.5000025749208,2|0,0:0|0:0,0:0:0:0:
279,129,129902,6,0,P|240:41|140:28,1,202.500007724762,0|0,1:0|0:0,0:0:0:0:
89,260,130243,2,0,L|170:240,1,67.5000025749208,8|0,0:0|0:0,0:0:0:0:
344,220,130413,2,0,L|409:203,1,67.5000025749208
170,162,130584,6,0,P|211:104|159:158,1,225.000008583069
252,329,130925,1,0,0:0:0:0:
319,322,131010,1,0,0:0:0:0:
384,345,131095,1,0,0:0:0:0:
451,339,131180,1,0,0:0:0:0:
82,298,153084,6,0,L|262:283,1,180
331,205,153936,1,0,0:0:0:0:
153,162,154277,2,0,L|251:155,2,90
447,153,155811,6,0,P|449:232|354:271,1,180
236,253,156663,1,0,0:0:0:0:
156,142,157004,2,0,L|136:73,1,67.5
102,205,157345,2,0,P|77:249|86:322,2,112.5
254,279,158368,1,0,0:0:0:0:
312,163,158538,1,0,3:0:0:0:
336,132,158879,6,0,L|403:126,1,67.5
248,99,159220,2,0,L|181:105,1,67.5
89,163,159561,1,0,0:0:0:0:
89,163,159732,6,0,L|84:230,1,67.5
225,341,160072,2,0,L|229:273,1,67.5
185,188,160413,1,0,0:0:0:0:
81,334,160584,6,0,P|115:322|158:325,1,67.5
269,354,160925,2,0,P|327:355|348:341,1,67.5
418,270,161266,2,0,P|435:236|434:191,1,67.5
368,126,161607,2,0,P|374:72|389:47,1,67.5
249,25,161947,2,0,P|214:20|174:32,1,67.5
157,45,162288,1,0,0:0:0:0:
47,117,162459,2,0,L|35:174,1,45
63,318,162800,6,0,L|74:255,1,45
85,309,163141,2,0,L|96:246,1,45
107,300,163482,2,0,L|118:237,1,45
129,290,163822,2,0,L|136:243,1,41.9999987182618
153,239,163993,6,0,L|137:153,1,75,4|0,1:0|0:0,0:0:0:0:
176,90,164334,2,0,P|210:121|221:161,1,62.9999980773926
267,72,164845,2,0,P|286:113|280:154,1,62.9999980773926
288,215,165357,6,0,L|314:330,1,80.9999975280763
374,352,165868,2,0,P|395:310|391:270,1,80.9999975280763
481,286,166379,2,0,P|472:241|412:193,1,121.499996292114
391,185,166720,6,0,L|371:93,1,94.499997116089
292,45,167061,2,0,P|282:74|285:106,1,62.9999980773926
216,2,167572,2,0,P|198:27|191:58,1,62.9999980773926
162,145,168084,6,0,P|118:159|68:137,1,80.9999975280763
32,89,168595,2,0,P|75:70|115:79,1,80.9999975280763
172,186,169107,2,0,L|187:275,1,49.5000015106202
260,237,169277,2,0,L|275:325,1,49.5000015106202
356,333,169447,6,0,L|337:231,1,94.499997116089
420,224,169788,2,0,P|398:175|343:164,1,80.9999975280763
264,143,170300,2,0,P|293:86|330:76,1,80.9999975280763
490,88,170811,6,0,L|346:79,1,99.0000030212403
224,33,171322,2,0,L|80:24,1,99.0000030212403
48,119,171834,2,0,L|64:197,1,58.4999973220826
205,259,172004,2,0,L|193:201,1,58.4999973220826
128,163,172175,6,0,P|170:125|248:142,1,121.499996292114
323,163,172516,2,0,L|434:151,1,99.0000030212403
373,252,173027,2,0,L|484:240,1,99.0000030212403
343,354,173538,6,0,P|283:316|183:329,1,175.499991966248
171,336,173879,1,0,0:0:0:0:
35,292,174050,1,0,0:0:0:0:
96,79,174220,2,0,P|113:173|196:204,1,175.499991966248
196,205,174561,1,0,0:0:0:0:
348,187,174732,1,0,0:0:0:0:
460,96,174902,6,0,L|485:170,2,67.5000025749208
339,77,175413,1,0,0:0:0:0:
307,60,175499,1,0,0:0:0:0:
271,74,175584,1,0,0:0:0:0:
239,57,175670,1,0,0:0:0:0:
204,72,175754,1,0,0:0:0:0:
72,52,175925,1,0,0:0:0:0:
118,173,176095,5,0,0:0:0:0:
118,173,176180,1,0,0:0:0:0:
118,173,176266,1,0,0:0:0:0:
262,210,176436,1,0,0:0:0:0:
419,249,176607,1,2,0:0:0:0:
406,161,176777,1,0,0:0:0:0:
367,176,176862,1,0,0:0:0:0:
339,207,176947,1,0,0:0:0:0:
328,247,177032,1,0,0:0:0:0:
336,288,177117,1,0,0:0:0:0:
419,249,177288,5,2,0:0:0:0:
270,73,177459,1,2,0:0:0:0:
163,261,177629,2,0,L|181:359,2,90
91,95,178141,1,0,0:0:0:0:
135,89,178226,1,0,0:0:0:0:
180,83,178311,1,0,0:0:0:0:
224,77,178396,1,0,0:0:0:0:
269,72,178481,1,0,0:0:0:0:
489,106,178652,1,8,0:1:0:0:
237,184,178822,5,0,0:0:0:0:
252,220,178908,1,0,0:0:0:0:
246,256,178993,1,0,0:0:0:0:
29,262,179163,1,0,0:0:0:0:
213,154,179334,1,8,0:1:0:0:
476,208,179504,1,0,0:0:0:0:
498,246,179589,1,0,0:0:0:0:
499,291,179674,1,0,0:0:0:0:
480,331,179759,1,0,0:0:0:0:
444,358,179844,1,0,0:0:0:0:
421,185,180016,5,8,0:1:0:0:
399,17,180186,1,8,0:1:0:0:
358,317,180357,5,0,0:0:0:0:
378,330,180442,1,0,0:0:0:0:
381,351,180527,1,0,0:0:0:0:
364,373,180612,1,0,0:0:0:0:
336,377,180697,1,0,0:0:0:0:
293,366,180782,1,0,0:0:0:0:
258,339,180867,1,0,0:0:0:0:
238,299,180952,1,0,0:0:0:0:
239,254,181038,1,0,0:0:0:0:
249,211,181124,1,0,0:0:0:0:
271,172,181209,1,0,0:0:0:0:
304,140,181294,1,0,0:0:0:0:
342,118,181379,1,0,0:0:0:0:
386,108,181465,1,0,0:0:0:0:
431,112,181550,1,0,0:0:0:0:
473,127,181635,1,0,0:0:0:0:
509,152,181720,5,0,0:0:0:0:
483,122,181805,1,0,0:0:0:0:
443,93,181890,1,0,0:0:0:0:
397,76,181975,1,0,0:0:0:0:
347,72,182060,1,0,0:0:0:0:
300,83,182146,1,0,0:0:0:0:
258,106,182231,1,0,0:0:0:0:
223,143,182316,1,0,0:0:0:0:
198,185,182402,1,0,0:0:0:0:
188,234,182487,1,0,0:0:0:0:
195,282,182573,1,0,0:0:0:0:
214,324,182658,1,0,0:0:0:0:
247,354,182743,5,0,0:0:0:0:
192,320,182828,1,0,0:0:0:0:
156,260,182913,1,0,0:0:0:0:
146,187,182998,1,0,0:0:0:0:
162,113,183083,1,0,0:0:0:0:
212,59,183766,1,0,0:0:0:0:
278,27,184447,1,0,0:0:0:0:
350,15,185129,1,0,0:0:0:0:
375,219,185811,6,0,B|159:242,1,180,4|0,1:3|0:0,0:0:0:0:
196,238,186152,2,0,P|129:213|59:232,1,135.000005149842,8|0,0:0|0:0,0:0:0:0:
46,247,186408,1,0,0:0:0:0:
32,277,186493,1,2,0:0:0:0:
31,311,186578,1,0,0:0:0:0:
41,339,186663,2,0,L|29:193,1,135.000005149842,0|8,1:0|0:0,0:0:0:0:
124,126,186919,2,0,L|191:137,2,67.5000025749208,0|2|0,0:0|0:0|0:0,0:0:0:0:
56,0,187175,6,0,P|106:87|209:48,1,202.500007724762,4|0,1:2|0:0,0:0:0:0:
323,185,187516,2,0,P|295:204|266:267,1,67.5000025749208,8|0,0:0|0:0,0:0:0:0:
310,319,187686,2,0,L|287:115,1,202.500007724762,4|0,0:0|0:0,0:0:0:0:
413,38,188027,2,0,L|400:123,1,67.5000025749208,0|0,1:0|0:0,0:0:0:0:
456,224,188197,2,0,B|439:317|481:406|514:358|515:305|469:312,1,202.500007724762,8|0,0:0|0:0,0:0:0:0:
222,363,188538,6,0,B|149:389|95:357|95:357|77:302,1,180,4|0,1:3|0:0,0:0:0:0:
73,66,188879,2,0,P|121:74|173:190,1,135.000005149842,8|0,0:0|0:0,0:0:0:0:
226,237,189135,1,0,0:0:0:0:
267,238,189220,1,2,0:0:0:0:
293,217,189305,1,0,0:0:0:0:
298,184,189391,2,0,P|337:129|408:113,1,135.000005149842,0|8,1:0|0:0,0:0:0:0:
386,315,189646,1,0,0:0:0:0:
340,358,189732,1,2,0:0:0:0:
281,361,189817,1,0,0:0:0:0:
238,328,189902,6,0,L|222:178,1,135.000005149842,4|0,1:2|0:0,0:0:0:0:
264,57,190158,1,0,0:0:0:0:
264,57,190243,2,0,P|272:28|302:-4,1,67.5000025749208,8|0,0:0|0:0,0:0:0:0:
398,112,190413,1,4,0:2:0:0:
421,133,190498,1,0,0:0:0:0:
430,166,190583,1,0,0:0:0:0:
420,197,190668,1,0,0:0:0:0:
394,219,190753,1,0,1:0:0:0:
152,219,190925,6,0,P|122:173|122:116,1,90,8|0,0:0|0:0,0:0:0:0:
189,59,191095,2,0,P|219:104|219:162,1,90
208,277,191266,6,4,B|194:382|194:382|112:384|128:328,1,180,4|0,1:3|0:0,1:3:0:0:
20,55,191607,2,0,L|154:40,1,135.000005149842,8|0,0:0|0:0,0:0:0:0:
157,162,191862,2,0,L|89:169,2,67.5000025749208,0|2|0,0:0|0:0|0:0,0:0:0:0:
296,88,192118,2,0,L|431:74,1,135.000005149842,0|8,1:0|0:0,0:0:0:0:
137,177,192374,2,0,L|69:184,2,67.5000025749208,0|2|0,0:0|0:0|0:0,0:0:0:0:
319,289,192629,6,0,B|373:227|441:266|441:266|490:245|499:206,1,202.500007724762,4|0,1:2|0:0,0:0:0:0:
393,121,192970,2,0,P|371:87|312:69,1,67.5000025749208,8|0,0:0|0:0,0:0:0:0:
163,74,193141,2,0,B|187:137|138:176|138:176|226:154,1,202.500007724762,4|0,0:0|0:0,0:0:0:0:
25,242,193482,2,0,P|7:269|4:326,1,67.5000025749208,0|0,1:0|0:0,0:0:0:0:
162,353,193652,1,8,0:0:0:0:
205,342,193737,1,0,0:0:0:0:
227,307,193822,1,0,0:0:0:0:
243,265,193907,1,0,0:0:0:0:
259,223,193993,6,0,B|215:340|215:340|259:401,1,180,4|0,1:3|0:0,0:0:0:0:
453,231,194334,2,0,P|498:213|507:129,1,135.000005149842,8|0,0:0|0:0,0:0:0:0:
271,40,194589,1,0,0:0:0:0:
273,84,194674,1,2,0:0:0:0:
297,121,194759,1,0,0:0:0:0:
336,142,194845,2,0,P|248:101|173:133,1,135.000005149842,0|8,1:0|0:0,0:0:0:0:
68,262,195101,2,0,L|-21:270,2,67.5000025749208,0|2|0,0:0|0:0|0:0,0:0:0:0:
95,384,195357,6,0,B|156:379|178:321|178:321|164:214,1,202.500007724762,4|0,1:2|0:0,0:0:0:0:
125,149,195697,6,0,P|167:139|238:173,1,90.0000034332277,8|0,0:0|0:0,0:0:0:0:
274,222,195868,2,0,P|252:132|284:78,1,150
174,26,196209,2,0,L|277:10,1,75,0|0,1:0|0:0,0:0:0:0:
336,30,196379,6,0,P|366:55|379:98,1,67.5000025749208,8|0,0:0|0:0,0:0:0:0:
399,177,196550,2,0,P|409:229|432:253,1,67.5000025749208
487,338,196720,6,0,P|384:279|314:320,1,180,4|0,0:3|0:0,0:0:0:0:
152,370,197061,2,0,B|73:366|64:266,1,135.000005149842,8|0,0:0|0:0,0:0:0:0:
75,209,197317,1,0,0:0:0:0:
102,189,197402,1,2,0:0:0:0:
135,186,197487,1,0,0:0:0:0:
189,239,197572,2,0,B|260:204|229:108,1,135.000005149842,0|8,1:0|0:0,0:0:0:0:
164,52,197828,1,0,0:0:0:0:
133,38,197913,1,2,0:0:0:0:
100,39,197998,1,0,0:0:0:0:
59,128,198084,6,0,P|7:83|7:-1,1,135.000005149842,4|0,1:2|0:0,0:0:0:0:
164,52,198339,1,0,0:0:0:0:
164,52,198425,2,0,L|253:35,1,67.5000025749208,8|0,0:0|0:0,0:0:0:0:
440,143,198595,2,0,P|357:134|345:88,1,135.000005149842,4|0,0:0|0:0,0:0:0:0:
381,197,198851,1,0,0:0:0:0:
381,197,198936,2,0,L|397:278,1,67.5000025749208,0|0,1:0|0:0,0:0:0:0:
467,295,199107,2,0,P|384:304|366:344,1,135.000005149842,8|0,0:0|0:0,0:0:0:0:
432,351,199362,1,0,0:0:0:0:
366,343,199447,6,0,B|292:338|292:338|248:355|248:355|161:328,1,180,4|0,0:3|0:0,0:0:0:0:
231,78,199788,2,0,P|281:60|357:133,1,135.000005149842,8|0,0:0|0:0,0:0:0:0:
250,160,200044,1,0,0:0:0:0:
217,163,200129,1,2,0:0:0:0:
187,147,200214,1,0,0:0:0:0:
231,78,200300,2,0,P|177:39|114:56,1,135.000005149842,0|8,1:0|0:0,0:0:0:0:
41,212,200555,1,0,0:0:0:0:
67,205,200640,1,2,0:0:0:0:
93,199,200725,1,0,0:0:0:0:
143,225,200811,6,0,P|196:254|279:243,1,135.000005149842,4|0,0:0|0:0,0:0:0:0:
438,277,201067,1,0,0:0:0:0:
438,277,201152,2,0,L|422:185,1,67.5000025749208,8|0,0:0|0:0,0:0:0:0:
249,178,201322,1,4,0:0:0:0:
217,163,201407,1,0,0:0:0:0:
183,161,201492,1,0,0:0:0:0:
202,144,201577,1,0,0:0:0:0:
239,151,201663,1,0,0:0:0:0:
364,37,201834,6,0,P|376:80|357:131,1,90,8|0,0:0|0:0,0:0:0:0:
352,227,202004,2,0,P|320:268|325:334,1,90
441,346,202175,6,0,P|476:306|411:329,1,180,4|0,0:3|0:0,0:0:0:0:
145,324,202516,2,0,P|63:313|16:349,1,135.000005149842,8|0,0:0|0:0,0:0:0:0:
293,313,202771,1,0,0:0:0:0:
315,304,202857,1,2,0:0:0:0:
330,287,202942,1,0,0:0:0:0:
352,227,203027,2,0,P|420:219|478:269,1,135.000005149842,0|8,1:0|0:0,0:0:0:0:
242,238,203283,1,0,0:0:0:0:
216,207,203368,1,2,0:0:0:0:
188,174,203453,1,0,0:0:0:0:
121,162,203538,6,0,B|9:144|9:144|31:123,1,135.000005149842,4|0,1:2|0:0,0:0:0:0:
178,47,203794,1,0,0:0:0:0:
189,46,203879,2,0,L|265:56,1,67.5000025749208,8|0,0:0|0:0,0:0:0:0:
416,112,204050,2,0,B|528:94|528:94|506:73,1,135.000005149842,4|0,0:0|0:0,0:0:0:0:
333,42,204305,1,0,0:0:0:0:
322,42,204390,2,0,L|249:55,1,67.5000025749208,0|0,1:0|0:0,0:0:0:0:
261,167,204561,1,8,0:0:0:0:
264,209,204646,1,0,0:0:0:0:
243,260,204731,1,0,0:0:0:0:
246,293,204816,1,0,0:0:0:0:
190,343,204902,6,0,B|217:283|277:266|350:283|392:286|324:361|245:365|231:292,1,270,4|0,1:3|0:0,0:0:0:0:
102,253,205243,2,0,L|73:113,1,135.000005149842,8|0,0:0|0:0,0:0:0:0:
173,54,205499,2,0,L|162:121,2,67.5000025749208,0|2|0,0:0|0:0|0:0,0:0:0:0:
396,213,205754,2,0,L|413:79,1,135.000005149842,8|0,0:0|0:0,0:0:0:0:
320,0,206010,2,0,L|331:66,2,67.5000025749208,0|2|0,0:0|0:0|0:0,0:0:0:0:
256,140,206266,6,0,B|206:255|306:226|247:353,1,202.500007724762,12|0,1:2|0:0,0:0:0:0:
100,251,206607,2,0,P|84:221|76:169,1,67.5000025749208,0|0,1:0|0:0,0:0:0:0:
396,213,206777,2,0,P|411:179|415:137,1,67.5000025749208,8|0,0:0|0:0,0:0:0:0:
253,233,206947,2,0,B|248:309|190:346|190:346|255:319|321:345|321:345|261:309|250:212,1,405.000015449525
248,99,207629,6,0,L|234:34,1,67.5,4|0,0:0|0:0,0:0:0:0:
310,142,207970,1,0,0:0:0:0:
310,142,208311,1,8,0:1:0:0:
303,169,208396,1,0,0:0:0:0:
304,200,208482,1,0,0:0:0:0:
322,238,208567,1,0,0:0:0:0:
366,256,208652,1,0,0:0:0:0:
414,246,208737,1,0,0:0:0:0:
449,209,208822,6,0,L|441:93,1,90,0|0,1:0|0:0,0:0:0:0:
400,33,209163,2,0,P|363:45|338:78,1,67.5000025749208
265,137,209334,2,0,P|228:157|186:151,1,67.5000025749208,0|0,1:0|0:0,0:0:0:0:
86,116,209675,5,8,1:0:0:0:
69,93,209760,1,0,0:0:0:0:
92,77,209845,1,0,0:0:0:0:
107,99,209930,1,0,0:0:0:0:
112,127,210016,5,2,0:0:0:0:
61,120,210101,1,0,0:0:0:0:
70,66,210187,1,0,0:0:0:0:
122,74,210272,1,0,0:0:0:0:
184,112,210357,2,0,P|256:147|329:64,1,202.500007724762,4|0,3:0|0:0,0:0:0:0:
271,169,210697,2,0,L|286:251,1,67.5000025749208
438,297,210868,2,0,L|426:231,1,67.5000025749208
414,147,211038,6,0,P|388:154|360:220,1,67.5000025749208,8|0,0:1|0:0,0:0:0:0:
332,299,211209,2,0,P|310:335|253:348,1,67.5000025749208
173,364,211379,2,0,P|111:358|74:329,1,67.5000025749208
34,273,211550,2,0,B|41:168|41:168|82:139,1,135.000005149842,4|0,3:0|0:0,0:0:0:0:
170,164,211891,1,0,0:0:0:0:
271,169,212061,2,0,B|296:152|296:152|303:47,1,135.000005149842,4|0,3:0|0:0,0:0:0:0:
128,10,212402,2,0,P|155:47|160:93,1,67.5000025749208,8|0,1:0|0:0,0:0:0:0:
177,259,212572,2,0,P|221:309|319:291,1,135.000005149842,4|0,1:3|0:0,0:0:0:0:
329,291,212828,1,0,0:0:0:0:
369,294,212913,1,0,0:0:0:0:
392,316,212999,1,0,0:0:0:0:
408,342,213084,6,0,P|480:349|504:267,1,157.5,4|0,3:0|0:0,0:0:0:0:
465,208,213766,1,8,1:0:0:0:
423,198,213851,1,0,0:0:0:0:
387,227,213936,1,0,0:0:0:0:
382,262,214021,1,0,0:0:0:0:
394,288,214107,1,0,0:0:0:0:
419,297,214192,1,0,0:0:0:0:
447,293,214277,6,0,L|456:122,1,135.000005149842,0|0,1:0|0:0,0:0:0:0:
388,28,214618,2,0,L|306:32,1,67.5000025749208
112,159,214788,2,0,L|179:156,1,67.5000025749208,0|0,1:0|0:0,0:0:0:0:
291,222,215129,1,8,1:0:0:0:
331,218,215470,5,0,0:0:0:0:
348,181,215555,1,0,0:0:0:0:
325,148,215640,1,0,0:0:0:0:
284,152,215725,1,0,0:0:0:0:
267,188,215811,2,0,L|253:72,1,90,4|0,3:0|0:0,0:0:0:0:
235,72,216493,6,0,P|177:58|154:63,1,67.5000025749208,8|0,1:0|0:0,0:0:0:0:
119,179,216663,2,0,P|71:188|40:225,1,67.5000025749208
169,293,216834,2,0,P|139:313|124:342,1,67.5000025749208
286,347,217004,2,0,P|380:353|445:282,1,135.000005149842,4|0,0:3|0:0,0:0:0:0:
330,197,217345,1,0,0:0:0:0:
282,332,217516,2,0,P|376:338|441:267,1,135.000005149842,4|0,3:0|0:0,0:0:0:0:
326,83,217857,2,0,L|231:75,1,67.5000025749208,8|0,1:0|0:0,0:0:0:0:
38,183,218027,2,0,P|91:214|200:117,1,202.500007724762,4|0,1:3|0:0,0:0:0:0:
290,191,218368,2,0,L|305:292,1,67.5000025749208
323,336,218538,6,0,L|332:255,1,67.5,4|0,0:0|0:0,0:0:0:0:
428,263,218879,1,0,0:0:0:0:
428,263,219220,1,8,1:0:0:0:
452,212,219305,1,0,0:0:0:0:
432,167,219391,1,0,0:0:0:0:
395,152,219476,1,0,0:0:0:0:
362,149,219561,1,0,0:0:0:0:
373,115,219646,1,0,0:0:0:0:
385,82,219732,2,0,B|317:65|312:99|247:75,1,135.000005149842,0|0,1:0|0:0,0:0:0:0:
139,62,220072,6,0,P|105:65|76:82,1,67.5000025749208
127,228,220243,2,0,P|160:224|189:207,1,67.5000025749208,0|0,1:0|0:0,0:0:0:0:
135,146,220584,1,8,1:0:0:0:
135,146,220925,5,0,0:0:0:0:
72,164,221010,1,0,0:0:0:0:
41,222,221095,1,0,0:0:0:0:
60,285,221180,1,0,0:0:0:0:
118,316,221266,2,0,B|271:298|271:298|216:260,1,202.500007724762,4|0,3:0|0:0,0:0:0:0:
162,205,221607,2,0,P|141:176|144:108,1,67.5000025749208
77,49,221777,2,0,P|102:22|144:15,1,67.5000025749208
294,41,221947,6,0,B|277:69|277:69|268:120,1,67.5000025749208,8|0,1:0|0:0,0:0:0:0:
460,120,222118,2,0,B|477:145|477:145|490:198,1,67.5000025749208
332,181,222288,2,0,B|326:222|326:222|329:268,1,67.5000025749208
437,274,222459,6,0,P|437:313|350:363,1,135.000005149842,4|0,3:0|0:0,0:0:0:0:
256,305,222800,1,0,0:0:0:0:
75,274,222970,2,0,P|75:313|162:363,1,135.000005149842,4|0,3:0|0:0,0:0:0:0:
255,184,223311,2,0,L|265:104,1,67.5000025749208,8|0,1:0|0:0,0:0:0:0:
325,247,223482,2,0,P|238:206|171:247,1,135.000005149842,4|0,1:3|0:0,0:0:0:0:
57,173,223737,1,0,0:0:0:0:
20,137,223823,1,0,0:0:0:0:
44,109,223908,1,0,0:0:0:0:
92,56,223993,6,0,P|154:45|170:49,1,67.5,4|0,3:0|0:0,0:0:0:0:
234,70,224334,2,0,P|283:79|316:67,1,67.5,4|0,3:0|0:0,0:0:0:0:
378,8,224675,1,8,1:0:0:0:
387,55,224760,1,0,0:0:0:0:
418,88,224845,1,0,0:0:0:0:
470,96,224930,1,0,0:0:0:0:
512,84,225016,1,0,0:0:0:0:
509,112,225101,1,0,0:0:0:0:
507,136,225186,6,0,P|497:233|435:248,1,135.000005149842,0|0,1:0|0:0,0:0:0:0:
397,178,225527,2,0,P|368:161|336:155,1,67.5000025749208
338,343,225697,2,0,P|371:336|399:319,1,67.5000025749208,0|0,1:0|0:0,0:0:0:0:
270,248,226038,5,8,1:0:0:0:
270,248,226379,1,0,0:0:0:0:
215,260,226464,1,0,0:0:0:0:
168,236,226550,1,0,0:0:0:0:
111,265,226635,1,0,0:0:0:0:
59,220,226720,2,0,B|84:339|84:339|111:315|113:232,1,202.500007724762,4|0,3:0|0:0,0:0:0:0:
130,151,227061,2,0,P|118:86|65:46,1,135.000005149842,8|0,1:0|0:0,0:0:0:0:
0,155,227402,1,0,0:0:0:0:
186,38,227572,2,0,P|123:16|65:46,1,135.000005149842,0|8,0:0|1:0,0:0:0:0:
130,151,227913,1,4,3:0:0:0:
208,199,228084,6,0,P|193:274|307:317,1,180
178,375,228425,2,0,P|187:294|74:252,1,180,8|0,1:0|0:0,0:0:0:0:
280,245,228766,6,0,L|336:217,1,45
351,201,229107,5,0,0:0:0:0:
348,165,229192,1,0,0:0:0:0:
315,149,229277,1,0,0:0:0:0:
285,169,229362,1,0,0:0:0:0:
287,205,229447,6,0,L|223:179,1,67.5,4|0,0:2|0:0,0:0:0:0:
251,120,229788,6,0,P|272:127|301:142,1,33.7500012874604,8|0,1:0|0:0,0:0:0:0:
261,264,229959,2,0,P|240:257|211:242,1,33.7500012874604
264,96,230129,2,0,P|290:110|325:135,1,38.2500007295609
247,287,230300,2,0,P|221:273|186:248,1,38.2500007295609,0|0,1:0|0:0,0:0:0:0:
288,82,230470,2,0,P|315:102|350:137,1,42.7499988584519,8|0,1:0|0:0,0:0:0:0:
223,302,230641,2,0,P|195:281|160:246,1,42.7499988584519
323,76,230811,2,0,P|346:100|376:141,1,47.2499985580445,0|0,1:0|0:0,0:0:0:0:
188,309,230982,2,0,P|164:284|134:243,1,47.2499985580445
362,77,231152,2,0,P|381:104|404:149,1,51.7500009870529,8|0,1:0|0:0,0:0:0:0:
146,304,231323,2,0,P|126:276|103:231,1,51.7500009870529
202,194,231493,6,0,L|326:185,1,101.250003862381
195,149,231834,2,0,L|202:194,1,45,8|0,1:0|0:0,0:0:0:0:
309,231,232004,2,0,L|298:157,1,45
362,77,232175,2,0,P|271:19|164:48,1,202.500007724762,4|0,1:3|0:0,0:0:0:0:
30,131,232516,6,0,L|78:120,1,33.7500012874604,8|0,1:0|0:0,0:0:0:0:
36,263,232687,2,0,L|2:264,1,33.7500012874604
131,109,232857,2,0,L|186:97,1,38.2500007295609
144,260,233028,2,0,L|105:261,1,38.2500007295609,0|0,1:0|0:0,0:0:0:0:
238,85,233197,2,0,L|305:70,1,42.7499988584519,8|0,1:0|0:0,0:0:0:0:
258,255,233369,2,0,L|215:256,1,42.7499988584519
347,62,233538,2,0,L|404:49,1,47.2499985580445,4|0,1:0|0:0,0:0:0:0:
374,251,233709,2,0,L|326:252,1,47.2499985580445
462,37,233879,2,0,L|540:19,1,51.7500009870529,8|0,1:0|0:0,0:0:0:0:
496,245,234050,2,0,L|444:247,1,51.7500009870529
389,155,234220,6,0,L|270:165,1,101.250003862381
148,127,234561,2,0,L|104:131,1,45,8|0,1:0|0:0,0:0:0:0:
42,229,234732,2,0,L|95:227,1,45
207,184,234902,2,0,P|285:241|388:200,1,202.500007724762,4|0,1:3|0:0,0:0:0:0:
504,139,235243,6,0,P|496:169|495:187,1,33.7500012874604,8|0,1:0|0:0,0:0:0:0:
504,277,235413,2,0,P|496:247|495:229,1,33.7500012874604
413,104,235584,2,0,P|405:136|405:162,1,38.2500007295609
413,312,235754,2,0,P|405:280|405:254,1,38.2500007295609,0|0,1:0|0:0,0:0:0:0:
315,80,235925,2,0,P|310:101|310:134,1,42.7499988584519,8|0,1:0|0:0,0:0:0:0:
315,336,236094,2,0,P|310:315|310:282,1,42.7499988584519
201,56,236266,2,0,P|198:78|199:116,1,47.2499985580445,0|0,1:0|0:0,0:0:0:0:
201,360,236435,2,0,P|198:338|199:300,1,47.2499985580445
75,32,236607,2,0,P|70:64|74:103,1,51.7500009870529,8|0,1:0|0:0,0:0:0:0:
75,384,236776,2,0,P|70:352|74:313,1,51.7500009870529
12,167,236947,6,0,L|114:148,1,101.250003862381
131,163,237288,2,0,L|186:153,1,45,8|0,1:0|0:0,0:0:0:0:
299,267,237459,2,0,L|254:275,1,45
164,340,237629,2,0,P|225:246|173:152,1,202.500007724762,4|0,1:3|0:0,0:0:0:0:
79,70,237970,6,0,L|136:66,1,33.7500012874604,8|0,1:0|0:0,0:0:0:0:
184,85,238141,2,0,L|241:81,1,33.7500012874604
438,315,238311,2,0,L|381:319,1,38.2500007295609
333,300,238482,2,0,L|276:304,1,38.2500007295609,0|0,1:0|0:0,0:0:0:0:
38,158,238652,2,0,L|95:154,1,42.7499988584519,8|0,1:0|0:0,0:0:0:0:
153,173,238823,2,0,L|210:169,1,42.7499988584519
471,228,238993,2,0,L|414:231,1,47.2499985580445,0|0,1:0|0:0,0:0:0:0:
354,213,239164,2,0,L|297:216,1,47.2499985580445
0,247,239334,2,0,L|57:243,1,51.7500009870529,8|0,1:0|0:0,0:0:0:0:
125,263,239505,2,0,L|182:259,1,51.7500009870529
512,136,239675,2,0,L|456:142,1,56.25
387,121,239845,2,0,L|328:125,1,56.25,0|0,1:0|0:0,0:0:0:0:
244,155,240016,6,0,L|237:244,1,60.7500002317429,8|0,1:0|0:0,0:0:0:0:
261,228,240186,2,0,L|265:167,1,60.7500002317429
450,37,240357,6,0,P|416:28|373:27,1,67.5,4|0,1:3|0:0,0:0:0:0:
304,31,240697,6,0,P|282:36|249:51,1,33.7500012874604,8|0,1:0|0:0,0:0:0:0:
383,237,240868,2,0,L|387:200,1,33.7500012874604
207,63,241038,2,0,P|179:74|161:89,1,38.2500007295609
400,258,241209,2,0,L|407:205,1,38.2500007295609,0|0,1:0|0:0,0:0:0:0:
120,125,241379,2,0,P|106:139|93:158,1,42.7499988584519,8|0,1:0|0:0,0:0:0:0:
419,278,241550,2,0,L|425:222,1,42.7499988584519
66,221,241720,2,0,P|58:246|58:273,1,47.2499985580445,0|0,1:0|0:0,0:0:0:0:
440,298,241891,2,0,L|446:241,1,47.2499985580445
64,335,242061,2,0,P|68:357|79:388,1,51.7500009870529,8|0,1:0|0:0,0:0:0:0:
463,318,242231,2,0,L|470:258,1,51.7500009870529
173,371,242402,6,0,P|230:370|273:325,1,101.250003862381
298,198,242743,2,0,P|273:183|253:178,1,45,8|0,1:0|0:0,0:0:0:0:
154,185,242913,2,0,P|124:191|106:205,1,45
199,290,243084,2,0,B|217:235|217:235|198:84,1,202.500007724762,4|0,1:3|0:0,0:0:0:0:
0,0,243425,6,0,P|13:11|29:19,1,33.7500012874604,8|0,1:0|0:0,0:0:0:0:
144,43,243595,2,0,P|161:46|178:47,1,33.7500012874604
15,104,243766,2,0,P|32:113|51:117,1,38.2500007295609
191,134,243936,2,0,P|210:133|229:129,1,38.2500007295609,0|0,1:0|0:0,0:0:0:0:
41,202,244107,2,0,P|61:209|83:212,1,42.7499988584519,8|0,1:0|0:0,0:0:0:0:
268,209,244277,2,0,P|289:205|309:198,1,42.7499988584519
84,298,244447,2,0,P|107:302|131:302,1,47.2499985580445,0|0,1:0|0:0,0:0:0:0:
360,270,244618,2,0,P|382:262|403:250,1,47.2499985580445
161,384,244788,2,0,P|187:385|213:384,1,51.7500009870529,8|0,1:0|0:0,0:0:0:0:
471,313,244959,2,0,P|493:300|512:281,1,51.7500009870529
506,114,245129,6,0,P|479:83|408:77,1,101.250003862381
318,125,245470,2,0,P|316:152|308:176,1,45,8|0,1:0|0:0,0:0:0:0:
402,250,245641,2,0,P|406:226|413:203,1,45
495,200,245811,2,0,L|279:191,1,202.500007724762,4|0,1:3|0:0,0:0:0:0:
216,128,246152,6,0,P|205:142|198:161,1,33.7500012874604,8|0,1:0|0:0,0:0:0:0:
200,228,246322,2,0,P|208:248|231:259,1,33.7500012874604
304,272,246493,2,0,P|315:258|322:239,1,38.2500007295609
320,139,246663,2,0,P|312:119|293:105,1,38.2500007295609,0|0,1:0|0:0,0:0:0:0:
162,71,246834,2,0,P|143:91|136:110,1,42.7499988584519,8|0,1:0|0:0,0:0:0:0:
139,278,247004,2,0,P|146:297|166:312,1,42.7499988584519
364,334,247175,2,0,P|382:313|391:285,1,47.2499985580445,0|0,1:0|0:0,0:0:0:0:
388,86,247345,2,0,P|380:66|359:45,1,47.2499985580445
86,14,247516,2,0,P|67:34|58:66,1,51.7500009870529,8|0,1:0|0:0,0:0:0:0:
65,336,247686,2,0,P|72:355|94:377,1,51.7500009870529
338,240,247857,6,0,P|352:196|330:135,1,101.250003862381
231,133,248197,2,0,P|198:125|170:130,1,45,8|0,1:0|0:0,0:0:0:0:
242,313,248368,2,0,P|267:280|264:246,1,45
217,216,248538,2,0,B|349:176|349:176|337:241,1,202.500007724762,4|0,1:3|0:0,0:0:0:0:
316,378,248879,6,0,P|316:350|310:318,1,33.7500012874604,8|0,1:0|0:0,0:0:0:0:
198,11,249049,2,0,P|199:40|205:72,1,33.7500012874604
178,384,249220,2,0,P|189:363|194:339,1,38.2500007295609
337,0,249390,2,0,P|327:22|322:46,1,38.2500007295609,0|0,1:0|0:0,0:0:0:0:
52,326,249561,2,0,P|77:312|100:294,1,42.7499988584519,8|0,1:0|0:0,0:0:0:0:
458,52,249731,2,0,P|434:67|411:85,1,42.7499988584519
12,190,249902,2,0,P|44:197|79:193,1,47.2499985580445,0|0,1:0|0:0,0:0:0:0:
502,198,250072,2,0,P|471:191|436:196,1,47.2499985580445
14,14,250243,2,0,P|38:31|68:46,1,51.7500009870529,8|0,1:0|0:0,0:0:0:0:
486,369,250413,2,0,P|463:353|433:337,1,51.7500009870529
230,137,250584,6,0,B|206:193|207:226|240:265|281:275|311:252|330:172|289:165|265:186|254:205,1,225.000008583069
255,193,250925,1,0,1:0:0:0:
204,243,251010,1,0,1:0:0:0:
206,316,251095,1,0,1:0:0:0:
269,356,251180,1,0,1:0:0:0:
364,354,251266,6,0,L|436:343,1,67.5,4|0,0:0|0:0,0:0:0:0:
499,300,251607,5,8,0:1:0:0:
401,224,251777,1,0,0:0:0:0:
384,198,251863,1,0,0:0:0:0:
374,162,251948,1,2,0:0:0:0:
379,127,252033,1,0,0:0:0:0:
397,95,252118,1,2,0:1:0:0:
477,27,252288,1,8,0:1:0:0:
374,162,252459,1,2,0:0:0:0:
329,158,252544,1,0,0:0:0:0:
284,155,252629,5,2,0:1:0:0:
95,140,252800,1,0,0:0:0:0:
236,62,252970,2,0,P|315:58|348:83,1,90,8|0,0:1|0:0,0:0:0:0:
284,155,253226,2,0,L|275:199,1,45,0|2,0:0|0:0,0:0:0:0:
335,267,253396,2,0,L|325:311,1,45,0|2,0:0|0:1,0:0:0:0:
91,325,253652,2,0,P|78:241|50:215,1,90,8|2,0:1|0:0,0:0:0:0:
66,225,253908,1,0,0:0:0:0:
53,212,253993,1,2,0:1:0:0:
79,347,254163,1,8,0:0:0:0:
212,248,254334,6,0,P|209:181|185:138,1,90,8|0,0:1|0:0,0:0:0:0:
117,54,254589,2,0,P|92:39|56:31,1,45,0|2,0:0|0:0,0:0:0:0:
198,82,254760,2,0,P|217:59|248:41,1,45,0|2,0:0|0:1,0:0:0:0:
426,22,255016,1,8,0:1:0:0:
349,184,255186,2,0,P|334:202|322:229,1,45,2|0,0:0|0:0,0:0:0:0:
425,275,255357,6,0,L|450:381,2,90,2|0|8,0:1|0:0|0:1,0:0:0:0:
422,125,255868,1,0,0:0:0:0:
394,106,255953,1,0,0:0:0:0:
362,95,256038,1,2,0:0:0:0:
328,94,256123,1,0,0:0:0:0:
295,102,256208,1,2,0:1:0:0:
196,172,256379,2,0,P|139:197|80:177,1,90,8|2,0:1|0:0,0:0:0:0:
92,188,256635,1,0,0:0:0:0:
74,176,256720,1,2,0:1:0:0:
211,42,256891,1,8,0:0:0:0:
269,235,257061,5,8,0:1:0:0:
94,299,257232,2,0,L|28:306,1,45
217,340,257402,2,0,L|261:335,1,45,2|0,0:0|0:0,0:0:0:0:
269,235,257572,2,0,L|288:107,1,90,2|8,0:1|0:1,0:0:0:0:
453,49,257913,1,2,0:0:0:0:
465,67,257998,1,0,0:0:0:0:
473,88,258083,5,2,0:1:0:0:
458,219,258254,1,0,0:0:0:0:
441,357,258425,1,8,0:1:0:0:
328,267,258595,1,0,0:0:0:0:
301,246,258680,1,0,0:0:0:0:
269,235,258765,1,2,0:0:0:0:
235,234,258850,1,0,0:0:0:0:
203,243,258935,1,2,0:1:0:0:
116,338,259107,2,0,P|81:309|67:256,1,90,8|2,0:1|0:0,0:0:0:0:
66,250,259362,1,0,0:0:0:0:
68,234,259447,1,2,0:1:0:0:
136,51,259618,1,8,0:0:0:0:
102,148,259788,6,0,P|147:127|225:140,1,90,8|0,0:1|0:0,0:0:0:0:
319,145,260044,2,0,L|397:133,2,45,0|2|0,0:0|0:0|0:0,0:0:0:0:
235,234,260300,2,0,P|193:245|153:293,1,90,2|8,0:1|0:1,0:0:0:0:
354,292,260641,1,2,0:0:0:0:
357,302,260726,1,0,0:0:0:0:
360,313,260811,5,2,0:1:0:0:
509,203,260982,1,0,0:0:0:0:
324,77,261152,1,8,0:1:0:0:
86,145,261322,1,4,0:1:0:0:
82,189,261408,1,0,0:0:0:0:
79,234,261493,1,2,0:0:0:0:
75,279,261578,1,0,0:0:0:0:
72,324,261663,1,2,0:1:0:0:
268,349,261834,6,0,P|280:304|277:278,1,45,8|0,0:1|0:0,0:0:0:0:
222,175,262004,2,0,P|224:150|236:124,1,45,2|0,0:0|0:0,0:0:0:0:
363,18,262175,1,2,0:1:0:0:
512,114,262345,1,8,0:0:0:0:
403,204,262516,5,8,0:1:0:0:
477,306,262686,1,0,0:0:0:0:
465,337,262771,1,0,0:0:0:0:
441,360,262856,1,2,0:0:0:0:
410,370,262941,1,0,0:0:0:0:
377,365,263026,1,2,0:1:0:0:
210,268,263197,1,8,0:1:0:0:
9,282,263368,1,2,0:0:0:0:
45,307,263453,1,0,0:0:0:0:
89,309,263538,5,2,0:1:0:0:
210,268,263709,1,0,0:0:0:0:
276,151,263879,2,0,L|257:26,1,90,8|0,0:1|0:0,0:0:0:0:
178,14,264135,2,0,P|168:47|150:69,1,45,0|2,0:0|0:0,0:0:0:0:
69,142,264305,2,0,P|106:148|131:160,1,45,0|2,0:0|0:1,0:0:0:0:
278,223,264561,2,0,P|328:244|398:228,1,90,8|2,0:1|0:0,0:0:0:0:
384,238,264817,1,0,0:0:0:0:
403,228,264902,1,2,0:1:0:0:
343,97,265072,1,8,0:0:0:0:
336,352,265243,6,0,P|392:349|441:311,1,90,8|0,0:1|0:0,0:0:0:0:
481,274,265499,2,0,P|490:252|494:223,1,45,0|2,0:0|0:0,0:0:0:0:
498,156,265669,2,0,P|495:125|486:99,1,45,0|2,0:0|0:1,0:0:0:0:
343,97,265925,1,8,0:1:0:0:
199,149,266095,2,0,L|143:143,1,45,2|0,0:0|0:0,0:0:0:0:
89,58,266266,6,0,L|-17:42,2,90,2|0|8,0:1|0:0|0:1,0:0:0:0:
343,97,266777,1,0,0:0:0:0:
360,125,266862,1,0,0:0:0:0:
365,158,266947,1,2,0:0:0:0:
357,191,267032,1,0,0:0:0:0:
339,219,267117,1,2,0:1:0:0:
176,233,267288,2,0,P|118:242|85:272,1,90,8|2,0:1|0:0,0:0:0:0:
82,275,267544,1,0,0:0:0:0:
74,289,267629,1,2,0:1:0:0:
262,311,267800,1,8,0:0:0:0:
199,149,267970,6,0,P|176:88|175:49,1,90,8|0,0:1|0:0,0:0:0:0:
99,97,268226,2,0,L|38:89,1,45,0|2,0:0|0:0,0:0:0:0:
247,29,268396,2,0,L|291:34,1,45,0|2,0:0|0:1,0:0:0:0:
260,214,268652,1,8,0:1:0:0:
371,315,268822,1,2,0:0:0:0:
411,332,268907,1,0,0:0:0:0:
456,328,268992,5,2,0:1:0:0:
302,204,269163,1,0,0:0:0:0:
496,306,269334,1,8,0:1:0:0:
338,188,269504,1,0,0:0:0:0:
364,167,269589,1,0,0:0:0:0:
381,138,269674,1,2,0:0:0:0:
388,105,269759,1,0,0:0:0:0:
386,71,269844,1,2,0:1:0:0:
246,102,270016,2,0,P|182:100|129:139,1,90,8|2,0:1|0:0,0:0:0:0:
143,120,270271,1,0,0:0:0:0:
131,132,270357,1,2,0:1:0:0:
131,320,270527,1,8,0:0:0:0:
243,309,270697,6,0,L|228:202,1,90,8|0,0:1|0:0,0:0:0:0:
185,208,270953,1,0,0:0:0:0:
134,205,271038,1,2,0:0:0:0:
82,226,271124,1,0,0:0:0:0:
39,267,271209,2,0,L|24:160,1,90,2|8,0:1|0:1,0:0:0:0:
0,30,271550,1,2,0:0:0:0:
35,58,271635,1,0,0:0:0:0:
78,66,271720,5,2,0:1:0:0:
187,66,271891,1,0,0:0:0:0:
289,104,272061,1,8,0:1:0:0:
289,104,272232,2,0,P|312:116|335:147,1,45
296,217,272402,2,0,P|308:242|356:275,1,45,2|4,0:0|0:1,0:0:0:0:
443,235,272572,1,2,0:1:0:0:
443,235,272743,5,0,0:0:0:0:
410,165,272828,1,0,0:0:0:0:
480,133,272913,1,0,0:0:0:0:
512,202,272999,1,0,0:0:0:0:
460,183,273084,5,0,0:0:0:0:
