osu file format v14

[General]
AudioFilename: audio.mp3
AudioLeadIn: 0
PreviewTime: 70562
Countdown: 0
SampleSet: Soft
StackLeniency: 0.5
Mode: 0
LetterboxInBreaks: 0
WidescreenStoryboard: 0

[Editor]
Bookmarks: 1386,7033,12680,18327,23974,26797,32444,38091,43738,49385,55033,60680,66327,71974,83268,88915,94209,94562,103033,108680,114327,117150,122797
DistanceSpacing: 1
BeatDivisor: 4
GridSize: 32
TimelineZoom: 1.6

[Metadata]
Title:Boku ga Mita Sekai
TitleUnicode:僕が見た世界
Artist:Kankitsu feat. Salita
ArtistUnicode:Kankitsu feat. Salita
Creator:eiri-
Version:Normal
Source:osu!
Tags:Ayyri Zer0- -Sylvari Zero Featured Artist FA Japanese Pop Rock Bokuga Lime G2R2018
BeatmapID:2745057
BeatmapSetID:1325157

[Difficulty]
HPDrainRate:4
CircleSize:3
OverallDifficulty:5
ApproachRate:6
SliderMultiplier:1.2
SliderTickRate:1

[Events]
//Background and Video events
0,0,"Boku ga Mita Sekai.jpg",0,0
//Break Periods
//Storyboard Layer 0 (Background)
//Storyboard Layer 1 (Fail)
//Storyboard Layer 2 (Pass)
//Storyboard Layer 3 (Foreground)
//Storyboard Layer 4 (Overlay)
//Storyboard Sound Samples

[TimingPoints]
1386,352.941176470588,4,2,1,60,1,0
7033,-100,4,2,1,75,0,0
12680,-100,4,2,1,80,0,0
23974,-100,4,2,1,60,0,0
26797,-100,4,2,1,75,0,0
38091,-100,4,2,1,80,0,0
49385,-100,4,2,1,75,0,0
55033,-100,4,2,1,70,0,0
60680,-100,4,2,1,80,0,0
66327,-100,4,2,1,85,0,0
71974,-100,4,2,1,90,0,1
83268,-100,4,2,1,80,0,0
88915,-100,4,2,1,85,0,1
94209,-100,4,2,1,85,0,0
94562,-100,4,2,1,90,0,1
103033,-100,4,2,1,80,0,0
117150,-100,4,2,1,80,0,0
117856,-100,4,2,1,70,0,0
118562,-100,4,2,1,60,0,0
119268,-100,4,2,1,50,0,0
119974,-100,4,2,1,40,0,0
120680,-100,4,2,1,30,0,0
121385,-100,4,2,1,20,0,0
122091,-100,4,2,1,10,0,0
122797,-100,4,2,1,5,0,0

[Colours]
Combo1 : 79,111,240
Combo2 : 179,234,255
Combo3 : 57,201,255
Combo4 : 165,182,248

[HitObjects]
96,96,1386,6,0,L|84:19,2,60,6|2|2,0:0|0:0|0:0,0:0:0:0:
85,155,1915,1,2,0:0:0:0:
380,208,2797,6,0,L|392:131,2,60,2|2|2,0:0|0:0|0:0,0:0:0:0:
400,270,3326,1,2,0:0:0:0:
400,270,3503,2,0,L|412:347,1,60,2|0,0:0|0:0,0:0:0:0:
366,372,3856,1,2,0:0:0:0:
250,338,4209,6,0,L|114:357,1,120,2|2,0:0|0:0,0:0:0:0:
74,335,4738,1,2,0:0:0:0:
147,239,5091,1,2,0:0:0:0:
40,195,5444,1,2,0:0:0:0:
40,195,5621,1,6,0:0:0:0:
119,33,6150,6,0,L|128:103,1,60,10|10,0:0|0:0,0:0:0:0:
171,132,6503,2,0,L|250:114,2,60,2|10|10,1:2|0:0|0:0,0:0:0:0:
147,187,7033,6,0,L|132:328,1,120,14|10,0:0|0:0,0:0:0:0:
253,290,7738,2,0,L|262:209,2,60,10|2|10,0:0|1:2|0:0,0:0:0:0:
298,338,8268,1,2,1:2:0:0:
298,338,8444,2,0,P|377:326|432:322,1,120,10|10,0:0|0:0,0:0:0:0:
481,334,8974,1,2,1:2:0:0:
481,334,9150,1,10,0:0:0:0:
507,223,9503,1,10,0:0:0:0:
507,223,9680,1,2,1:2:0:0:
507,223,9856,6,0,L|484:93,2,120,10|10|2,0:0|0:0|1:2,0:0:0:0:
395,267,10915,1,10,0:0:0:0:
395,267,11091,2,0,P|316:248|256:245,1,120,14|2,0:0|1:2,0:0:0:0:
230,282,11621,2,0,P|208:351|143:362,2,120,10|2|2,0:0|1:2|1:2,0:0:0:0:
134,208,12680,6,0,L|54:221,1,60,14|2,0:0|0:0,0:0:0:0:
24,196,13033,1,2,1:2:0:0:
24,196,13209,2,0,P|44:106|50:60,1,120,2|10,0:0|0:0,0:0:0:0:
148,12,13915,2,0,P|208:50|201:113,1,120,2|0,0:0|0:0,0:0:0:0:
177,143,14444,2,0,L|188:222,1,60,2|0,1:2|0:0,0:0:0:0:
223,249,14797,2,0,L|212:328,1,60,10|8,0:0|0:0,0:0:0:0:
177,355,15150,1,2,1:2:0:0:
295,375,15503,6,0,P|390:356|429:351,2,120,14|2|10,0:0|1:2|0:0,0:0:0:0:
248,358,16385,2,0,L|234:272,1,60,10|2,0:0|1:2,0:0:0:0:
276,251,16738,2,0,L|296:119,1,120,10|0,0:0|0:0,0:0:0:0:
270,82,17268,1,2,1:2:0:0:
270,82,17444,1,10,0:0:0:0:
158,118,17797,1,10,0:0:0:0:
158,118,17974,2,0,L|76:108,1,60,2|2,1:2|1:2,0:0:0:0:
44,138,18327,6,0,L|69:268,1,120,14|2,0:0|1:2,0:0:0:0:
46,312,18856,2,0,L|178:292,1,120,10|10,0:0|0:0,0:0:0:0:
224,320,19385,1,2,1:2:0:0:
224,320,19562,1,10,0:0:0:0:
292,222,19915,1,2,1:2:0:0:
292,222,20091,2,0,L|368:229,1,60,10|2,0:0|1:2,0:0:0:0:
399,191,20444,2,0,P|387:132|368:59,1,120,10|10,0:0|0:0,0:0:0:0:
258,114,21150,6,0,P|178:99|113:100,1,120,14|2,0:0|1:2,0:0:0:0:
85,124,21680,2,0,P|28:102|47:47,1,120,10|10,0:0|0:0,0:0:0:0:
93,27,22209,1,2,1:2:0:0:
93,27,22385,1,10,0:0:0:0:
216,45,22738,1,2,1:2:0:0:
216,45,22915,2,0,L|227:113,1,60,10|2,0:0|1:2,0:0:0:0:
259,154,23268,2,0,L|240:296,1,120,10|10,0:0|0:0,0:0:0:0:
320,365,23974,5,14,0:0:0:0:
502,342,24503,1,2,0:0:0:0:
502,342,24680,2,0,P|429:315|434:274,1,120,2|0,0:0|0:0,0:0:0:0:
459,233,25209,2,0,L|442:90,2,120,2|2|2,0:0|0:0|0:0,0:0:0:0:
347,202,26268,1,10,0:0:0:0:
347,202,26444,2,0,L|267:216,1,60,2|0,1:2|0:0,0:0:0:0:
232,189,26797,5,14,0:0:0:0:
137,262,27150,2,0,L|63:251,1,60,2|2,1:2|0:0,0:0:0:0:
22,278,27503,2,0,L|43:141,1,120,10|2,0:0|1:2,0:0:0:0:
26,100,28033,1,2,0:0:0:0:
125,34,28385,1,2,0:0:0:0:
125,34,28562,2,0,B|144:119,1,60,2|2,1:2|0:0,0:0:0:0:
155,150,28915,2,0,P|195:180|275:174,1,120,10|2,0:0|1:2,0:0:0:0:
357,105,29621,6,0,P|420:91|487:100,1,120,10|2,0:0|1:2,0:0:0:0:
491,154,30150,2,0,P|457:235|446:337,1,180,2|2,0:0|1:2,0:0:0:0:
407,372,30856,1,2,0:0:0:0:
291,337,31209,2,0,L|205:351,1,60,2|2,0:0|1:2,0:0:0:0:
173,360,31562,1,10,0:0:0:0:
86,277,31915,1,10,0:0:0:0:
86,277,32091,2,0,P|102:224|100:194,1,60,2|2,1:2|1:2,0:0:0:0:
82,162,32444,5,10,0:0:0:0:
46,52,32797,1,2,1:2:0:0:
46,52,32974,2,0,P|115:63|188:64,1,120,2|8,0:0|0:0,0:0:0:0:
287,44,33680,1,2,0:0:0:0:
287,44,33856,2,0,L|273:186,2,120,10|2|10,0:0|1:2|0:0,0:0:0:0:
345,22,34738,1,8,0:0:0:0:
345,22,34915,1,2,1:2:0:0:
411,121,35268,6,0,P|479:105|532:109,1,120,10|2,0:0|1:2,0:0:0:0:
497,161,35797,1,2,0:0:0:0:
497,161,35974,2,0,L|506:246,1,60,10|10,0:0|0:0,0:0:0:0:
463,266,36327,2,0,P|395:250|342:254,1,120,2|10,1:2|0:0,0:0:0:0:
377,306,36856,1,2,0:0:0:0:
266,353,37209,2,0,L|240:216,1,120,10|10,0:0|0:0,0:0:0:0:
231,176,37738,1,2,1:2:0:0:
302,79,38091,5,14,0:0:0:0:
198,18,38444,2,0,P|167:65|105:74,1,120,2|10,1:2|0:0,0:0:0:0:
19,156,39150,1,2,1:2:0:0:
19,156,39327,2,0,B|50:177|50:177|37:282,1,120,2|2,0:0|0:0,0:0:0:0:
73,309,39856,2,0,L|160:294,1,60,2|2,1:2|0:0,0:0:0:0:
191,287,40209,1,10,0:0:0:0:
275,371,40562,1,2,1:2:0:0:
391,343,40915,6,0,P|464:311|466:264,1,120,10|2,0:0|1:2,0:0:0:0:
426,236,41444,2,0,B|382:207|382:207|415:65,1,180,2|2,0:0|1:2,0:0:0:0:
426,24,42150,1,2,0:0:0:0:
307,45,42503,2,0,L|221:59,1,60,2|2,0:0|1:2,0:0:0:0:
189,68,42856,1,10,0:0:0:0:
91,7,43209,1,10,0:0:0:0:
91,7,43385,2,0,P|75:60|77:90,1,60,2|2,1:2|1:2,0:0:0:0:
95,119,43738,5,10,0:0:0:0:
195,194,44091,1,2,1:2:0:0:
195,194,44268,2,0,P|264:183|337:182,1,120,2|8,0:0|0:0,0:0:0:0:
435,211,44974,1,2,0:0:0:0:
435,211,45150,2,0,L|421:353,2,120,10|2|10,0:0|1:2|0:0,0:0:0:0:
444,155,46032,1,8,0:0:0:0:
444,155,46209,1,2,1:2:0:0:
339,95,46562,6,0,P|271:79|218:83,1,120,14|10,0:0|0:0,0:0:0:0:
180,126,47091,2,0,P|112:142|59:138,1,120,14|10,0:0|0:0,0:0:0:0:
21,95,47621,2,0,P|63:28|172:37,1,180,14|2,0:0|0:0,0:0:0:0:
206,60,48327,1,2,0:0:0:0:
324,38,48680,2,0,L|319:116,1,60,2|10,1:2|0:0,0:0:0:0:
286,147,49033,2,0,L|299:227,1,60,10|10,0:0|0:0,0:0:0:0:
331,251,49385,6,0,B|380:209|380:209|523:227,2,180,14|2|14,0:0|1:2|0:0,0:0:0:0:
117,362,51150,2,0,P|93:312|96:289,1,60,2|2,0:0|0:0,0:0:0:0:
122,256,51503,2,0,P|146:206|143:183,1,60,10|10,0:0|0:0,0:0:0:0:
117,150,51856,1,6,1:2:0:0:
210,74,52209,6,0,P|330:89|391:90,2,180,14|14|6,0:0|0:0|1:2,0:0:0:0:
401,312,54150,1,2,0:0:0:0:
401,312,54327,2,0,P|385:252|374:229,1,60,10|8,0:0|0:0,0:0:0:0:
358,200,54680,1,6,1:2:0:0:
248,249,55033,6,0,P|172:238|117:237,2,120,14|2|2,0:0|0:0|0:0,0:0:0:0:
362,285,56091,1,2,1:2:0:0:
434,189,56444,2,0,P|405:87|330:32,1,180,10|10,0:0|0:0,0:0:0:0:
315,89,57150,2,0,B|282:129|282:129|135:106,1,180,2|0,0:0|0:0,0:0:0:0:
96,97,57856,6,0,L|125:357,1,240,14|2,0:0|0:0,0:0:0:0:
228,275,58915,1,2,1:2:0:0:
228,275,59091,2,0,P|279:283|307:353,1,120,2|2,0:0|0:0,0:0:0:0:
358,373,59621,1,2,0:0:0:0:
466,320,59974,2,0,L|458:251,1,60,2|10,0:0|0:0,0:0:0:0:
452,200,60327,1,2,1:2:0:0:
494,87,60680,6,0,L|356:107,1,120,14|2,0:0|1:2,0:0:0:0:
322,74,61209,2,0,P|279:19|217:6,2,120,2|10|2,0:0|0:0|0:0,0:0:0:0:
276,185,62268,1,0,0:0:0:0:
276,185,62444,2,0,P|218:171|198:170,1,60,2|0,1:2|0:0,0:0:0:0:
167,204,62797,2,0,L|183:351,1,120,10|2,0:0|1:2,0:0:0:0:
69,371,63503,6,0,P|17:340|21:269,1,120,14|2,0:0|1:2,0:0:0:0:
60,249,64033,2,0,P|90:195|83:126,2,120,2|10|2,0:0|0:0|0:0,0:0:0:0:
167,301,65091,2,0,P|204:286|245:280,1,60,2|2,0:0|1:2,0:0:0:0:
275,312,65444,2,0,P|348:291|338:242,1,120,10|10,0:0|0:0,0:0:0:0:
315,208,65974,1,2,1:2:0:0:
427,166,66327,6,0,L|409:40,1,120,6|2,1:2|1:2,0:0:0:0:
291,67,67033,2,0,L|309:193,1,120,2|2,1:2|1:2,0:0:0:0:
257,294,67738,1,6,1:2:0:0:
143,255,68091,1,2,1:2:0:0:
194,147,68444,1,2,1:2:0:0:
308,186,68797,1,2,1:2:0:0:
257,294,69150,6,0,L|118:311,1,120,14|10,0:0|0:0,0:0:0:0:
84,336,69680,1,2,1:2:0:0:
84,336,69856,2,0,P|51:300|48:269,1,60,10|2,0:0|1:2,0:0:0:0:
79,239,70209,2,0,P|112:203|115:172,1,60,2|2,1:2|1:2,0:0:0:0:
84,142,70562,5,14,0:0:0:0:
288,16,71268,2,0,P|374:42|432:43,1,120,2|6,0:0|1:2,0:0:0:0:
494,123,71974,6,0,P|470:225|467:301,2,180,14|2|2,0:0|0:0|1:2,0:0:0:0:
380,161,73385,2,0,L|236:143,1,120,14|0,0:0|1:0,0:0:0:0:
211,111,73915,2,0,P|169:145|177:214,1,120,2|10,0:0|0:0,0:0:0:0:
209,253,74444,1,2,1:2:0:0:
137,349,74797,6,0,P|77:330|8:320,2,120,14|2|10,0:0|1:2|0:0,0:0:0:0:
194,325,75680,1,10,0:0:0:0:
194,325,75856,1,2,1:2:0:0:
303,373,76209,2,0,P|346:303|330:186,1,180,10|8,0:0|0:0,0:0:0:0:
307,157,76915,2,0,L|317:78,2,60,2|10|2,0:0|0:0|1:2,0:0:0:0:
193,197,77621,6,0,P|122:178|14:170,2,180,14|2|2,0:0|0:0|1:2,0:0:0:0:
256,94,79033,2,0,L|400:76,1,120,14|0,0:0|1:0,0:0:0:0:
425,44,79563,2,0,P|467:78|459:147,1,120,2|10,0:0|0:0,0:0:0:0:
427,186,80092,1,2,1:2:0:0:
410,304,80445,6,0,P|350:285|281:275,2,120,14|2|10,0:0|1:2|0:0,0:0:0:0:
467,280,81328,1,10,0:0:0:0:
467,280,81504,1,2,1:2:0:0:
398,185,81856,2,0,P|325:198|318:256,1,120,10|2,0:0|1:2,0:0:0:0:
240,330,82562,2,0,P|167:317|160:259,1,120,2|2,0:0|1:2,0:0:0:0:
178,227,83091,1,10,0:0:0:0:
178,227,83268,6,0,P|165:164|139:90,2,120,14|10|10,0:0|0:0|0:0,0:0:0:0:
151,344,84327,1,2,1:2:0:0:
267,373,84680,2,0,P|356:360|404:355,2,120,10|2|2,0:0|0:0|0:0,0:0:0:0:
180,290,85738,1,2,1:2:0:0:
261,202,86091,6,0,P|325:214|361:281,2,120,10|10|10,0:0|0:0|0:0,0:0:0:0:
180,290,87150,1,2,1:2:0:0:
80,222,87503,2,0,P|44:156|43:88,2,120,10|2|2,0:0|0:0|0:0,0:0:0:0:
76,285,88385,1,10,0:0:0:0:
76,285,88562,1,2,1:2:0:0:
157,372,88915,6,0,P|255:359|356:333,2,180,14|2|2,0:0|0:0|1:2,0:0:0:0:
54,308,90327,2,0,L|67:225,1,60,10|0,0:0|0:0,0:0:0:0:
27,200,90680,2,0,L|14:117,1,60,2|0,1:2|0:0,0:0:0:0:
54,92,91033,1,10,0:0:0:0:
169,125,91385,1,2,1:2:0:0:
257,43,91738,6,0,B|298:32|298:32|325:133,1,120,14|2,0:0|1:2,0:0:0:0:
329,166,92268,2,0,P|272:181|268:251,1,120,2|8,0:0|0:0,0:0:0:0:
298,281,92797,1,2,1:2:0:0:
399,345,93150,2,0,P|463:305|528:284,1,120,10|2,0:0|1:2,0:0:0:0:
512,233,93680,1,10,0:0:0:0:
512,233,93856,2,0,P|448:193|383:172,1,120,10|2,0:0|1:2,0:0:0:0:
399,121,94386,1,10,0:0:0:0:
399,121,94562,6,0,L|437:-2,1,120,6|2,1:2|1:2,0:0:0:0:
316,30,95268,2,0,L|278:153,1,120,2|2,1:2|1:2,0:0:0:0:
300,263,95974,1,6,1:2:0:0:
184,295,96327,1,2,1:2:0:0:
121,192,96680,1,2,1:2:0:0:
5,160,97033,1,2,1:2:0:0:
37,44,97385,6,0,L|171:30,1,120,6|2,1:2|1:2,0:0:0:0:
266,80,98091,2,0,L|400:66,1,120,2|2,1:2|1:2,0:0:0:0:
464,157,98797,1,6,1:2:0:0:
375,236,99150,1,2,1:2:0:0:
375,236,99327,1,8,0:0:0:0:
375,236,99503,2,0,P|395:282|395:298,1,60,2|10,1:2|0:0,0:0:0:0:
375,347,99856,1,2,1:2:0:0:
257,372,100209,6,0,P|192:350|114:340,1,120,14|10,0:0|0:0,0:0:0:0:
84,361,100738,2,0,P|32:324|37:261,1,120,10|2,0:0|1:2,0:0:0:0:
64,223,101268,1,2,1:2:0:0:
64,223,101444,1,2,1:2:0:0:
9,116,101797,2,0,L|15:48,2,60,2|2|2,1:2|1:2|1:2,0:0:0:0:
66,133,102327,2,0,P|121:121|191:115,1,120,10|2,0:0|1:2,0:0:0:0:
301,143,103033,6,0,L|314:223,1,60,14|2,0:0|0:0,0:0:0:0:
289,253,103386,1,2,1:2:0:0:
289,253,103562,2,0,P|199:233|153:227,1,120,2|10,0:0|0:0,0:0:0:0:
67,290,104268,2,0,P|84:349|140:345,1,120,2|0,0:0|0:0,0:0:0:0:
192,365,104797,2,0,L|271:354,1,60,2|0,1:2|0:0,0:0:0:0:
298,319,105150,2,0,L|377:330,1,60,10|8,0:0|0:0,0:0:0:0:
404,365,105503,1,2,1:2:0:0:
478,270,105856,6,0,P|497:175|502:136,2,120,14|2|10,0:0|1:2|0:0,0:0:0:0:
421,248,106738,2,0,L|342:259,1,60,10|2,0:0|1:2,0:0:0:0:
301,263,107091,2,0,L|321:131,1,120,10|0,0:0|0:0,0:0:0:0:
295,94,107621,1,2,1:2:0:0:
295,94,107797,1,10,0:0:0:0:
184,134,108150,1,2,0:0:0:0:
184,134,108327,2,0,L|102:124,1,60,2|2,1:2|1:2,0:0:0:0:
70,154,108680,6,0,L|95:284,1,120,14|2,0:0|1:2,0:0:0:0:
82,331,109209,2,0,P|130:332|213:366,1,120,10|10,0:0|0:0,0:0:0:0:
258,340,109738,1,2,1:2:0:0:
258,340,109915,1,10,0:0:0:0:
378,371,110268,1,2,1:2:0:0:
378,371,110444,2,0,L|388:294,1,60,10|2,0:0|1:2,0:0:0:0:
422,263,110797,2,0,P|412:201|340:205,1,120,10|10,0:0|0:0,0:0:0:0:
249,228,111503,6,0,P|169:213|104:214,1,120,14|2,0:0|1:2,0:0:0:0:
76,238,112033,2,0,P|19:216|38:161,1,120,10|10,0:0|0:0,0:0:0:0:
84,141,112562,1,2,1:2:0:0:
84,141,112738,1,10,0:0:0:0:
203,112,113091,1,2,1:2:0:0:
203,112,113268,2,0,L|214:180,1,60,10|10,0:0|0:0,0:0:0:0:
246,221,113621,2,0,L|227:363,1,120,2|10,1:2|0:0,0:0:0:0:
287,371,114150,1,2,1:2:0:0:
287,371,114327,6,0,P|370:349|429:346,1,120,6|2,1:2|1:2,0:0:0:0:
455,237,115033,2,0,P|372:215|313:212,1,120,2|2,1:2|1:2,0:0:0:0:
236,148,115738,2,0,L|225:61,2,60,6|10|2,1:2|0:0|1:2,0:0:0:0:
195,192,116268,2,0,L|184:279,2,60,10|2|10,0:0|1:2|0:0,0:0:0:0:
154,148,116797,2,0,L|143:61,1,60,2|10,1:2|0:0,0:0:0:0:
136,29,117150,5,6,1:2:0:0:
256,192,117238,12,0,122797,0:0:0:0:
