osu file format v14

[General]
AudioFilename: audio.mp3
AudioLeadIn: 0
PreviewTime: 70562
Countdown: 0
SampleSet: Soft
StackLeniency: 0.5
Mode: 0
LetterboxInBreaks: 0
WidescreenStoryboard: 0

[Editor]
Bookmarks: 1386,7033,12680,18327,23974,26797,32444,38091,43738,49385,55033,60680,66327,71974,83268,88915,94209,94562,103033,108680,114327,117150,122797
DistanceSpacing: 0.3
BeatDivisor: 4
GridSize: 32
TimelineZoom: 1.9

[Metadata]
Title:Boku ga Mita Sekai
TitleUnicode:僕が見た世界
Artist:Kankitsu feat. Salita
ArtistUnicode:Kankitsu feat. Salita
Creator:eiri-
Version:Expert
Source:osu!
Tags:Ayyri Zer0- -Sylvari Zero Featured Artist FA Japanese Pop Rock Bokuga Lime G2R2018
BeatmapID:2745056
BeatmapSetID:1325157

[Difficulty]
HPDrainRate:5
CircleSize:4.7
OverallDifficulty:8.5
ApproachRate:9
SliderMultiplier:1.4
SliderTickRate:1

[Events]
//Background and Video events
0,0,"Boku ga Mita Sekai.jpg",0,0
//Break Periods
//Storyboard Layer 0 (Background)
//Storyboard Layer 1 (Fail)
//Storyboard Layer 2 (Pass)
//Storyboard Layer 3 (Foreground)
//Storyboard Layer 4 (Overlay)
//Storyboard Sound Samples

[TimingPoints]
1386,352.941176470588,4,2,1,60,1,0
7033,-100,4,2,1,75,0,0
12680,-66.6666666666667,4,2,1,80,0,0
23974,-66.6666666666667,4,2,1,60,0,0
26797,-100,4,2,1,75,0,0
38091,-80,4,2,1,80,0,0
49385,-100,4,2,1,75,0,0
55033,-125,4,2,1,70,0,0
60327,-66.6666666666667,4,2,1,70,0,0
60680,-86.9565217391304,4,2,1,80,0,0
66327,-80,4,2,1,85,0,0
71974,-66.6666666666667,4,2,1,90,0,1
83268,-80,4,2,1,80,0,0
88915,-66.6666666666667,4,2,1,85,0,1
94209,-66.6666666666667,4,2,1,85,0,0
94562,-66.6666666666667,4,2,1,90,0,1
103033,-66.6666666666667,4,2,1,80,0,0
117150,-400,4,2,1,80,0,0
117856,-400,4,2,1,70,0,0
118562,-400,4,2,1,60,0,0
119268,-400,4,2,1,50,0,0
119974,-400,4,2,1,40,0,0
120680,-400,4,2,1,30,0,0
121385,-400,4,2,1,20,0,0
122091,-400,4,2,1,10,0,0
122797,-400,4,2,1,5,0,0

[Colours]
Combo1 : 79,111,240
Combo2 : 179,234,255
Combo3 : 57,201,255
Combo4 : 165,182,248

[HitObjects]
84,326,1386,6,0,P|39:289|16:284,1,70,6|0,0:0|0:0,0:0:0:0:
154,252,1738,1,2,0:0:0:0:
24,197,1915,2,0,L|178:214,1,140,2|0,0:0|0:0,0:0:0:0:
428,326,2797,2,0,P|473:289|496:284,1,70,2|0,0:0|0:0,0:0:0:0:
358,252,3150,1,2,0:0:0:0:
488,197,3327,1,2,0:0:0:0:
376,142,3503,2,0,L|389:230,1,70,2|0,0:0|0:0,0:0:0:0:
431,63,3856,2,0,P|388:98|318:94,1,105,2|0,0:0|0:0,0:0:0:0:
290,46,4209,6,0,P|342:15|394:66,1,140,2|2,0:0|0:0,0:0:0:0:
393,62,4738,1,2,0:0:0:0:
256,160,5091,1,2,0:0:0:0:
352,192,5444,1,2,0:0:0:0:
347,207,5621,5,6,0:0:0:0:
347,207,6150,2,0,L|386:200,2,23.3333333333333,10|10|10,0:0|0:0|0:0,0:0:0:0:
333,232,6327,1,10,0:0:0:0:
301,147,6503,1,2,1:2:0:0:
167,115,6680,1,10,0:0:0:0:
208,1,6856,1,10,0:0:0:0:
422,76,7033,6,0,L|436:157,1,70,14|0,0:0|0:0,0:0:0:0:
333,232,7385,2,0,L|319:151,1,70,10|0,0:0|0:0,0:0:0:0:
512,234,7738,1,10,0:0:0:0:
512,234,7915,2,0,L|498:315,2,70,2|10|2,1:2|0:0|1:2,0:0:0:0:
500,99,8444,1,10,0:0:0:0:
352,160,8621,2,0,L|258:147,2,70,2|10|2,1:2|0:0|1:2,0:0:0:0:
459,179,9150,1,10,0:0:0:0:
403,85,9327,2,0,L|415:7,2,70,2|10|2,1:2|0:0|1:2,0:0:0:0:
368,247,9856,5,10,0:0:0:0:
371,256,9944,1,2,1:2:0:0:
309,337,10121,1,2,1:2:0:0:
306,328,10209,1,10,0:0:0:0:
428,366,10385,1,10,0:0:0:0:
428,366,10474,1,10,0:0:0:0:
428,366,10562,2,0,L|440:304,3,35,2|2|2|2,1:2|1:2|1:2|1:2,0:0:0:0:
457,243,10915,1,10,0:0:0:0:
421,208,11003,1,10,0:0:0:0:
366,228,11091,5,14,0:0:0:0:
345,137,11268,2,0,L|333:75,3,35,2|2|2|2,1:2|1:2|1:2|1:2,0:0:0:0:
308,55,11621,2,0,L|320:-7,1,35,10|10,0:0|0:0,0:0:0:0:
359,2,11797,1,10,0:0:0:0:
213,33,11974,2,0,L|112:21,1,70,2|10,1:2|0:0,0:0:0:0:
139,39,12238,1,10,0:0:0:0:
134,53,12327,2,0,L|162:183,1,105,2|0,1:2|0:0,0:0:0:0:
129,243,12680,5,14,0:0:0:0:
307,174,12856,1,2,0:0:0:0:
240,376,13033,1,2,1:2:0:0:
201,137,13209,2,0,L|214:21,1,105.000004005432,2|8,0:0|0:0,0:0:0:0:
321,199,13562,2,0,L|308:315,1,105.000004005432,10|0,0:0|1:0,0:0:0:0:
75,340,13915,6,0,B|143:320|143:320|150:273|150:273|250:242,1,210.000008010865,2|0,0:0|0:0,0:0:0:0:
454,366,14444,2,0,P|390:338|396:296,1,105.000004005432,2|0,1:2|0:0,0:0:0:0:
272,213,14797,2,0,P|336:185|330:143,1,105.000004005432,10|8,0:0|0:0,0:0:0:0:
290,19,15150,2,0,P|373:18|391:104,1,157.500006008148,2|0,1:2|0:0,0:0:0:0:
371,112,15503,6,0,P|292:97|150:98,2,210.000008010865,14|2|10,0:0|1:2|0:0,0:0:0:0:
496,174,16385,1,10,0:0:0:0:
334,209,16562,1,2,1:2:0:0:
424,251,16738,2,0,P|416:167|397:5,1,210.000008010865,10|0,0:0|0:0,0:0:0:0:
321,4,17268,1,2,1:2:0:0:
192,64,17444,2,0,L|43:54,1,105.000004005432,10|0,0:0|0:0,0:0:0:0:
16,198,17797,1,10,0:0:0:0:
126,272,17974,2,0,P|175:246|164:188,1,105.000004005432,2|2,1:2|1:2,0:0:0:0:
165,191,18238,1,2,1:2:0:0:
144,195,18327,5,14,0:0:0:0:
315,256,18503,2,0,L|305:187,1,52.5000020027161,2|2,1:2|1:2,0:0:0:0:
292,106,18680,1,2,1:2:0:0:
292,106,18768,1,2,1:2:0:0:
292,106,18856,2,0,P|343:111|412:122,2,105.000004005432,10|10|10,0:0|0:0|0:0,0:0:0:0:
184,130,19385,1,2,1:2:0:0:
144,37,19562,6,0,P|210:15|219:131,1,210.000008010865,10|2,0:0|1:2,0:0:0:0:
231,123,20003,1,2,1:2:0:0:
231,123,20091,1,10,0:0:0:0:
64,96,20268,1,2,1:2:0:0:
64,96,20356,1,2,1:2:0:0:
64,96,20444,5,10,0:0:0:0:
59,128,20532,1,10,0:0:0:0:
55,160,20620,1,2,1:2:0:0:
51,193,20709,1,2,1:2:0:0:
5,251,20797,5,10,0:0:0:0:
50,226,20885,1,10,0:0:0:0:
99,238,20973,1,2,1:2:0:0:
128,280,21061,1,2,1:2:0:0:
121,331,21149,5,14,0:0:0:0:
281,357,21327,2,0,L|272:287,1,52.5000020027161,2|2,1:2|1:2,0:0:0:0:
260,175,21503,1,2,1:2:0:0:
260,175,21591,1,2,1:2:0:0:
260,175,21680,2,0,P|328:186|385:183,1,105.000004005432,10|10,0:0|0:0,0:0:0:0:
465,170,22033,1,10,0:0:0:0:
322,96,22209,1,2,1:2:0:0:
430,49,22385,6,0,P|437:137|439:269,1,210.000008010865,10|2,0:0|1:2,0:0:0:0:
439,258,22827,1,2,1:2:0:0:
439,258,22915,1,10,0:0:0:0:
294,348,23091,1,2,1:2:0:0:
294,348,23180,1,2,1:2:0:0:
294,348,23268,5,10,0:0:0:0:
287,296,23356,1,10,0:0:0:0:
279,246,23444,1,2,1:2:0:0:
271,194,23533,1,2,1:2:0:0:
308,127,23621,5,10,0:0:0:0:
312,95,23709,1,10,0:0:0:0:
317,64,23797,1,2,1:2:0:0:
321,33,23885,1,2,1:2:0:0:
325,2,23974,5,14,0:0:0:0:
505,46,24503,1,2,0:0:0:0:
501,57,24680,1,2,0:0:0:0:
273,91,25209,1,2,0:0:0:0:
312,176,25562,1,2,0:0:0:0:
273,91,25915,1,2,0:0:0:0:
312,176,26268,1,10,0:0:0:0:
328,14,26444,1,2,1:2:0:0:
328,14,26797,6,0,P|316:53|304:112,1,70,14|0,0:0|0:0,0:0:0:0:
405,174,27150,1,2,1:2:0:0:
435,84,27327,1,2,0:0:0:0:
263,162,27503,2,0,P|328:155|419:148,1,140,10|2,0:0|1:2,0:0:0:0:
300,279,28033,6,0,P|264:243|271:231,1,70,2|8,0:0|0:0,0:0:0:0:
401,306,28385,1,2,0:0:0:0:
242,370,28562,1,2,1:2:0:0:
298,319,28738,1,2,0:0:0:0:
424,379,28915,2,0,L|440:280,1,70,10|8,0:0|0:0,0:0:0:0:
498,206,29268,2,0,L|482:107,1,70,2|0,1:2|0:0,0:0:0:0:
358,46,29621,6,0,B|394:36|394:36|373:126,1,105,10|0,0:0|0:0,0:0:0:0:
392,146,29974,1,2,1:2:0:0:
275,210,30150,1,2,0:0:0:0:
198,145,30327,2,0,L|96:156,2,70,10|10|2,0:0|0:0|1:2,0:0:0:0:
115,257,30856,6,0,P|84:220|38:210,1,70,2|8,0:0|0:0,0:0:0:0:
202,337,31209,2,0,P|154:333|114:358,1,70,2|2,0:0|1:2,0:0:0:0:
219,171,31562,2,0,P|233:240|237:297,1,105,10|0,0:0|0:0,0:0:0:0:
266,305,31915,1,10,0:0:0:0:
435,289,32091,1,2,1:2:0:0:
322,241,32268,1,2,1:2:0:0:
322,241,32356,1,2,1:2:0:0:
322,241,32444,6,0,P|347:178|372:136,1,105,10|0,0:0|0:0,0:0:0:0:
402,113,32797,1,2,1:2:0:0:
229,38,32974,2,0,P|258:87|337:76,1,140,2|8,0:0|0:0,0:0:0:0:
208,143,33503,1,2,1:2:0:0:
376,186,33680,1,2,0:0:0:0:
288,245,33856,6,0,L|300:154,1,70,10|0,0:0|0:0,0:0:0:0:
369,301,34209,2,0,L|381:392,1,70,2|0,1:2|0:0,0:0:0:0:
283,276,34562,2,0,L|201:287,1,70,10|8,0:0|0:0,0:0:0:0:
379,211,34915,2,0,L|461:200,1,70,2|0,1:2|0:0,0:0:0:0:
342,110,35268,6,0,L|476:93,1,105,10|0,0:0|0:0,0:0:0:0:
480,128,35621,1,2,1:2:0:0:
299,49,35797,1,2,0:0:0:0:
299,49,35974,2,0,L|318:143,1,70,10|10,0:0|0:0,0:0:0:0:
170,110,36327,6,0,L|36:93,1,105,2|0,1:2|0:0,0:0:0:0:
32,128,36680,1,10,0:0:0:0:
213,49,36856,1,2,0:0:0:0:
160,160,37033,1,2,1:2:0:0:
111,4,37209,1,10,0:0:0:0:
111,4,37562,1,10,0:0:0:0:
177,42,37738,2,2,L|181:71,6,17.5,2|0|0|0|8|0|0,1:2|0:0|0:0|0:0|0:0|0:0|0:0,0:1:0:0:
213,49,38091,6,0,B|245:55|245:55|238:127,1,87.5,14|0,0:0|0:0,0:0:0:0:
233,243,38444,1,2,1:2:0:0:
155,173,38621,1,2,0:0:0:0:
338,197,38797,2,0,L|444:176,1,87.5,10|8,0:0|0:0,0:0:0:0:
500,117,39150,1,2,1:2:0:0:
511,270,39327,6,0,P|436:284|416:385,1,175,2|2,0:0|0:0,0:0:0:0:
268,336,39856,1,2,1:2:0:0:
401,289,40033,1,2,0:0:0:0:
234,226,40209,2,0,P|247:275|247:323,1,87.5,10|8,0:0|0:0,0:0:0:0:
367,179,40562,2,0,P|427:152|511:93,1,131.25,2|0,1:2|0:0,0:0:0:0:
446,87,40915,6,0,L|454:-8,2,87.5,10|2|2,0:0|0:0|1:2,0:0:0:0:
332,207,41444,2,0,L|140:188,1,175,2|10,0:0|0:0,0:0:0:0:
50,242,41974,1,2,1:2:0:0:
4,102,42150,6,0,P|59:115|64:160,1,87.5,2|8,0:0|0:0,0:0:0:0:
179,46,42503,2,0,P|166:101|121:106,1,87.5,2|2,0:0|1:2,0:0:0:0:
47,5,42856,2,0,P|113:21|240:14,1,175,10|10,0:0|0:0,0:0:0:0:
138,93,43385,1,2,1:2:0:0:
243,159,43562,1,2,1:2:0:0:
243,159,43650,1,2,1:2:0:0:
243,159,43738,6,0,P|228:227|187:306,1,131.25,10|0,0:0|0:0,0:0:0:0:
168,318,44091,1,2,1:2:0:0:
16,242,44268,2,0,B|76:227|76:227|48:80,1,175,2|8,0:0|0:0,0:0:0:0:
149,80,44797,1,2,1:2:0:0:
4,33,44974,1,2,0:0:0:0:
4,33,45150,6,0,L|102:19,1,87.5,10|0,0:0|0:0,0:0:0:0:
247,110,45503,2,0,L|149:96,1,87.5,2|0,1:2|0:0,0:0:0:0:
37,214,45856,2,0,L|14:102,1,87.5,10|8,0:0|0:0,0:0:0:0:
160,224,46209,2,0,L|137:336,1,87.5,2|0,1:2|0:0,0:0:0:0:
106,120,46562,6,0,P|159:67|239:72,1,131.25,14|0,0:0|0:0,0:0:0:0:
257,88,46915,1,10,0:0:0:0:
192,226,47091,2,0,P|121:197|10:190,1,175,14|10,0:0|0:0,0:0:0:0:
154,356,47621,2,0,B|270:368|226:260|384:289,1,218.75,14|0,0:0|0:0,0:0:0:0:
350,295,48150,5,2,0:0:0:0:
266,255,48327,1,2,0:0:0:0:
288,378,48503,1,2,0:0:0:0:
342,162,48680,2,0,L|326:64,1,87.5,2|10,1:2|0:0,0:0:0:0:
399,10,49033,1,10,0:0:0:0:
459,60,49209,1,10,0:0:0:0:
211,125,49385,6,0,L|46:88,1,140,14|8,0:0|0:0,0:0:0:0:
53,251,49915,2,0,P|147:223|136:182,1,140,2|8,1:2|0:0,0:0:0:0:
0,46,50444,2,0,B|76:22|76:22|52:171,1,210,14|10,0:0|0:0,0:0:0:0:
104,230,51150,1,2,0:0:0:0:
222,176,51327,1,2,0:0:0:0:
200,268,51503,2,0,L|188:174,2,70,10|10|6,0:0|0:0|1:2,0:0:0:0:
177,340,52033,1,2,0:0:0:0:
334,375,52209,6,0,P|421:354|502:340,1,140,14|10,0:0|0:0,0:0:0:0:
325,202,52738,2,0,P|353:251|446:226,1,140,14|10,0:0|0:0,0:0:0:0:
503,96,53268,2,0,P|405:155|299:151,1,210,6|2,1:2|0:0,0:0:0:0:
312,154,53885,1,2,0:0:0:0:
312,154,53974,1,2,0:0:0:0:
248,108,54150,1,2,0:0:0:0:
352,33,54327,2,0,P|387:60|390:100,1,70,10|8,0:0|0:0,0:0:0:0:
240,24,54680,1,6,1:2:0:0:
240,24,55033,6,0,P|235:82|228:161,3,112,14|2|2|2,0:0|0:0|0:0|1:2,0:0:0:0:
236,149,56444,2,0,P|293:140|373:136,1,112,10|2,0:0|0:0,0:0:0:0:
274,267,56974,1,10,0:0:0:0:
274,267,57150,2,0,L|200:252,2,56,2|10|2,0:0|0:0|1:2,0:0:0:0:
468,320,57856,6,0,L|449:190,3,112,14|2|2|2,0:0|0:0|0:0|1:2,0:0:0:0:
489,82,59091,1,2,0:0:0:0:
406,114,59268,1,10,0:0:0:0:
406,114,59444,6,0,L|400:62,1,28,2|2,0:0|0:0,0:0:0:0:
371,45,59621,2,0,L|377:-7,3,28,2|2|10|2,0:0|0:0|0:0|0:0,0:0:0:0:
419,0,59974,1,2,0:0:0:0:
330,120,60150,1,10,0:0:0:0:
330,120,60238,1,10,0:0:0:0:
330,120,60327,6,0,P|266:109|212:106,1,105.000004005432,2|10,1:2|0:0,0:0:0:0:
80,38,60680,6,0,B|124:60|124:60|94:194,1,161.000003070831,14|2,0:0|1:2,0:0:0:0:
130,291,61209,2,0,P|178:260|221:246,1,80.5000015354157,2|8,0:0|0:0,0:0:0:0:
2,193,61562,2,0,P|16:230|23:270,1,80.5000015354157,10|0,0:0|1:0,0:0:0:0:
215,376,61915,6,0,P|223:227|229:189,1,161.000003070831,2|0,0:0|0:0,0:0:0:0:
192,85,62444,2,0,P|161:123|127:141,1,80.5000015354157,2|0,1:2|0:0,0:0:0:0:
334,199,62797,2,0,L|512:180,1,161.000003070831,10|2,0:0|1:2,0:0:0:0:
396,110,63327,1,0,0:0:0:0:
432,330,63503,6,0,P|496:299|481:216,1,161.000003070831,14|2,0:0|1:2,0:0:0:0:
319,280,64033,2,0,P|251:259|216:257,1,80.5000015354157,2|8,0:0|0:0,0:0:0:0:
102,359,64385,2,0,L|187:341,1,80.5000015354157,10|0,0:0|1:0,0:0:0:0:
17,180,64738,6,0,B|47:144|47:144|181:189,1,161.000003070831,2|2,0:0|0:0,0:0:0:0:
72,231,65268,1,2,1:2:0:0:
106,14,65444,2,0,L|120:127,1,80.5000015354157,10|0,0:0|0:0,0:0:0:0:
31,16,65797,1,10,0:0:0:0:
240,48,65974,1,2,1:2:0:0:
198,199,66150,1,10,0:0:0:0:
198,199,66238,1,10,0:0:0:0:
198,199,66327,6,0,L|184:81,1,87.5,6|8,1:2|0:0,0:0:0:0:
373,111,66680,2,0,L|389:10,1,87.5,2|8,1:2|0:0,0:0:0:0:
168,124,67033,2,0,L|62:109,1,87.5,2|8,1:2|0:0,0:0:0:0:
345,223,67385,2,0,L|451:208,1,87.5,2|8,1:2|0:0,0:0:0:0:
236,362,67738,6,0,P|178:339|177:305,1,87.5,6|10,1:2|0:0,0:0:0:0:
274,294,68003,1,2,0:0:0:0:
274,294,68091,2,0,L|280:228,2,43.75,2|2|10,1:2|0:0|0:0,0:0:0:0:
66,342,68444,1,2,1:2:0:0:
160,224,68621,1,10,0:0:0:0:
160,224,68709,1,10,0:0:0:0:
160,224,68797,2,0,L|41:197,1,87.5,2|10,1:2|0:0,0:0:0:0:
303,142,69150,5,14,0:0:0:0:
303,142,69503,1,10,0:0:0:0:
320,50,69680,1,2,1:2:0:0:
345,237,69856,1,10,0:0:0:0:
224,96,70033,1,2,1:2:0:0:
438,146,70209,1,2,1:2:0:0:
182,240,70385,1,2,1:2:0:0:
430,49,70562,5,14,0:0:0:0:
430,49,71268,5,2,0:0:0:0:
359,119,71444,1,8,0:0:0:0:
359,119,71533,1,8,0:0:0:0:
359,119,71621,2,2,P|299:95|199:95,1,131.25,6|0,1:2|0:0,0:1:0:0:
189,71,71974,6,0,P|288:23|408:24,1,210.000008010865,14|0,0:0|1:0,0:0:0:0:
398,206,72503,2,0,P|330:170|345:132,1,105.000004005432,2|8,0:0|0:0,0:0:0:0:
493,114,72856,1,10,0:0:0:0:
512,304,73033,2,0,P|492:210|464:132,1,157.500006008148,2|0,1:2|0:0,0:0:0:0:
463,177,73385,6,0,P|440:273|308:286,1,210.000008010865,14|0,0:0|1:0,0:0:0:0:
182,243,73915,2,0,P|275:228|377:166,1,210.000008010865,2|10,0:0|0:0,0:0:0:0:
214,87,74444,1,2,1:2:0:0:
286,183,74621,1,2,0:0:0:0:
230,278,74797,6,0,L|246:43,2,210.000008010865,14|2|10,0:0|1:2|0:0,0:0:0:0:
128,352,75680,1,10,0:0:0:0:
12,240,75856,2,0,P|64:225|135:195,1,105.000004005432,2|0,1:2|0:0,0:0:0:0:
241,127,76209,5,10,0:0:0:0:
52,80,76385,1,2,0:0:0:0:
294,45,76562,2,0,P|233:-2|193:15,1,105.000004005432,2|8,1:2|0:0,0:0:0:0:
253,156,76915,1,2,0:0:0:0:
270,56,77091,1,10,0:0:0:0:
302,250,77268,1,2,1:2:0:0:
302,250,77444,1,10,0:0:0:0:
162,127,77621,6,0,P|273:105|398:97,1,210.000008010865,14|0,0:0|1:0,0:0:0:0:
494,14,78150,2,0,P|428:33|463:88,1,105.000004005432,2|8,0:0|0:0,0:0:0:0:
499,131,78503,1,10,0:0:0:0:
387,247,78680,2,0,P|308:218|221:210,1,157.500006008148,2|0,1:2|0:0,0:0:0:0:
220,251,79033,6,0,P|253:328|383:314,1,210.000008010865,14|0,0:0|1:0,0:0:0:0:
339,129,79562,2,0,P|216:168|111:164,1,210.000008010865,2|10,0:0|0:0,0:0:0:0:
21,127,80091,1,2,1:2:0:0:
160,64,80268,1,2,0:0:0:0:
109,261,80444,6,0,L|74:12,2,210.000008010865,14|2|10,0:0|1:2|0:0,0:0:0:0:
125,367,81327,1,10,0:0:0:0:
272,322,81503,2,0,L|400:341,1,105.000004005432,2|0,1:2|0:0,0:0:0:0:
228,207,81856,5,10,0:0:0:0:
279,355,82032,1,2,0:0:0:0:
218,174,82209,2,0,L|239:40,1,105.000004005432,2|8,1:2|0:0,0:0:0:0:
310,22,82562,1,2,0:0:0:0:
195,0,82738,1,10,0:0:0:0:
308,125,82915,1,2,1:2:0:0:
115,190,83091,1,10,0:0:0:0:
102,193,83180,1,10,0:0:0:0:
89,196,83268,5,14,0:0:0:0:
58,179,83356,1,2,0:0:0:0:
35,153,83444,1,2,0:0:0:0:
24,120,83532,1,2,0:0:0:0:
27,85,83621,6,0,L|96:95,3,43.75,10|2|10|2,0:0|0:0|0:0|0:0,0:0:0:0:
175,49,83974,1,10,0:0:0:0:
172,79,84062,1,2,0:0:0:0:
170,110,84150,1,2,0:0:0:0:
167,140,84238,1,2,0:0:0:0:
165,171,84326,1,2,1:2:0:0:
102,22,84503,1,2,0:0:0:0:
320,96,84680,5,10,0:0:0:0:
345,60,84768,1,2,0:0:0:0:
381,37,84856,1,10,0:0:0:0:
424,28,84944,1,2,0:0:0:0:
467,37,85033,6,0,L|461:97,3,43.75,2|2|10|2,0:0|0:0|0:0|0:0,0:0:0:0:
492,213,85385,1,2,0:0:0:0:
448,206,85473,1,2,0:0:0:0:
405,200,85561,1,10,0:0:0:0:
361,194,85649,1,2,0:0:0:0:
318,188,85737,1,2,1:2:0:0:
512,140,85915,1,2,0:0:0:0:
448,352,86091,5,10,0:0:0:0:
403,377,86179,1,2,0:0:0:0:
355,361,86267,1,2,0:0:0:0:
335,314,86355,1,2,0:0:0:0:
357,268,86444,6,0,L|350:199,3,43.75,10|2|10|2,0:0|0:0|0:0|0:0,0:0:0:0:
336,96,86797,1,10,0:0:0:0:
378,101,86885,1,2,0:0:0:0:
418,83,86973,1,2,0:0:0:0:
442,48,87061,1,2,0:0:0:0:
444,4,87149,1,2,1:2:0:0:
236,32,87327,1,2,0:0:0:0:
255,242,87503,5,10,0:0:0:0:
235,203,87591,1,2,0:0:0:0:
201,176,87679,1,10,0:0:0:0:
158,165,87767,1,2,0:0:0:0:
116,173,87856,6,0,L|106:248,3,43.75,2|2|10|2,0:0|0:0|0:0|0:0,0:0:0:0:
147,353,88209,1,2,0:0:0:0:
189,342,88297,1,2,0:0:0:0:
231,331,88385,2,0,L|289:315,1,43.75,10|10,0:0|0:0,0:0:0:0:
430,282,88562,1,2,1:2:0:0:
235,203,88738,1,10,0:0:0:0:
461,165,88915,6,0,P|447:88|405:11,1,157.500006008148,14|0,0:0|0:0,0:0:0:0:
410,18,89268,1,2,1:2:0:0:
208,74,89444,2,0,P|312:83|415:105,1,210.000008010865,2|8,0:0|0:0,0:0:0:0:
364,254,89974,2,0,P|315:229|344:174,1,105.000004005432,2|0,1:2|0:0,0:0:0:0:
493,258,90327,6,0,L|483:376,1,105.000004005432,10|0,0:0|0:0,0:0:0:0:
408,173,90680,2,0,L|398:55,1,105.000004005432,2|0,1:2|0:0,0:0:0:0:
423,303,91033,1,10,0:0:0:0:
496,145,91209,1,10,0:0:0:0:
283,191,91385,2,0,P|216:178|119:154,1,157.500006008148,2|0,1:2|0:0,0:0:0:0:
97,120,91738,6,0,B|144:103|144:103|194:269,1,210.000008010865,14|2,0:0|1:2,0:0:0:0:
127,366,92268,2,0,P|57:346|10:342,2,105.000004005432,2|8|8,0:0|0:0|0:0,0:0:0:0:
278,333,92797,1,2,1:2:0:0:
96,256,92974,1,2,1:2:0:0:
96,256,93062,1,2,1:2:0:0:
96,256,93150,5,10,0:0:0:0:
320,192,93327,2,0,L|458:215,2,105.000004005432,10|2|10,0:0|1:2|0:0,0:0:0:0:
191,170,93856,1,10,0:0:0:0:
403,115,94033,1,10,0:0:0:0:
403,115,94121,1,10,0:0:0:0:
403,115,94209,2,0,L|387:30,1,52.5000020027161,2|2,1:2|1:2,0:0:0:0:
366,248,94386,1,10,0:0:0:0:
361,273,94474,1,10,0:0:0:0:
356,299,94562,6,0,L|496:278,1,105.000004005432,6|8,1:2|0:0,0:0:0:0:
278,126,94915,2,0,L|418:147,1,105.000004005432,2|8,1:2|0:0,0:0:0:0:
190,363,95268,2,0,L|330:342,1,105.000004005432,2|8,1:2|0:0,0:0:0:0:
30,164,95621,2,0,L|170:185,1,105.000004005432,2|10,1:2|0:0,0:0:0:0:
309,147,95885,1,10,0:0:0:0:
309,147,95974,6,0,P|354:109|342:62,1,105.000004005432,6|8,1:2|0:0,0:0:0:0:
301,245,96327,2,0,P|339:290|386:278,1,105.000004005432,2|8,1:2|0:0,0:0:0:0:
203,237,96680,2,0,P|158:275|170:322,1,105.000004005432,2|8,1:2|0:0,0:0:0:0:
211,139,97033,2,0,P|173:94|126:106,1,105.000004005432,2|10,1:2|0:0,0:0:0:0:
360,180,97297,1,10,0:0:0:0:
360,180,97385,6,0,P|434:139|487:126,1,105.000004005432,6|8,1:2|0:0,0:0:0:0:
272,65,97738,2,0,P|198:24|145:11,1,105.000004005432,2|8,1:2|0:0,0:0:0:0:
184,265,98091,2,0,P|258:224|311:211,1,105.000004005432,2|8,1:2|0:0,0:0:0:0:
96,150,98444,2,0,P|22:109|-31:96,1,105.000004005432,2|8,1:2|0:0,0:0:0:0:
222,51,98797,6,0,L|111:77,1,105.000004005432,6|8,1:2|0:0,0:0:0:0:
290,51,99150,2,0,L|401:77,1,105.000004005432,2|8,1:2|0:0,0:0:0:0:
221,180,99503,1,2,1:2:0:0:
256,32,99680,1,10,0:0:0:0:
256,48,99768,1,10,0:0:0:0:
256,64,99856,1,2,1:2:0:0:
291,180,100033,1,2,1:2:0:0:
506,168,100209,6,0,P|473:113|354:142,1,157.500006008148,14|0,0:0|0:0,0:0:0:0:
386,108,100562,1,10,0:0:0:0:
446,240,100738,2,0,P|441:287|426:351,1,105.000004005432,10|2,0:0|1:2,0:0:0:0:
267,201,101091,2,0,L|402:175,1,105.000004005432,2|2,1:2|1:2,0:0:0:0:
160,320,101444,1,2,1:2:0:0:
195,114,101621,5,10,0:0:0:0:
233,367,101797,1,2,1:2:0:0:
233,367,101974,1,2,1:2:0:0:
233,367,102150,1,2,1:2:0:0:
341,272,102327,5,10,0:0:0:0:
377,277,102415,1,10,0:0:0:0:
413,283,102503,1,10,0:0:0:0:
449,289,102591,1,10,0:0:0:0:
486,294,102680,5,2,1:2:0:0:
430,331,102768,1,2,1:2:0:0:
369,311,102856,1,2,1:2:0:0:
349,248,102944,1,2,1:2:0:0:
390,198,103032,5,14,0:0:0:0:
206,251,103209,1,2,0:0:0:0:
320,96,103386,1,2,1:2:0:0:
288,352,103562,2,0,L|165:331,1,105.000004005432,2|8,0:0|0:0,0:0:0:0:
376,233,103915,2,0,L|359:109,1,105.000004005432,10|0,0:0|1:0,0:0:0:0:
125,101,104268,6,0,B|193:81|193:81|200:34|200:34|287:6,1,210.000008010865,2|0,0:0|0:0,0:0:0:0:
256,224,104797,2,0,P|192:196|198:154,1,105.000004005432,2|0,1:2|0:0,0:0:0:0:
334,298,105150,2,0,P|398:270|392:228,1,105.000004005432,10|8,0:0|0:0,0:0:0:0:
181,368,105503,2,0,P|111:323|16:329,1,157.500006008148,2|0,1:2|0:0,0:0:0:0:
55,359,105856,6,0,P|89:286|52:131,2,210.000008010865,14|2|10,0:0|1:2|0:0,0:0:0:0:
0,215,106738,1,10,0:0:0:0:
134,268,106915,1,2,1:2:0:0:
221,216,107091,2,0,P|137:224|-25:243,1,210.000008010865,10|0,0:0|0:0,0:0:0:0:
160,128,107621,1,2,1:2:0:0:
207,361,107797,2,0,L|226:212,1,105.000004005432,10|0,0:0|0:0,0:0:0:0:
68,305,108150,1,2,0:0:0:0:
84,94,108327,2,0,P|156:109|155:150,1,105.000004005432,2|2,1:2|1:2,0:0:0:0:
156,142,108591,1,2,1:2:0:0:
141,148,108680,5,14,0:0:0:0:
40,82,108856,2,0,L|30:13,1,52.5000020027161,2|2,1:2|1:2,0:0:0:0:
68,224,109033,1,2,1:2:0:0:
68,224,109121,1,2,1:2:0:0:
68,224,109209,2,0,P|119:229|188:240,2,105.000004005432,10|10|10,0:0|0:0|0:0,0:0:0:0:
180,147,109738,1,2,1:2:0:0:
241,337,109915,6,0,P|307:359|316:243,1,210.000008010865,10|2,0:0|1:2,0:0:0:0:
328,251,110356,1,2,1:2:0:0:
328,251,110444,1,10,0:0:0:0:
150,310,110621,1,2,1:2:0:0:
150,310,110709,1,2,1:2:0:0:
150,310,110798,5,10,0:0:0:0:
116,296,110886,1,10,0:0:0:0:
91,269,110974,1,2,1:2:0:0:
82,234,111062,1,2,1:2:0:0:
129,177,111151,5,10,0:0:0:0:
162,163,111239,1,10,0:0:0:0:
187,136,111327,1,2,1:2:0:0:
196,101,111415,1,2,1:2:0:0:
189,65,111503,5,14,0:0:0:0:
330,82,111680,2,0,L|400:73,1,52.5000020027161,2|2,1:2|1:2,0:0:0:0:
497,24,111856,1,2,1:2:0:0:
497,24,111944,1,2,1:2:0:0:
497,24,112033,2,0,L|481:136,1,105.000004005432,10|10,0:0|0:0,0:0:0:0:
453,261,112386,1,10,0:0:0:0:
360,113,112562,1,2,1:2:0:0:
242,221,112738,6,0,P|153:220|22:210,1,210.000008010865,10|2,0:0|1:2,0:0:0:0:
33,211,113180,1,2,1:2:0:0:
33,211,113268,1,10,0:0:0:0:
128,96,113444,2,0,L|122:49,2,35.0000013351441,10|10|10,0:0|0:0|0:0,0:0:0:0:
130,111,113621,5,2,1:2:0:0:
224,128,113797,1,2,1:2:0:0:
236,124,113885,1,2,1:2:0:0:
248,120,113974,1,10,0:0:0:0:
260,116,114061,1,10,0:0:0:0:
272,112,114150,1,2,1:2:0:0:
192,320,114327,6,0,P|140:261|110:245,1,105.000004005432,6|8,1:2|0:0,0:0:0:0:
352,239,114680,2,0,P|404:180|434:164,1,105.000004005432,2|8,1:2|0:0,0:0:0:0:
129,154,115033,2,0,P|77:95|47:79,1,105.000004005432,2|8,1:2|0:0,0:0:0:0:
409,72,115385,2,0,P|461:13|491:-3,1,105.000004005432,2|8,1:2|0:0,0:0:0:0:
449,258,115738,5,6,1:2:0:0:
438,255,115827,1,10,0:0:0:0:
427,252,115915,1,10,0:0:0:0:
416,249,116003,1,10,0:0:0:0:
382,261,116091,5,2,1:2:0:0:
371,258,116180,1,10,0:0:0:0:
360,255,116268,1,10,0:0:0:0:
349,252,116356,1,10,0:0:0:0:
315,264,116444,5,2,1:2:0:0:
304,261,116533,1,10,0:0:0:0:
293,258,116621,1,10,0:0:0:0:
282,255,116709,1,10,0:0:0:0:
248,267,116797,5,2,1:2:0:0:
237,264,116886,1,10,0:0:0:0:
226,261,116974,2,0,L|209:181,1,52.5000020027161,10|10,0:0|0:0,0:0:0:0:
189,79,117150,6,0,B|149:11|52:49|34:142|142:211|203:168|223:115|247:60|297:14|453:110|381:286|256:220|240:215,1,560,6|0,1:2|0:0,0:0:0:0:
