osu file format v14

[General]
AudioFilename: audio.mp3
AudioLeadIn: 0
PreviewTime: 70562
Countdown: 0
SampleSet: Soft
StackLeniency: 0.5
Mode: 0
LetterboxInBreaks: 0
WidescreenStoryboard: 0

[Editor]
Bookmarks: 1386,7033,12680,18327,23974,26797,32444,38091,43738,49385,55033,60680,66327,71974,83268,88915,94209,94562,103033,108680,114327,117150,122797
DistanceSpacing: 1
BeatDivisor: 4
GridSize: 32
TimelineZoom: 1.6

[Metadata]
Title:Boku ga Mita Sekai
TitleUnicode:僕が見た世界
Artist:Kankitsu feat. Salita
ArtistUnicode:Kankitsu feat. Salita
Creator:eiri-
Version:Easy
Source:osu!
Tags:Ayyri Zer0- -Sylvari Zero Featured Artist FA Japanese Pop Rock Bokuga Lime G2R2018
BeatmapID:2758635
BeatmapSetID:1325157

[Difficulty]
HPDrainRate:3
CircleSize:2
OverallDifficulty:4
ApproachRate:5
SliderMultiplier:1
SliderTickRate:1

[Events]
//Background and Video events
0,0,"Boku ga Mita Sekai.jpg",0,0
//Break Periods
//Storyboard Layer 0 (Background)
//Storyboard Layer 1 (Fail)
//Storyboard Layer 2 (Pass)
//Storyboard Layer 3 (Foreground)
//Storyboard Layer 4 (Overlay)
//Storyboard Sound Samples

[TimingPoints]
1386,352.941176470588,4,2,1,60,1,0
7033,-100,4,2,1,75,0,0
12680,-100,4,2,1,80,0,0
23974,-100,4,2,1,60,0,0
26797,-100,4,2,1,75,0,0
38091,-100,4,2,1,80,0,0
49385,-100,4,2,1,75,0,0
55033,-100,4,2,1,70,0,0
60680,-100,4,2,1,80,0,0
66327,-100,4,2,1,85,0,0
71974,-100,4,2,1,90,0,1
83268,-100,4,2,1,80,0,0
88915,-100,4,2,1,85,0,1
94209,-100,4,2,1,85,0,0
94562,-100,4,2,1,90,0,1
103033,-100,4,2,1,80,0,0
117150,-100,4,2,1,80,0,0
117856,-100,4,2,1,70,0,0
118562,-100,4,2,1,60,0,0
119268,-100,4,2,1,50,0,0
119974,-100,4,2,1,40,0,0
120680,-100,4,2,1,30,0,0
121385,-100,4,2,1,20,0,0
122091,-100,4,2,1,10,0,0
122797,-100,4,2,1,5,0,0

[Colours]
Combo1 : 79,111,240
Combo2 : 179,234,255
Combo3 : 57,201,255
Combo4 : 165,182,248

[HitObjects]
32,352,1386,6,0,P|102:341|186:333,1,150,6|2,0:0|0:0,0:0:0:0:
419,258,2797,2,0,P|466:174|431:64,2,200,2|2|2,0:0|0:0|0:0,0:0:0:0:
271,230,4738,2,0,L|258:116,2,100,2|2|2,0:0|0:0|0:0,0:0:0:0:
44,337,6327,1,10,0:0:0:0:
5,244,6680,1,10,0:0:0:0:
85,185,7033,6,0,L|205:195,1,100,14|10,0:0|0:0,0:0:0:0:
273,239,7738,2,0,L|393:229,1,100,10|10,0:0|0:0,0:0:0:0:
461,183,8444,1,10,0:0:0:0:
405,99,8797,1,10,0:0:0:0:
313,58,9150,2,0,P|262:116|255:145,1,100,10|10,0:0|0:0,0:0:0:0:
172,191,9856,6,0,P|80:184|64:76,1,200,10|2,0:0|1:2,0:0:0:0:
185,16,11091,2,0,L|352:38,1,150,14|10,0:0|0:0,0:0:0:0:
431,13,11974,1,2,1:2:0:0:
470,105,12327,1,2,1:2:0:0:
397,174,12680,6,0,L|417:327,1,150,14|2,0:0|0:0,0:0:0:0:
327,368,13562,1,10,0:0:0:0:
236,325,13915,2,0,P|164:309|68:302,1,150,2|2,0:0|1:2,0:0:0:0:
29,220,14797,1,10,0:0:0:0:
70,128,15150,1,2,1:2:0:0:
43,31,15503,6,0,P|142:29|273:129,1,250,14|10,0:0|0:0,0:0:0:0:
312,198,16738,1,10,0:0:0:0:
225,321,17268,2,0,L|72:336,1,150,2|10,1:2|0:0,0:0:0:0:
29,316,17974,1,2,1:2:0:0:
79,229,18327,6,0,P|69:169|40:66,2,150,14|10|2,0:0|0:0|1:2,0:0:0:0:
213,294,19915,1,2,1:2:0:0:
353,241,20444,2,0,L|466:254,1,100,10|10,0:0|0:0,0:0:0:0:
497,162,21150,6,0,P|467:99|373:78,2,150,14|10|2,0:0|0:0|1:2,0:0:0:0:
443,302,22738,1,2,1:2:0:0:
325,208,23268,2,0,L|212:221,1,100,10|10,0:0|0:0,0:0:0:0:
143,277,23974,5,14,0:0:0:0:
143,277,25209,5,2,0:0:0:0:
143,277,26444,5,2,1:2:0:0:
88,193,26797,6,0,P|116:122|123:83,1,100,14|2,0:0|1:2,0:0:0:0:
87,4,27503,2,0,P|148:45|232:35,1,150,10|2,0:0|0:0,0:0:0:0:
311,84,28385,1,2,0:0:0:0:
226,208,28915,2,0,L|243:319,1,100,10|2,0:0|1:2,0:0:0:0:
319,369,29621,6,0,P|392:357|422:230,1,200,10|10,0:0|0:0,0:0:0:0:
365,112,30856,1,2,0:0:0:0:
289,177,31209,1,2,0:0:0:0:
194,144,31562,2,0,L|80:136,1,100,10|10,0:0|0:0,0:0:0:0:
202,32,32444,6,0,L|248:242,1,200,10|8,0:0|0:0,0:0:0:0:
208,320,33503,1,2,1:2:0:0:
295,369,33856,2,0,P|341:355|409:350,1,100,10|2,0:0|1:2,0:0:0:0:
475,293,34562,2,0,P|499:248|491:196,1,100,10|2,0:0|1:2,0:0:0:0:
431,121,35268,6,0,P|366:112|273:109,1,150,10|2,0:0|0:0,0:0:0:0:
157,25,36327,2,0,P|222:16|315:13,1,150,2|2,1:2|0:0,0:0:0:0:
405,25,37209,1,10,0:0:0:0:
461,163,37738,1,2,1:2:0:0:
389,233,38091,6,0,P|342:199|284:185,1,100,14|2,0:0|1:2,0:0:0:0:
204,163,38797,2,0,L|220:-10,2,150,10|2|2,0:0|0:0|1:2,0:0:0:0:
161,253,40209,2,0,L|172:373,1,100,10|2,0:0|1:2,0:0:0:0:
269,368,40915,6,0,P|365:348|482:333,1,200,10|8,0:0|0:0,0:0:0:0:
493,186,42150,1,2,0:0:0:0:
416,121,42503,1,2,0:0:0:0:
336,182,42856,2,0,L|215:164,1,100,10|10,0:0|0:0,0:0:0:0:
104,238,43738,6,0,P|72:109|43:38,1,200,10|8,0:0|0:0,0:0:0:0:
139,8,44797,1,2,1:2:0:0:
225,58,45150,2,0,P|271:44|339:39,1,100,10|2,0:0|1:2,0:0:0:0:
347,135,45856,2,0,P|301:149|233:154,1,100,10|2,0:0|1:2,0:0:0:0:
161,202,46562,6,0,P|181:277|261:273,1,150,14|14,0:0|0:0,0:0:0:0:
345,173,47621,1,14,0:0:0:0:
259,49,48150,2,0,B|300:23|300:23|415:45,1,150,2|2,0:0|1:2,0:0:0:0:
468,114,49032,1,10,0:0:0:0:
399,186,49385,6,0,B|379:224|379:224|398:339,2,150,14|2|14,0:0|1:2|0:0,0:0:0:0:
113,198,52209,6,0,B|133:160|133:160|114:45,2,150,14|14|6,0:0|0:0|1:2,0:0:0:0:
399,186,55033,6,0,B|379:224|379:224|391:296,2,100,14|2|2,0:0|0:0|0:0,0:0:0:0:
498,181,56091,1,2,1:2:0:0:
463,86,56444,2,0,B|406:6|406:6|299:56,1,200,10|2,0:0|0:0,0:0:0:0:
254,130,57503,1,2,1:2:0:0:
198,49,57856,6,0,B|106:6|106:6|49:86,1,200,14|2,0:0|0:0,0:0:0:0:
14,181,58915,1,2,1:2:0:0:
113,186,59268,2,0,B|133:224|133:224|121:296,2,100,10|2|2,0:0|0:0|0:0,0:0:0:0:
14,181,60327,1,2,1:2:0:0:
17,81,60680,6,0,B|62:38|62:38|154:88,1,150,14|2,0:0|0:0,0:0:0:0:
225,130,61562,1,10,0:0:0:0:
295,59,61915,2,0,L|464:45,1,150,2|2,0:0|1:2,0:0:0:0:
477,142,62797,2,0,P|438:171|437:233,1,100,10|2,0:0|1:2,0:0:0:0:
466,313,63503,6,0,P|428:274|319:265,1,150,14|2,0:0|0:0,0:0:0:0:
257,319,64385,1,10,0:0:0:0:
157,308,64738,2,0,L|44:298,1,100,2|2,0:0|0:0,0:0:0:0:
11,209,65444,2,0,P|85:156|94:88,1,150,10|2,0:0|1:2,0:0:0:0:
160,25,66327,5,6,1:2:0:0:
259,38,66680,1,2,1:2:0:0:
334,103,67033,1,2,1:2:0:0:
433,116,67386,1,2,1:2:0:0:
424,215,67738,6,0,L|439:329,1,100,6|2,1:2|1:2,0:0:0:0:
338,332,68444,2,0,L|323:218,1,100,2|2,1:2|1:2,0:0:0:0:
247,169,69150,6,0,B|177:186|177:186|197:334,1,200,14|10,0:0|0:0,0:0:0:0:
111,370,70209,1,2,1:2:0:0:
18,333,70562,5,14,0:0:0:0:
18,333,71621,5,6,1:2:0:0:
60,242,71974,6,0,L|37:83,2,150,14|2|2,0:0|0:0|1:2,0:0:0:0:
147,193,73385,2,0,L|170:352,2,150,14|2|2,0:0|0:0|1:2,0:0:0:0:
132,93,74797,6,0,P|230:73|333:39,1,200,14|10,0:0|0:0,0:0:0:0:
423,60,75856,1,2,1:2:0:0:
388,153,76209,2,0,P|405:205|415:263,1,100,10|2,0:0|1:2,0:0:0:0:
394,347,76915,1,2,0:0:0:0:
302,306,77268,1,2,1:2:0:0:
217,359,77621,6,0,L|50:370,2,150,14|2|2,0:0|0:0|1:2,0:0:0:0:
173,268,79033,2,0,L|333:256,2,150,14|2|2,0:0|0:0|1:2,0:0:0:0:
83,223,80444,6,0,P|37:130|57:16,1,200,14|10,0:0|0:0,0:0:0:0:
145,15,81503,1,2,1:2:0:0:
223,76,81856,2,0,L|335:69,1,100,10|2,0:0|1:2,0:0:0:0:
412,24,82562,1,2,0:0:0:0:
479,98,82915,1,2,1:2:0:0:
432,186,83268,5,14,0:0:0:0:
239,345,84150,2,0,L|360:332,1,100,2|2,0:0|0:0,0:0:0:0:
387,345,84680,5,10,0:0:0:0:
471,167,85385,2,0,L|454:45,1,100,2|2,0:0|1:2,0:0:0:0:
372,15,86091,5,10,0:0:0:0:
255,109,86621,1,10,0:0:0:0:
128,28,87150,1,2,1:2:0:0:
67,107,87503,6,0,L|84:229,1,100,10|2,0:0|0:0,0:0:0:0:
170,250,88209,2,0,L|187:372,1,100,2|2,0:0|1:2,0:0:0:0:
282,367,88915,6,0,P|370:322|433:312,2,150,14|2|2,0:0|0:0|1:2,0:0:0:0:
208,299,90327,1,10,0:0:0:0:
125,355,90680,1,2,1:2:0:0:
47,292,91033,2,0,L|64:174,1,100,10|2,0:0|1:2,0:0:0:0:
23,100,91738,6,0,B|55:70|55:70|172:96,1,150,14|2,0:0|0:0,0:0:0:0:
306,69,92797,1,2,1:2:0:0:
273,163,93150,2,0,L|285:274,1,100,10|2,0:0|1:2,0:0:0:0:
375,303,93856,2,0,L|387:192,1,100,10|2,0:0|1:2,0:0:0:0:
401,104,94562,5,6,1:2:0:0:
304,129,94915,1,2,1:2:0:0:
244,209,95268,1,2,1:2:0:0:
147,234,95621,1,2,1:2:0:0:
70,169,95974,6,0,P|40:122|41:71,1,100,6|2,1:2|1:2,0:0:0:0:
132,42,96680,2,0,P|162:89|161:140,1,100,2|2,1:2|1:2,0:0:0:0:
147,234,97385,5,6,1:2:0:0:
244,209,97738,1,2,1:2:0:0:
304,129,98091,1,2,1:2:0:0:
401,104,98444,1,2,1:2:0:0:
482,161,98797,6,0,L|473:271,1,100,6|2,1:2|1:2,0:0:0:0:
462,360,99503,1,2,1:2:0:0:
367,328,99856,1,2,1:2:0:0:
271,356,100209,6,0,P|173:338|57:330,1,200,14|2,0:0|1:2,0:0:0:0:
16,247,101268,1,2,1:2:0:0:
90,180,101621,5,10,0:0:0:0:
90,180,103033,6,0,P|148:229|229:208,1,150,14|2,0:0|0:0,0:0:0:0:
298,160,103915,1,10,0:0:0:0:
221,96,104268,2,0,P|149:80|53:73,1,150,2|2,0:0|1:2,0:0:0:0:
2,144,105150,1,10,0:0:0:0:
75,211,105503,1,2,1:2:0:0:
57,309,105856,6,0,P|156:311|287:211,1,250,14|10,0:0|0:0,0:0:0:0:
331,144,107091,1,10,0:0:0:0:
243,21,107621,2,0,L|396:36,1,150,2|2,1:2|0:0,0:0:0:0:
438,16,108327,1,2,1:2:0:0:
479,106,108680,6,0,P|445:179|433:264,2,150,14|10|2,0:0|0:0|1:2,0:0:0:0:
360,13,110268,1,2,1:2:0:0:
240,102,110797,2,0,L|127:115,1,100,10|10,0:0|0:0,0:0:0:0:
49,75,111503,6,0,P|41:147|10:239,2,150,14|10|2,0:0|0:0|1:2,0:0:0:0:
185,11,113091,1,2,1:2:0:0:
267,136,113621,2,0,L|380:123,1,100,2|10,1:2|0:0,0:0:0:0:
458,84,114327,5,6,1:2:0:0:
476,182,114680,1,2,1:2:0:0:
405,253,115033,1,2,1:2:0:0:
423,351,115386,1,2,1:2:0:0:
324,369,115738,6,0,L|211:356,1,100,6|2,1:2|1:2,0:0:0:0:
199,260,116444,2,0,L|42:279,1,150,2|10,1:2|0:0,0:0:0:0:
17,316,117150,5,6,1:2:0:0:
256,192,117238,12,0,122797,0:0:0:0:
