osu file format v14

[General]
AudioFilename: audio.mp3
AudioLeadIn: 0
PreviewTime: 96331
Countdown: 0
SampleSet: Soft
StackLeniency: 0.7
Mode: 3
LetterboxInBreaks: 0
SpecialStyle: 0
WidescreenStoryboard: 1

[Editor]
Bookmarks: 123374
DistanceSpacing: 3.4
BeatDivisor: 4
GridSize: 8
TimelineZoom: 2.500005

[Metadata]
Title:Prayer
TitleUnicode:Prayer
Artist:Kankitsu
ArtistUnicode:Kankitsu
Creator:Kim_GodSSI
Version:Wonki's Extra
Source:第三回BMS衆議院選
Tags:Wonki KimGodSSI Lime Electronic Instrumental Piano Trance メロディ党♪ Melody Party 祈り 願い BMS_Shuin BMS Shuin dai san kai Shūgiinsen
BeatmapID:3797892
BeatmapSetID:1848177

[Difficulty]
HPDrainRate:8.2
CircleSize:7
OverallDifficulty:7.5
ApproachRate:5
SliderMultiplier:1.4
SliderTickRate:1

[Events]
//Background and Video events
0,0,"BG.jpg",0,0
//Break Periods
//Storyboard Layer 0 (Background)
//Storyboard Layer 1 (Fail)
//Storyboard Layer 2 (Pass)
//Storyboard Layer 3 (Foreground)
//Storyboard Layer 4 (Overlay)
//Storyboard Sound Samples

[TimingPoints]
1684,422.535211267606,4,2,1,61,1,0
1684,-100,4,2,1,33,0,0
8444,-100,4,2,1,61,0,0
55768,-100,4,2,1,33,0,0
82810,-100,4,2,1,61,0,0

[HitObjects]
36,192,1684,5,0,0:0:0:0:
182,192,1684,1,0,0:0:0:0:
256,192,1684,1,0,0:0:0:0:
402,192,1684,1,0,0:0:0:0:
475,192,1684,1,0,0:0:0:0:
109,192,1895,1,0,0:0:0:0:
256,192,2106,1,0,0:0:0:0:
109,192,2317,1,0,0:0:0:0:
256,192,2423,1,0,0:0:0:0:
402,192,2529,128,0,2845:0:0:0:0:
109,192,2845,128,0,3162:0:0:0:0:
475,192,3162,1,0,0:0:0:0:
36,192,3374,1,0,0:0:0:0:
182,192,3374,1,0,0:0:0:0:
402,192,3374,1,0,0:0:0:0:
329,192,3585,1,0,0:0:0:0:
256,192,3796,128,0,4219:0:0:0:0:
182,192,4192,1,0,0:0:0:0:
109,192,4219,1,0,0:0:0:0:
402,192,4219,1,0,0:0:0:0:
475,192,4641,1,0,0:0:0:0:
182,192,5064,1,0,0:0:0:0:
256,192,5064,1,0,0:0:0:0:
475,192,5064,1,0,0:0:0:0:
329,192,5275,1,0,0:0:0:0:
182,192,5486,1,0,0:0:0:0:
109,192,5698,1,0,0:0:0:0:
402,192,5698,1,0,0:0:0:0:
109,192,5909,128,0,6754:0:0:0:0:
402,192,5909,128,0,7388:0:0:0:0:
36,192,6754,1,0,0:0:0:0:
182,192,6965,1,0,0:0:0:0:
329,192,7176,1,0,0:0:0:0:
475,192,7388,1,0,0:0:0:0:
329,192,7493,1,0,0:0:0:0:
182,192,7599,1,0,0:0:0:0:
36,192,7705,1,0,0:0:0:0:
402,192,7810,1,0,0:0:0:0:
256,192,7916,1,0,0:0:0:0:
109,192,8022,1,0,0:0:0:0:
36,192,8022,1,0,0:0:0:0:
182,192,8127,1,0,0:0:0:0:
256,192,8233,1,0,0:0:0:0:
329,192,8338,1,0,0:0:0:0:
402,192,8444,1,0,0:0:0:0:
475,192,8444,1,0,0:0:0:0:
182,192,8444,1,0,0:0:0:0:
109,192,8444,1,0,0:0:0:0:
36,192,8444,1,0,0:0:0:0:
256,192,8550,1,0,0:0:0:0:
329,192,8655,1,0,0:0:0:0:
109,192,8655,1,0,0:0:0:0:
475,192,8761,1,0,0:0:0:0:
182,192,8867,1,0,0:0:0:0:
36,192,8867,1,0,0:0:0:0:
402,192,8867,1,0,0:0:0:0:
329,192,8972,1,0,0:0:0:0:
109,192,9078,1,0,0:0:0:0:
475,192,9078,1,0,0:0:0:0:
256,192,9078,1,0,0:0:0:0:
182,192,9184,1,0,0:0:0:0:
329,192,9289,1,0,0:0:0:0:
256,192,9395,1,0,0:0:0:0:
109,192,9500,1,0,0:0:0:0:
402,192,9500,1,0,0:0:0:0:
475,192,9500,1,0,0:0:0:0:
182,192,9606,1,0,0:0:0:0:
109,192,9712,1,0,0:0:0:0:
402,192,9712,1,0,0:0:0:0:
475,192,9712,1,0,0:0:0:0:
329,192,9817,1,0,0:0:0:0:
182,192,9923,1,0,0:0:0:0:
36,192,9923,1,0,0:0:0:0:
402,192,10029,1,0,0:0:0:0:
109,192,10134,128,0,10345:0:0:0:0:
475,192,10134,1,0,0:0:0:0:
329,192,10240,1,0,0:0:0:0:
182,192,10345,128,0,10557:0:0:0:0:
36,192,10345,1,0,0:0:0:0:
256,192,10451,1,0,0:0:0:0:
329,192,10557,128,0,10768:0:0:0:0:
402,192,10557,1,0,0:0:0:0:
109,192,10662,1,0,0:0:0:0:
475,192,10768,128,0,10979:0:0:0:0:
256,192,10768,1,0,0:0:0:0:
182,192,10874,1,0,0:0:0:0:
402,192,10979,1,0,0:0:0:0:
36,192,10979,1,0,0:0:0:0:
256,192,11085,1,0,0:0:0:0:
109,192,11191,1,0,0:0:0:0:
475,192,11191,1,0,0:0:0:0:
329,192,11296,1,0,0:0:0:0:
402,192,11402,1,0,0:0:0:0:
36,192,11402,1,0,0:0:0:0:
256,192,11507,1,0,0:0:0:0:
109,192,11613,1,0,0:0:0:0:
329,192,11613,1,0,0:0:0:0:
475,192,11613,1,0,0:0:0:0:
182,192,11719,1,0,0:0:0:0:
256,192,11824,1,0,0:0:0:0:
402,192,11824,1,0,0:0:0:0:
475,192,11824,1,0,0:0:0:0:
36,192,11824,1,0,0:0:0:0:
109,192,11824,1,0,0:0:0:0:
329,192,11930,1,0,0:0:0:0:
182,192,12036,1,0,0:0:0:0:
475,192,12036,1,0,0:0:0:0:
36,192,12141,1,0,0:0:0:0:
109,192,12247,1,0,0:0:0:0:
329,192,12247,1,0,0:0:0:0:
256,192,12247,1,0,0:0:0:0:
475,192,12353,1,0,0:0:0:0:
402,192,12458,1,0,0:0:0:0:
329,192,12458,1,0,0:0:0:0:
182,192,12458,1,0,0:0:0:0:
36,192,12564,1,0,0:0:0:0:
256,192,12669,1,0,0:0:0:0:
182,192,12775,1,0,0:0:0:0:
109,192,12881,1,0,0:0:0:0:
329,192,12881,1,0,0:0:0:0:
475,192,12881,1,0,0:0:0:0:
256,192,12986,1,0,0:0:0:0:
109,192,13092,1,0,0:0:0:0:
329,192,13092,1,0,0:0:0:0:
475,192,13092,1,0,0:0:0:0:
182,192,13198,1,0,0:0:0:0:
402,192,13303,1,0,0:0:0:0:
36,192,13303,1,0,0:0:0:0:
475,192,13409,1,0,0:0:0:0:
329,192,13514,1,0,0:0:0:0:
402,192,13514,1,0,0:0:0:0:
109,192,13514,1,0,0:0:0:0:
36,192,13514,128,0,13726:0:0:0:0:
182,192,13514,1,0,0:0:0:0:
256,192,13620,1,0,0:0:0:0:
182,192,13726,128,0,13937:0:0:0:0:
475,192,13726,1,0,0:0:0:0:
402,192,13831,1,0,0:0:0:0:
329,192,13937,128,0,14148:0:0:0:0:
109,192,13937,1,0,0:0:0:0:
256,192,14043,1,0,0:0:0:0:
475,192,14148,128,0,14360:0:0:0:0:
402,192,14148,1,0,0:0:0:0:
182,192,14254,1,0,0:0:0:0:
256,192,14360,128,0,14993:0:0:0:0:
36,192,14360,1,0,0:0:0:0:
109,192,14412,1,0,0:0:0:0:
329,192,14465,1,0,0:0:0:0:
402,192,14518,1,0,0:0:0:0:
475,192,14571,1,0,0:0:0:0:
182,192,14624,1,0,0:0:0:0:
109,192,14676,1,0,0:0:0:0:
329,192,14676,1,0,0:0:0:0:
36,192,14729,1,0,0:0:0:0:
475,192,14782,1,0,0:0:0:0:
182,192,14782,1,0,0:0:0:0:
402,192,14835,1,0,0:0:0:0:
329,192,14888,1,0,0:0:0:0:
182,192,14941,1,0,0:0:0:0:
109,192,14993,1,0,0:0:0:0:
36,192,14993,1,0,0:0:0:0:
402,192,14993,1,0,0:0:0:0:
475,192,14993,1,0,0:0:0:0:
36,192,15205,1,0,0:0:0:0:
182,192,15205,1,0,0:0:0:0:
256,192,15205,1,0,0:0:0:0:
329,192,15205,1,0,0:0:0:0:
475,192,15205,1,0,0:0:0:0:
256,192,16050,1,0,0:0:0:0:
402,192,16050,1,0,0:0:0:0:
109,192,16261,1,0,0:0:0:0:
182,192,16367,1,0,0:0:0:0:
329,192,16367,1,0,0:0:0:0:
256,192,16684,1,0,0:0:0:0:
402,192,16684,1,0,0:0:0:0:
109,192,16895,1,0,0:0:0:0:
329,192,16895,1,0,0:0:0:0:
256,192,17106,1,0,0:0:0:0:
109,192,17212,1,0,0:0:0:0:
329,192,17212,1,0,0:0:0:0:
182,192,17423,1,0,0:0:0:0:
36,192,17529,1,0,0:0:0:0:
256,192,17529,1,0,0:0:0:0:
109,192,17740,1,0,0:0:0:0:
329,192,17740,1,0,0:0:0:0:
256,192,17951,1,0,0:0:0:0:
182,192,18057,1,0,0:0:0:0:
36,192,18057,1,0,0:0:0:0:
256,192,18268,1,0,0:0:0:0:
109,192,18374,1,0,0:0:0:0:
182,192,18444,1,0,0:0:0:0:
329,192,18514,1,0,0:0:0:0:
402,192,18585,1,0,0:0:0:0:
256,192,18585,1,0,0:0:0:0:
182,192,18691,1,0,0:0:0:0:
475,192,18691,1,0,0:0:0:0:
109,192,18796,1,0,0:0:0:0:
329,192,18796,1,0,0:0:0:0:
36,192,18902,1,0,0:0:0:0:
256,192,18902,1,0,0:0:0:0:
182,192,19007,1,0,0:0:0:0:
402,192,19007,1,0,0:0:0:0:
475,192,19113,1,0,0:0:0:0:
109,192,19113,1,0,0:0:0:0:
36,192,19219,1,0,0:0:0:0:
256,192,19219,1,0,0:0:0:0:
329,192,19324,1,0,0:0:0:0:
182,192,19430,1,0,0:0:0:0:
475,192,19430,1,0,0:0:0:0:
109,192,19641,1,0,0:0:0:0:
256,192,19641,1,0,0:0:0:0:
329,192,19747,1,0,0:0:0:0:
475,192,19747,1,0,0:0:0:0:
182,192,19958,1,0,0:0:0:0:
402,192,19958,1,0,0:0:0:0:
475,192,20064,1,0,0:0:0:0:
109,192,20064,1,0,0:0:0:0:
36,192,20275,1,0,0:0:0:0:
182,192,20275,1,0,0:0:0:0:
256,192,20275,1,0,0:0:0:0:
402,192,20275,1,0,0:0:0:0:
475,192,20275,1,0,0:0:0:0:
109,192,20486,1,0,0:0:0:0:
402,192,20486,1,0,0:0:0:0:
36,192,20592,1,0,0:0:0:0:
329,192,20592,1,0,0:0:0:0:
109,192,20803,1,0,0:0:0:0:
475,192,20803,1,0,0:0:0:0:
182,192,20909,1,0,0:0:0:0:
402,192,20909,1,0,0:0:0:0:
329,192,21014,1,0,0:0:0:0:
256,192,21120,1,0,0:0:0:0:
109,192,21120,1,0,0:0:0:0:
36,192,21120,1,0,0:0:0:0:
402,192,21226,1,0,0:0:0:0:
182,192,21331,1,0,0:0:0:0:
256,192,21331,1,0,0:0:0:0:
475,192,21437,1,0,0:0:0:0:
109,192,21437,1,0,0:0:0:0:
329,192,21437,1,0,0:0:0:0:
182,192,21543,1,0,0:0:0:0:
256,192,21648,1,0,0:0:0:0:
475,192,21648,1,0,0:0:0:0:
402,192,21754,1,0,0:0:0:0:
329,192,21754,1,0,0:0:0:0:
182,192,21754,1,0,0:0:0:0:
109,192,21860,1,0,0:0:0:0:
182,192,21965,1,0,0:0:0:0:
256,192,21965,1,0,0:0:0:0:
402,192,21965,1,0,0:0:0:0:
475,192,21965,1,0,0:0:0:0:
36,192,21965,128,0,22071:0:0:0:0:
109,192,22071,128,0,22176:0:0:0:0:
329,192,22071,1,0,0:0:0:0:
256,192,22176,1,0,0:0:0:0:
182,192,22176,128,0,22388:0:0:0:0:
402,192,22282,1,0,0:0:0:0:
36,192,22388,128,0,22493:0:0:0:0:
109,192,22388,1,0,0:0:0:0:
256,192,22388,1,0,0:0:0:0:
475,192,22388,1,0,0:0:0:0:
182,192,22493,128,0,22705:0:0:0:0:
329,192,22493,1,0,0:0:0:0:
402,192,22599,1,0,0:0:0:0:
36,192,22705,128,0,22810:0:0:0:0:
109,192,22705,1,0,0:0:0:0:
182,192,22810,1,0,0:0:0:0:
256,192,22810,1,0,0:0:0:0:
475,192,22810,128,0,22916:0:0:0:0:
402,192,22916,128,0,23022:0:0:0:0:
109,192,22916,1,0,0:0:0:0:
329,192,23022,128,0,23233:0:0:0:0:
36,192,23022,1,0,0:0:0:0:
182,192,23127,1,0,0:0:0:0:
475,192,23233,128,0,23338:0:0:0:0:
109,192,23233,1,0,0:0:0:0:
36,192,23233,1,0,0:0:0:0:
256,192,23233,1,0,0:0:0:0:
329,192,23338,128,0,23444:0:0:0:0:
402,192,23338,1,0,0:0:0:0:
182,192,23444,1,0,0:0:0:0:
329,192,23550,128,0,23655:0:0:0:0:
475,192,23550,1,0,0:0:0:0:
109,192,23655,128,0,23761:0:0:0:0:
36,192,23655,1,0,0:0:0:0:
402,192,23655,1,0,0:0:0:0:
256,192,23761,128,0,23867:0:0:0:0:
182,192,23761,1,0,0:0:0:0:
475,192,23867,128,0,24078:0:0:0:0:
329,192,23867,1,0,0:0:0:0:
109,192,23972,1,0,0:0:0:0:
36,192,24078,128,0,24184:0:0:0:0:
256,192,24078,1,0,0:0:0:0:
329,192,24078,1,0,0:0:0:0:
402,192,24078,1,0,0:0:0:0:
182,192,24184,128,0,24395:0:0:0:0:
475,192,24184,1,0,0:0:0:0:
256,192,24289,1,0,0:0:0:0:
109,192,24395,128,0,24500:0:0:0:0:
329,192,24395,1,0,0:0:0:0:
402,192,24500,128,0,24817:0:0:0:0:
36,192,24500,1,0,0:0:0:0:
475,192,24500,1,0,0:0:0:0:
182,192,24606,1,0,0:0:0:0:
329,192,24712,1,0,0:0:0:0:
256,192,24817,128,0,25134:0:0:0:0:
182,192,24817,1,0,0:0:0:0:
36,192,24923,1,0,0:0:0:0:
475,192,24923,1,0,0:0:0:0:
109,192,24923,1,0,0:0:0:0:
402,192,24923,1,0,0:0:0:0:
329,192,25029,1,0,0:0:0:0:
109,192,25134,128,0,25345:0:0:0:0:
182,192,25134,1,0,0:0:0:0:
329,192,25240,1,0,0:0:0:0:
36,192,25345,128,0,25451:0:0:0:0:
256,192,25345,1,0,0:0:0:0:
475,192,25345,1,0,0:0:0:0:
109,192,25451,128,0,25557:0:0:0:0:
402,192,25451,1,0,0:0:0:0:
182,192,25557,128,0,25662:0:0:0:0:
329,192,25557,1,0,0:0:0:0:
256,192,25662,128,0,25768:0:0:0:0:
402,192,25662,1,0,0:0:0:0:
329,192,25768,128,0,25874:0:0:0:0:
36,192,25768,1,0,0:0:0:0:
182,192,25768,1,0,0:0:0:0:
475,192,25768,1,0,0:0:0:0:
256,192,25874,1,0,0:0:0:0:
402,192,25874,128,0,26191:0:0:0:0:
109,192,25979,1,0,0:0:0:0:
36,192,26085,1,0,0:0:0:0:
182,192,26191,128,0,26507:0:0:0:0:
256,192,26191,1,0,0:0:0:0:
475,192,26191,1,0,0:0:0:0:
109,192,26296,1,0,0:0:0:0:
402,192,26402,1,0,0:0:0:0:
329,192,26507,128,0,26824:0:0:0:0:
36,192,26507,1,0,0:0:0:0:
109,192,26613,1,0,0:0:0:0:
475,192,26613,1,0,0:0:0:0:
182,192,26613,1,0,0:0:0:0:
402,192,26613,1,0,0:0:0:0:
256,192,26719,1,0,0:0:0:0:
475,192,26824,128,0,27036:0:0:0:0:
182,192,26824,1,0,0:0:0:0:
109,192,26930,1,0,0:0:0:0:
36,192,27036,1,0,0:0:0:0:
402,192,27036,1,0,0:0:0:0:
182,192,27036,128,0,27247:0:0:0:0:
256,192,27141,1,0,0:0:0:0:
329,192,27247,128,0,27458:0:0:0:0:
475,192,27247,1,0,0:0:0:0:
256,192,27353,1,0,0:0:0:0:
182,192,27458,128,0,27564:0:0:0:0:
109,192,27458,1,0,0:0:0:0:
36,192,27458,1,0,0:0:0:0:
402,192,27458,1,0,0:0:0:0:
329,192,27564,128,0,27881:0:0:0:0:
475,192,27564,1,0,0:0:0:0:
109,192,27669,1,0,0:0:0:0:
182,192,27775,1,0,0:0:0:0:
36,192,27881,128,0,28620:0:0:0:0:
402,192,27881,1,0,0:0:0:0:
475,192,27881,128,0,27986:0:0:0:0:
256,192,27986,128,0,28092:0:0:0:0:
329,192,27986,1,0,0:0:0:0:
402,192,28092,128,0,28198:0:0:0:0:
109,192,28092,1,0,0:0:0:0:
329,192,28198,128,0,28303:0:0:0:0:
182,192,28198,1,0,0:0:0:0:
256,192,28303,128,0,28409:0:0:0:0:
109,192,28303,1,0,0:0:0:0:
402,192,28303,1,0,0:0:0:0:
475,192,28303,1,0,0:0:0:0:
182,192,28409,128,0,28514:0:0:0:0:
329,192,28409,1,0,0:0:0:0:
109,192,28514,128,0,28620:0:0:0:0:
256,192,28514,1,0,0:0:0:0:
475,192,28620,128,0,28726:0:0:0:0:
182,192,28620,1,0,0:0:0:0:
109,192,28726,1,0,0:0:0:0:
256,192,28726,1,0,0:0:0:0:
402,192,28726,1,0,0:0:0:0:
329,192,28726,1,0,0:0:0:0:
36,192,28726,128,0,28831:0:0:0:0:
182,192,28831,128,0,28937:0:0:0:0:
475,192,28831,1,0,0:0:0:0:
329,192,28937,128,0,29148:0:0:0:0:
109,192,28937,1,0,0:0:0:0:
256,192,29043,1,0,0:0:0:0:
36,192,29148,128,0,29254:0:0:0:0:
182,192,29148,1,0,0:0:0:0:
475,192,29148,1,0,0:0:0:0:
402,192,29148,1,0,0:0:0:0:
329,192,29254,128,0,29465:0:0:0:0:
109,192,29254,1,0,0:0:0:0:
256,192,29360,1,0,0:0:0:0:
36,192,29465,128,0,29571:0:0:0:0:
402,192,29465,1,0,0:0:0:0:
475,192,29571,128,0,29676:0:0:0:0:
182,192,29571,1,0,0:0:0:0:
109,192,29571,1,0,0:0:0:0:
402,192,29676,128,0,29782:0:0:0:0:
256,192,29676,1,0,0:0:0:0:
329,192,29782,128,0,29888:0:0:0:0:
182,192,29782,1,0,0:0:0:0:
256,192,29888,128,0,29993:0:0:0:0:
109,192,29888,1,0,0:0:0:0:
182,192,29993,128,0,30416:0:0:0:0:
36,192,29993,1,0,0:0:0:0:
475,192,29993,1,0,0:0:0:0:
329,192,29993,1,0,0:0:0:0:
402,192,30099,1,0,0:0:0:0:
256,192,30205,1,0,0:0:0:0:
329,192,30310,1,0,0:0:0:0:
475,192,30416,1,0,0:0:0:0:
109,192,30416,1,0,0:0:0:0:
36,192,30416,1,0,0:0:0:0:
256,192,30522,1,0,0:0:0:0:
329,192,30627,128,0,30733:0:0:0:0:
182,192,30627,1,0,0:0:0:0:
475,192,30733,128,0,30838:0:0:0:0:
402,192,30733,1,0,0:0:0:0:
256,192,30838,128,0,30944:0:0:0:0:
109,192,30838,1,0,0:0:0:0:
36,192,30838,1,0,0:0:0:0:
182,192,30838,1,0,0:0:0:0:
402,192,30944,128,0,31050:0:0:0:0:
329,192,30944,1,0,0:0:0:0:
182,192,31050,128,0,31155:0:0:0:0:
36,192,31050,1,0,0:0:0:0:
329,192,31155,128,0,31261:0:0:0:0:
256,192,31155,1,0,0:0:0:0:
109,192,31261,128,0,31367:0:0:0:0:
182,192,31261,1,0,0:0:0:0:
475,192,31261,1,0,0:0:0:0:
256,192,31367,128,0,31472:0:0:0:0:
329,192,31367,1,0,0:0:0:0:
36,192,31472,128,0,31578:0:0:0:0:
109,192,31472,1,0,0:0:0:0:
182,192,31578,128,0,31684:0:0:0:0:
256,192,31578,1,0,0:0:0:0:
329,192,31684,128,0,32106:0:0:0:0:
109,192,31684,1,0,0:0:0:0:
402,192,31684,1,0,0:0:0:0:
475,192,31684,1,0,0:0:0:0:
182,192,31789,1,0,0:0:0:0:
402,192,31895,1,0,0:0:0:0:
256,192,32000,1,0,0:0:0:0:
36,192,32106,1,0,0:0:0:0:
475,192,32106,1,0,0:0:0:0:
109,192,32106,128,0,32212:0:0:0:0:
256,192,32212,128,0,32317:0:0:0:0:
182,192,32212,1,0,0:0:0:0:
475,192,32317,128,0,32423:0:0:0:0:
402,192,32317,1,0,0:0:0:0:
329,192,32423,128,0,32529:0:0:0:0:
182,192,32423,1,0,0:0:0:0:
36,192,32529,128,0,32634:0:0:0:0:
109,192,32529,1,0,0:0:0:0:
256,192,32529,1,0,0:0:0:0:
475,192,32529,1,0,0:0:0:0:
182,192,32634,128,0,32845:0:0:0:0:
402,192,32634,1,0,0:0:0:0:
256,192,32740,1,0,0:0:0:0:
329,192,32845,128,0,32951:0:0:0:0:
109,192,32845,1,0,0:0:0:0:
402,192,32951,128,0,33268:0:0:0:0:
36,192,32951,1,0,0:0:0:0:
256,192,32951,1,0,0:0:0:0:
182,192,33057,1,0,0:0:0:0:
329,192,33162,1,0,0:0:0:0:
256,192,33268,128,0,33585:0:0:0:0:
475,192,33268,1,0,0:0:0:0:
329,192,33374,1,0,0:0:0:0:
109,192,33374,1,0,0:0:0:0:
36,192,33374,1,0,0:0:0:0:
402,192,33374,1,0,0:0:0:0:
182,192,33479,1,0,0:0:0:0:
109,192,33585,128,0,33796:0:0:0:0:
36,192,33585,1,0,0:0:0:0:
256,192,33691,1,0,0:0:0:0:
329,192,33796,1,0,0:0:0:0:
402,192,33796,1,0,0:0:0:0:
475,192,33796,1,0,0:0:0:0:
182,192,33796,1,0,0:0:0:0:
36,192,33796,1,0,0:0:0:0:
256,192,33902,1,0,0:0:0:0:
329,192,34007,128,0,34113:0:0:0:0:
109,192,34007,1,0,0:0:0:0:
475,192,34113,128,0,34324:0:0:0:0:
182,192,34113,1,0,0:0:0:0:
36,192,34219,1,0,0:0:0:0:
402,192,34219,1,0,0:0:0:0:
329,192,34324,128,0,34430:0:0:0:0:
256,192,34324,1,0,0:0:0:0:
36,192,34430,128,0,34536:0:0:0:0:
182,192,34430,128,0,34536:0:0:0:0:
109,192,34536,128,0,34641:0:0:0:0:
329,192,34536,128,0,34641:0:0:0:0:
475,192,34641,128,0,34747:0:0:0:0:
182,192,34641,1,0,0:0:0:0:
36,192,34641,1,0,0:0:0:0:
256,192,34641,128,0,34747:0:0:0:0:
402,192,34747,128,0,34853:0:0:0:0:
109,192,34747,128,0,34853:0:0:0:0:
329,192,34853,128,0,34958:0:0:0:0:
182,192,34853,128,0,34958:0:0:0:0:
256,192,34958,128,0,35064:0:0:0:0:
402,192,34958,1,0,0:0:0:0:
475,192,34958,1,0,0:0:0:0:
36,192,34958,128,0,35064:0:0:0:0:
182,192,35064,128,0,35169:0:0:0:0:
329,192,35064,128,0,35169:0:0:0:0:
109,192,35169,128,0,35275:0:0:0:0:
402,192,35169,128,0,35275:0:0:0:0:
36,192,35275,128,0,35381:0:0:0:0:
475,192,35275,1,0,0:0:0:0:
402,192,35328,1,0,0:0:0:0:
109,192,35381,128,0,35486:0:0:0:0:
329,192,35381,1,0,0:0:0:0:
256,192,35434,1,0,0:0:0:0:
329,192,35486,128,0,36331:0:0:0:0:
182,192,35486,128,0,35592:0:0:0:0:
36,192,35486,128,0,35592:0:0:0:0:
402,192,35486,128,0,35592:0:0:0:0:
475,192,35486,128,0,35592:0:0:0:0:
256,192,35592,1,0,0:0:0:0:
402,192,35698,1,0,0:0:0:0:
182,192,35803,1,0,0:0:0:0:
36,192,35909,1,0,0:0:0:0:
109,192,35909,1,0,0:0:0:0:
256,192,35909,1,0,0:0:0:0:
402,192,35909,1,0,0:0:0:0:
475,192,35909,1,0,0:0:0:0:
182,192,36014,1,0,0:0:0:0:
256,192,36120,1,0,0:0:0:0:
402,192,36226,1,0,0:0:0:0:
475,192,36331,128,0,36754:0:0:0:0:
109,192,36331,128,0,36437:0:0:0:0:
182,192,36331,128,0,36437:0:0:0:0:
256,192,36331,128,0,36437:0:0:0:0:
36,192,36331,128,0,36437:0:0:0:0:
329,192,36437,1,0,0:0:0:0:
109,192,36543,1,0,0:0:0:0:
182,192,36648,1,0,0:0:0:0:
36,192,36754,128,0,37176:0:0:0:0:
109,192,36754,128,0,36860:0:0:0:0:
256,192,36754,128,0,36860:0:0:0:0:
329,192,36754,128,0,36860:0:0:0:0:
402,192,36754,128,0,36860:0:0:0:0:
475,192,36860,1,0,0:0:0:0:
402,192,36965,1,0,0:0:0:0:
329,192,37071,1,0,0:0:0:0:
182,192,37176,128,0,38022:0:0:0:0:
402,192,37176,128,0,37282:0:0:0:0:
475,192,37176,128,0,37282:0:0:0:0:
256,192,37176,128,0,37282:0:0:0:0:
109,192,37176,128,0,37282:0:0:0:0:
36,192,37282,1,0,0:0:0:0:
256,192,37388,1,0,0:0:0:0:
402,192,37493,1,0,0:0:0:0:
36,192,37599,1,0,0:0:0:0:
109,192,37599,1,0,0:0:0:0:
256,192,37599,1,0,0:0:0:0:
329,192,37599,1,0,0:0:0:0:
475,192,37599,1,0,0:0:0:0:
402,192,37705,1,0,0:0:0:0:
109,192,37810,1,0,0:0:0:0:
256,192,37916,1,0,0:0:0:0:
36,192,38022,1,0,0:0:0:0:
475,192,38022,128,0,38233:0:0:0:0:
329,192,38022,128,0,38233:0:0:0:0:
182,192,38127,1,0,0:0:0:0:
109,192,38233,1,0,0:0:0:0:
256,192,38338,128,0,38550:0:0:0:0:
402,192,38338,128,0,38550:0:0:0:0:
475,192,38338,1,0,0:0:0:0:
109,192,38444,1,0,0:0:0:0:
182,192,38444,1,0,0:0:0:0:
329,192,38444,1,0,0:0:0:0:
36,192,38550,1,0,0:0:0:0:
402,192,38655,1,0,0:0:0:0:
329,192,38655,128,0,38867:0:0:0:0:
182,192,38655,128,0,38867:0:0:0:0:
475,192,38761,1,0,0:0:0:0:
109,192,38867,128,0,39712:0:0:0:0:
402,192,38867,128,0,38972:0:0:0:0:
256,192,38867,128,0,38972:0:0:0:0:
36,192,38867,128,0,38972:0:0:0:0:
329,192,38972,1,0,0:0:0:0:
182,192,39078,1,0,0:0:0:0:
256,192,39184,1,0,0:0:0:0:
36,192,39289,1,0,0:0:0:0:
182,192,39289,1,0,0:0:0:0:
329,192,39289,1,0,0:0:0:0:
402,192,39289,1,0,0:0:0:0:
475,192,39289,1,0,0:0:0:0:
256,192,39395,1,0,0:0:0:0:
402,192,39500,1,0,0:0:0:0:
182,192,39606,1,0,0:0:0:0:
402,192,39712,128,0,40134:0:0:0:0:
256,192,39712,128,0,39817:0:0:0:0:
329,192,39712,128,0,39817:0:0:0:0:
475,192,39712,128,0,39817:0:0:0:0:
36,192,39712,128,0,39817:0:0:0:0:
182,192,39817,1,0,0:0:0:0:
109,192,39923,1,0,0:0:0:0:
329,192,40029,1,0,0:0:0:0:
256,192,40134,128,0,40557:0:0:0:0:
36,192,40134,128,0,40240:0:0:0:0:
109,192,40134,128,0,40240:0:0:0:0:
182,192,40134,128,0,40240:0:0:0:0:
475,192,40134,128,0,40240:0:0:0:0:
402,192,40240,1,0,0:0:0:0:
329,192,40345,1,0,0:0:0:0:
182,192,40451,1,0,0:0:0:0:
109,192,40557,128,0,41824:0:0:0:0:
475,192,40557,128,0,40662:0:0:0:0:
402,192,40557,128,0,40662:0:0:0:0:
329,192,40557,128,0,40662:0:0:0:0:
36,192,40557,128,0,40662:0:0:0:0:
182,192,40662,1,0,0:0:0:0:
256,192,40768,1,0,0:0:0:0:
329,192,40874,1,0,0:0:0:0:
182,192,40979,1,0,0:0:0:0:
36,192,40979,1,0,0:0:0:0:
402,192,40979,1,0,0:0:0:0:
475,192,40979,1,0,0:0:0:0:
256,192,40979,1,0,0:0:0:0:
329,192,41085,1,0,0:0:0:0:
182,192,41191,1,0,0:0:0:0:
256,192,41296,1,0,0:0:0:0:
402,192,41402,1,0,0:0:0:0:
475,192,41402,1,0,0:0:0:0:
329,192,41402,1,0,0:0:0:0:
36,192,41402,128,0,41507:0:0:0:0:
182,192,41507,128,0,41613:0:0:0:0:
256,192,41613,128,0,41719:0:0:0:0:
329,192,41719,128,0,41824:0:0:0:0:
182,192,41824,1,0,0:0:0:0:
36,192,41824,1,0,0:0:0:0:
475,192,41824,1,0,0:0:0:0:
402,192,41824,1,0,0:0:0:0:
256,192,41930,1,0,0:0:0:0:
109,192,42036,1,0,0:0:0:0:
36,192,42036,1,0,0:0:0:0:
475,192,42036,1,0,0:0:0:0:
329,192,42036,1,0,0:0:0:0:
256,192,42141,1,0,0:0:0:0:
36,192,42247,1,0,0:0:0:0:
109,192,42247,1,0,0:0:0:0:
402,192,42247,1,0,0:0:0:0:
475,192,42247,128,0,42881:0:0:0:0:
182,192,42247,1,0,0:0:0:0:
256,192,42353,128,0,42458:0:0:0:0:
329,192,42458,128,0,42564:0:0:0:0:
182,192,42458,1,0,0:0:0:0:
402,192,42564,128,0,42669:0:0:0:0:
329,192,42669,1,0,0:0:0:0:
256,192,42669,1,0,0:0:0:0:
182,192,42669,1,0,0:0:0:0:
109,192,42669,1,0,0:0:0:0:
36,192,42669,128,0,42775:0:0:0:0:
402,192,42775,128,0,42881:0:0:0:0:
36,192,42881,128,0,43092:0:0:0:0:
182,192,42881,128,0,42986:0:0:0:0:
256,192,42881,1,0,0:0:0:0:
329,192,42986,128,0,43092:0:0:0:0:
256,192,43092,128,0,43726:0:0:0:0:
109,192,43092,1,0,0:0:0:0:
182,192,43092,1,0,0:0:0:0:
402,192,43092,1,0,0:0:0:0:
475,192,43092,1,0,0:0:0:0:
36,192,43198,128,0,43303:0:0:0:0:
182,192,43303,128,0,43409:0:0:0:0:
402,192,43303,1,0,0:0:0:0:
329,192,43409,128,0,43514:0:0:0:0:
36,192,43514,1,0,0:0:0:0:
109,192,43514,1,0,0:0:0:0:
182,192,43514,1,0,0:0:0:0:
402,192,43514,1,0,0:0:0:0:
475,192,43514,1,0,0:0:0:0:
329,192,43620,128,0,43726:0:0:0:0:
475,192,43726,128,0,43937:0:0:0:0:
109,192,43726,128,0,43831:0:0:0:0:
36,192,43726,1,0,0:0:0:0:
256,192,43831,128,0,43937:0:0:0:0:
182,192,43937,128,0,44571:0:0:0:0:
109,192,43937,1,0,0:0:0:0:
36,192,43937,1,0,0:0:0:0:
329,192,43937,1,0,0:0:0:0:
402,192,43937,1,0,0:0:0:0:
475,192,44043,128,0,44148:0:0:0:0:
109,192,44148,128,0,44254:0:0:0:0:
329,192,44148,1,0,0:0:0:0:
256,192,44254,128,0,44360:0:0:0:0:
36,192,44360,1,0,0:0:0:0:
109,192,44360,1,0,0:0:0:0:
329,192,44360,1,0,0:0:0:0:
475,192,44360,1,0,0:0:0:0:
402,192,44360,1,0,0:0:0:0:
256,192,44465,128,0,44571:0:0:0:0:
475,192,44571,128,0,44782:0:0:0:0:
36,192,44571,128,0,44676:0:0:0:0:
109,192,44571,1,0,0:0:0:0:
182,192,44676,128,0,44782:0:0:0:0:
402,192,44782,128,0,44993:0:0:0:0:
36,192,44782,1,0,0:0:0:0:
109,192,44782,1,0,0:0:0:0:
256,192,44782,1,0,0:0:0:0:
329,192,44782,1,0,0:0:0:0:
475,192,44888,128,0,44993:0:0:0:0:
256,192,44993,128,0,45205:0:0:0:0:
182,192,44993,128,0,45099:0:0:0:0:
109,192,44993,128,0,45099:0:0:0:0:
36,192,44993,1,0,0:0:0:0:
329,192,45099,128,0,45205:0:0:0:0:
36,192,45205,1,0,0:0:0:0:
109,192,45205,1,0,0:0:0:0:
182,192,45205,1,0,0:0:0:0:
402,192,45205,1,0,0:0:0:0:
475,192,45205,1,0,0:0:0:0:
256,192,45310,128,0,45416:0:0:0:0:
329,192,45310,128,0,45416:0:0:0:0:
36,192,45416,128,0,45522:0:0:0:0:
402,192,45416,128,0,45522:0:0:0:0:
475,192,45522,128,0,45627:0:0:0:0:
109,192,45522,128,0,45627:0:0:0:0:
36,192,45627,128,0,46472:0:0:0:0:
329,192,45627,1,0,0:0:0:0:
402,192,45627,1,0,0:0:0:0:
182,192,45627,1,0,0:0:0:0:
256,192,45627,1,0,0:0:0:0:
475,192,45733,128,0,45838:0:0:0:0:
182,192,45838,128,0,45944:0:0:0:0:
109,192,45838,1,0,0:0:0:0:
329,192,45944,128,0,46050:0:0:0:0:
109,192,46050,1,0,0:0:0:0:
182,192,46050,1,0,0:0:0:0:
256,192,46050,1,0,0:0:0:0:
402,192,46050,1,0,0:0:0:0:
475,192,46050,1,0,0:0:0:0:
329,192,46155,128,0,46261:0:0:0:0:
256,192,46261,128,0,46367:0:0:0:0:
475,192,46261,1,0,0:0:0:0:
182,192,46367,128,0,46472:0:0:0:0:
475,192,46472,128,0,46684:0:0:0:0:
109,192,46472,1,0,0:0:0:0:
256,192,46472,1,0,0:0:0:0:
329,192,46472,1,0,0:0:0:0:
402,192,46472,1,0,0:0:0:0:
36,192,46578,128,0,46684:0:0:0:0:
329,192,46684,128,0,46895:0:0:0:0:
182,192,46684,128,0,46789:0:0:0:0:
109,192,46684,1,0,0:0:0:0:
256,192,46789,128,0,46895:0:0:0:0:
36,192,46895,128,0,47106:0:0:0:0:
109,192,46895,1,0,0:0:0:0:
182,192,46895,1,0,0:0:0:0:
402,192,46895,1,0,0:0:0:0:
475,192,46895,1,0,0:0:0:0:
329,192,47000,128,0,47106:0:0:0:0:
182,192,47106,128,0,47317:0:0:0:0:
109,192,47106,128,0,47212:0:0:0:0:
256,192,47106,1,0,0:0:0:0:
402,192,47212,128,0,47317:0:0:0:0:
36,192,47317,1,0,0:0:0:0:
109,192,47317,1,0,0:0:0:0:
256,192,47317,1,0,0:0:0:0:
329,192,47317,1,0,0:0:0:0:
475,192,47317,1,0,0:0:0:0:
182,192,47423,1,0,0:0:0:0:
402,192,47529,1,0,0:0:0:0:
109,192,47634,1,0,0:0:0:0:
256,192,47740,1,0,0:0:0:0:
182,192,47845,1,0,0:0:0:0:
329,192,47951,1,0,0:0:0:0:
36,192,47951,1,0,0:0:0:0:
256,192,47951,1,0,0:0:0:0:
109,192,48057,1,0,0:0:0:0:
36,192,48162,1,0,0:0:0:0:
256,192,48162,1,0,0:0:0:0:
329,192,48162,1,0,0:0:0:0:
402,192,48215,1,0,0:0:0:0:
475,192,48268,1,0,0:0:0:0:
36,192,48321,1,0,0:0:0:0:
109,192,48374,1,0,0:0:0:0:
182,192,48426,1,0,0:0:0:0:
256,192,48479,1,0,0:0:0:0:
329,192,48479,1,0,0:0:0:0:
109,192,48585,1,0,0:0:0:0:
36,192,48585,1,0,0:0:0:0:
475,192,48585,1,0,0:0:0:0:
402,192,48638,1,0,0:0:0:0:
329,192,48691,1,0,0:0:0:0:
256,192,48743,1,0,0:0:0:0:
36,192,48796,1,0,0:0:0:0:
109,192,48849,1,0,0:0:0:0:
182,192,48902,1,0,0:0:0:0:
256,192,48955,1,0,0:0:0:0:
36,192,49007,1,0,0:0:0:0:
402,192,49007,1,0,0:0:0:0:
329,192,49007,1,0,0:0:0:0:
475,192,49007,1,0,0:0:0:0:
109,192,49007,128,0,49113:0:0:0:0:
182,192,49113,128,0,49219:0:0:0:0:
256,192,49219,128,0,49430:0:0:0:0:
109,192,49430,128,0,49536:0:0:0:0:
256,192,49536,128,0,49747:0:0:0:0:
109,192,49747,128,0,49853:0:0:0:0:
402,192,49853,128,0,50169:0:0:0:0:
475,192,50169,128,0,50486:0:0:0:0:
182,192,50486,128,0,50698:0:0:0:0:
109,192,50698,128,0,50803:0:0:0:0:
256,192,50803,128,0,50909:0:0:0:0:
402,192,50909,128,0,51120:0:0:0:0:
109,192,51120,128,0,51226:0:0:0:0:
329,192,51226,128,0,51437:0:0:0:0:
36,192,51437,128,0,51543:0:0:0:0:
475,192,51543,128,0,51860:0:0:0:0:
256,192,51860,128,0,52176:0:0:0:0:
36,192,52176,128,0,52388:0:0:0:0:
109,192,52176,1,0,0:0:0:0:
182,192,52247,1,0,0:0:0:0:
329,192,52317,1,0,0:0:0:0:
109,192,52388,1,0,0:0:0:0:
256,192,52388,1,0,0:0:0:0:
402,192,52388,1,0,0:0:0:0:
475,192,52388,1,0,0:0:0:0:
182,192,52493,1,0,0:0:0:0:
36,192,52599,1,0,0:0:0:0:
329,192,52599,1,0,0:0:0:0:
402,192,52599,1,0,0:0:0:0:
182,192,52705,1,0,0:0:0:0:
109,192,52810,1,0,0:0:0:0:
329,192,52810,1,0,0:0:0:0:
256,192,52810,1,0,0:0:0:0:
475,192,52916,1,0,0:0:0:0:
182,192,53022,1,0,0:0:0:0:
256,192,53022,1,0,0:0:0:0:
402,192,53022,1,0,0:0:0:0:
475,192,53127,1,0,0:0:0:0:
109,192,53233,1,0,0:0:0:0:
182,192,53233,1,0,0:0:0:0:
329,192,53233,1,0,0:0:0:0:
402,192,53338,1,0,0:0:0:0:
36,192,53444,1,0,0:0:0:0:
109,192,53444,1,0,0:0:0:0:
256,192,53444,1,0,0:0:0:0:
329,192,53550,1,0,0:0:0:0:
36,192,53655,1,0,0:0:0:0:
182,192,53655,1,0,0:0:0:0:
475,192,53655,1,0,0:0:0:0:
402,192,53761,1,0,0:0:0:0:
109,192,53867,1,0,0:0:0:0:
256,192,53867,1,0,0:0:0:0:
36,192,53867,1,0,0:0:0:0:
329,192,53972,1,0,0:0:0:0:
182,192,54078,1,0,0:0:0:0:
402,192,54078,1,0,0:0:0:0:
475,192,54078,1,0,0:0:0:0:
109,192,54184,1,0,0:0:0:0:
36,192,54184,1,0,0:0:0:0:
256,192,54184,1,0,0:0:0:0:
182,192,54289,1,0,0:0:0:0:
329,192,54289,1,0,0:0:0:0:
402,192,54289,1,0,0:0:0:0:
109,192,54395,1,0,0:0:0:0:
256,192,54395,1,0,0:0:0:0:
182,192,54500,1,0,0:0:0:0:
36,192,54500,1,0,0:0:0:0:
475,192,54500,1,0,0:0:0:0:
109,192,54606,1,0,0:0:0:0:
329,192,54606,1,0,0:0:0:0:
402,192,54606,1,0,0:0:0:0:
182,192,54712,1,0,0:0:0:0:
256,192,54712,1,0,0:0:0:0:
475,192,54712,1,0,0:0:0:0:
36,192,54817,1,0,0:0:0:0:
329,192,54817,1,0,0:0:0:0:
109,192,54923,1,0,0:0:0:0:
182,192,54923,1,0,0:0:0:0:
402,192,54923,1,0,0:0:0:0:
36,192,55029,1,0,0:0:0:0:
475,192,55029,1,0,0:0:0:0:
329,192,55029,1,0,0:0:0:0:
182,192,55134,1,0,0:0:0:0:
256,192,55134,1,0,0:0:0:0:
402,192,55134,1,0,0:0:0:0:
109,192,55240,1,0,0:0:0:0:
329,192,55240,1,0,0:0:0:0:
182,192,55345,1,0,0:0:0:0:
36,192,55345,1,0,0:0:0:0:
475,192,55345,1,0,0:0:0:0:
109,192,55451,1,0,0:0:0:0:
329,192,55451,1,0,0:0:0:0:
256,192,55451,1,0,0:0:0:0:
182,192,55557,1,0,0:0:0:0:
402,192,55557,1,0,0:0:0:0:
475,192,55557,1,0,0:0:0:0:
36,192,55662,1,0,0:0:0:0:
329,192,55662,1,0,0:0:0:0:
109,192,55768,1,0,0:0:0:0:
182,192,55768,1,0,0:0:0:0:
256,192,55768,1,0,0:0:0:0:
402,192,55768,1,0,0:0:0:0:
475,192,55768,1,0,0:0:0:0:
329,192,55979,1,0,0:0:0:0:
256,192,56191,1,0,0:0:0:0:
109,192,56402,1,0,0:0:0:0:
475,192,56402,1,0,0:0:0:0:
182,192,56507,1,0,0:0:0:0:
329,192,56613,1,0,0:0:0:0:
402,192,56930,1,0,0:0:0:0:
475,192,57247,1,0,0:0:0:0:
182,192,57458,1,0,0:0:0:0:
36,192,57458,1,0,0:0:0:0:
402,192,57458,1,0,0:0:0:0:
256,192,57669,1,0,0:0:0:0:
109,192,57881,1,0,0:0:0:0:
402,192,58277,1,0,0:0:0:0:
182,192,58303,1,0,0:0:0:0:
329,192,58303,1,0,0:0:0:0:
256,192,58726,1,0,0:0:0:0:
182,192,59148,1,0,0:0:0:0:
329,192,59148,1,0,0:0:0:0:
36,192,59148,1,0,0:0:0:0:
256,192,59360,1,0,0:0:0:0:
402,192,59571,1,0,0:0:0:0:
109,192,59782,1,0,0:0:0:0:
329,192,59782,1,0,0:0:0:0:
109,192,59993,1,0,0:0:0:0:
329,192,59993,1,0,0:0:0:0:
36,192,60838,1,0,0:0:0:0:
182,192,61050,1,0,0:0:0:0:
329,192,61261,1,0,0:0:0:0:
475,192,61472,1,0,0:0:0:0:
256,192,61895,1,0,0:0:0:0:
329,192,62106,1,0,0:0:0:0:
109,192,62212,1,0,0:0:0:0:
182,192,62317,1,0,0:0:0:0:
256,192,62423,1,0,0:0:0:0:
329,192,62529,1,0,0:0:0:0:
475,192,62529,1,0,0:0:0:0:
36,192,62529,1,0,0:0:0:0:
182,192,62740,1,0,0:0:0:0:
329,192,62951,1,0,0:0:0:0:
109,192,63162,1,0,0:0:0:0:
402,192,63162,1,0,0:0:0:0:
182,192,63268,1,0,0:0:0:0:
329,192,63374,1,0,0:0:0:0:
475,192,63691,1,0,0:0:0:0:
256,192,64007,1,0,0:0:0:0:
182,192,64219,1,0,0:0:0:0:
329,192,64219,1,0,0:0:0:0:
402,192,64219,1,0,0:0:0:0:
109,192,64430,1,0,0:0:0:0:
36,192,64641,1,0,0:0:0:0:
256,192,64641,1,0,0:0:0:0:
182,192,64853,1,0,0:0:0:0:
329,192,65037,1,0,0:0:0:0:
109,192,65064,1,0,0:0:0:0:
402,192,65064,1,0,0:0:0:0:
256,192,65486,1,0,0:0:0:0:
182,192,65909,1,0,0:0:0:0:
109,192,65909,1,0,0:0:0:0:
402,192,65909,1,0,0:0:0:0:
256,192,66120,1,0,0:0:0:0:
329,192,66331,1,0,0:0:0:0:
182,192,66543,1,0,0:0:0:0:
475,192,66543,1,0,0:0:0:0:
182,192,66754,1,0,0:0:0:0:
475,192,66754,1,0,0:0:0:0:
109,192,67810,1,0,0:0:0:0:
256,192,68022,1,0,0:0:0:0:
402,192,68233,1,0,0:0:0:0:
182,192,68655,1,0,0:0:0:0:
256,192,69078,1,0,0:0:0:0:
329,192,69184,1,0,0:0:0:0:
402,192,69289,1,0,0:0:0:0:
475,192,69289,1,0,0:0:0:0:
182,192,69289,1,0,0:0:0:0:
36,192,69289,1,0,0:0:0:0:
109,192,69500,1,0,0:0:0:0:
256,192,69500,1,0,0:0:0:0:
182,192,69712,1,0,0:0:0:0:
329,192,69712,1,0,0:0:0:0:
256,192,69923,1,0,0:0:0:0:
402,192,69923,1,0,0:0:0:0:
36,192,69923,1,0,0:0:0:0:
182,192,70345,1,0,0:0:0:0:
475,192,70345,1,0,0:0:0:0:
182,192,70979,1,0,0:0:0:0:
475,192,70979,1,0,0:0:0:0:
256,192,70979,1,0,0:0:0:0:
36,192,71402,1,0,0:0:0:0:
329,192,71402,1,0,0:0:0:0:
475,192,71402,1,0,0:0:0:0:
182,192,71824,1,0,0:0:0:0:
402,192,71824,1,0,0:0:0:0:
109,192,71824,1,0,0:0:0:0:
182,192,72247,1,0,0:0:0:0:
256,192,72247,1,0,0:0:0:0:
36,192,72247,1,0,0:0:0:0:
256,192,72669,1,0,0:0:0:0:
329,192,72669,1,0,0:0:0:0:
109,192,72669,1,0,0:0:0:0:
182,192,72775,1,0,0:0:0:0:
256,192,72881,1,0,0:0:0:0:
329,192,72986,1,0,0:0:0:0:
402,192,73092,1,0,0:0:0:0:
109,192,73198,1,0,0:0:0:0:
329,192,73303,1,0,0:0:0:0:
182,192,73409,1,0,0:0:0:0:
36,192,73514,1,0,0:0:0:0:
256,192,73514,1,0,0:0:0:0:
402,192,73514,1,0,0:0:0:0:
182,192,73726,1,0,0:0:0:0:
109,192,73831,1,0,0:0:0:0:
329,192,73831,1,0,0:0:0:0:
475,192,73831,1,0,0:0:0:0:
256,192,74043,1,0,0:0:0:0:
182,192,74148,1,0,0:0:0:0:
402,192,74148,1,0,0:0:0:0:
36,192,74148,1,0,0:0:0:0:
182,192,74360,1,0,0:0:0:0:
402,192,74360,1,0,0:0:0:0:
36,192,74360,1,0,0:0:0:0:
109,192,74571,1,0,0:0:0:0:
475,192,74571,1,0,0:0:0:0:
36,192,74782,1,0,0:0:0:0:
329,192,74782,1,0,0:0:0:0:
109,192,74888,1,0,0:0:0:0:
402,192,74888,1,0,0:0:0:0:
182,192,74993,1,0,0:0:0:0:
475,192,74993,1,0,0:0:0:0:
182,192,75205,1,0,0:0:0:0:
475,192,75205,1,0,0:0:0:0:
109,192,75416,1,0,0:0:0:0:
329,192,75416,1,0,0:0:0:0:
182,192,75522,1,0,0:0:0:0:
402,192,75522,1,0,0:0:0:0:
36,192,75733,1,0,0:0:0:0:
256,192,75733,1,0,0:0:0:0:
109,192,75838,1,0,0:0:0:0:
329,192,75838,1,0,0:0:0:0:
182,192,76050,1,0,0:0:0:0:
256,192,76050,1,0,0:0:0:0:
402,192,76050,1,0,0:0:0:0:
109,192,76155,1,0,0:0:0:0:
36,192,76261,1,0,0:0:0:0:
109,192,76367,1,0,0:0:0:0:
182,192,76472,1,0,0:0:0:0:
475,192,76472,1,0,0:0:0:0:
256,192,76578,1,0,0:0:0:0:
329,192,76684,1,0,0:0:0:0:
109,192,76684,1,0,0:0:0:0:
256,192,76789,1,0,0:0:0:0:
182,192,76895,1,0,0:0:0:0:
475,192,76895,1,0,0:0:0:0:
402,192,76895,1,0,0:0:0:0:
109,192,77106,1,0,0:0:0:0:
329,192,77106,1,0,0:0:0:0:
402,192,77212,1,0,0:0:0:0:
182,192,77212,1,0,0:0:0:0:
256,192,77212,1,0,0:0:0:0:
109,192,77317,1,0,0:0:0:0:
329,192,77317,1,0,0:0:0:0:
36,192,77529,1,0,0:0:0:0:
256,192,77529,1,0,0:0:0:0:
182,192,77529,1,0,0:0:0:0:
109,192,77740,1,0,0:0:0:0:
182,192,77845,1,0,0:0:0:0:
256,192,77951,1,0,0:0:0:0:
329,192,78057,1,0,0:0:0:0:
402,192,78162,1,0,0:0:0:0:
256,192,78268,1,0,0:0:0:0:
109,192,78374,1,0,0:0:0:0:
256,192,78479,1,0,0:0:0:0:
182,192,78585,1,0,0:0:0:0:
329,192,78585,1,0,0:0:0:0:
475,192,78585,1,0,0:0:0:0:
402,192,78796,1,0,0:0:0:0:
256,192,78796,1,0,0:0:0:0:
329,192,78902,1,0,0:0:0:0:
109,192,78902,1,0,0:0:0:0:
36,192,78902,1,0,0:0:0:0:
109,192,79113,1,0,0:0:0:0:
256,192,79113,1,0,0:0:0:0:
182,192,79219,1,0,0:0:0:0:
402,192,79219,1,0,0:0:0:0:
475,192,79219,1,0,0:0:0:0:
109,192,79430,1,0,0:0:0:0:
36,192,79430,1,0,0:0:0:0:
329,192,79430,1,0,0:0:0:0:
402,192,79536,1,0,0:0:0:0:
475,192,79641,1,0,0:0:0:0:
256,192,79747,1,0,0:0:0:0:
182,192,79853,1,0,0:0:0:0:
475,192,79853,1,0,0:0:0:0:
36,192,79853,1,0,0:0:0:0:
329,192,79958,1,0,0:0:0:0:
256,192,80064,1,0,0:0:0:0:
182,192,80169,1,0,0:0:0:0:
36,192,80275,1,0,0:0:0:0:
402,192,80275,1,0,0:0:0:0:
475,192,80275,1,0,0:0:0:0:
182,192,80381,1,0,0:0:0:0:
329,192,80381,1,0,0:0:0:0:
402,192,80486,1,0,0:0:0:0:
109,192,80486,1,0,0:0:0:0:
36,192,80592,1,0,0:0:0:0:
475,192,80592,1,0,0:0:0:0:
256,192,80592,1,0,0:0:0:0:
182,192,80698,1,0,0:0:0:0:
329,192,80698,1,0,0:0:0:0:
402,192,80803,1,0,0:0:0:0:
109,192,80803,1,0,0:0:0:0:
182,192,80909,1,0,0:0:0:0:
256,192,80909,1,0,0:0:0:0:
329,192,80909,1,0,0:0:0:0:
36,192,81014,1,0,0:0:0:0:
475,192,81014,1,0,0:0:0:0:
402,192,81120,1,0,0:0:0:0:
256,192,81120,1,0,0:0:0:0:
182,192,81120,1,0,0:0:0:0:
109,192,81120,1,0,0:0:0:0:
329,192,81120,128,0,81331:0:0:0:0:
475,192,81331,128,0,81543:0:0:0:0:
256,192,81543,128,0,81648:0:0:0:0:
402,192,81648,128,0,81860:0:0:0:0:
182,192,81860,1,0,0:0:0:0:
329,192,81965,1,0,0:0:0:0:
256,192,81965,1,0,0:0:0:0:
109,192,81965,1,0,0:0:0:0:
36,192,81965,1,0,0:0:0:0:
182,192,82176,1,0,0:0:0:0:
402,192,82176,1,0,0:0:0:0:
475,192,82176,1,0,0:0:0:0:
109,192,82282,1,0,0:0:0:0:
36,192,82282,1,0,0:0:0:0:
256,192,82282,1,0,0:0:0:0:
329,192,82282,1,0,0:0:0:0:
109,192,82493,1,0,0:0:0:0:
36,192,82493,1,0,0:0:0:0:
329,192,82493,1,0,0:0:0:0:
182,192,82599,1,0,0:0:0:0:
256,192,82599,1,0,0:0:0:0:
402,192,82599,1,0,0:0:0:0:
475,192,82599,1,0,0:0:0:0:
36,192,82810,1,0,0:0:0:0:
109,192,82810,1,0,0:0:0:0:
182,192,82810,1,0,0:0:0:0:
329,192,82810,1,0,0:0:0:0:
475,192,82810,1,0,0:0:0:0:
256,192,82916,1,0,0:0:0:0:
402,192,82916,1,0,0:0:0:0:
329,192,83022,1,0,0:0:0:0:
182,192,83022,1,0,0:0:0:0:
109,192,83127,1,0,0:0:0:0:
256,192,83127,1,0,0:0:0:0:
182,192,83233,1,0,0:0:0:0:
36,192,83233,1,0,0:0:0:0:
402,192,83233,1,0,0:0:0:0:
109,192,83338,1,0,0:0:0:0:
256,192,83338,1,0,0:0:0:0:
182,192,83444,1,0,0:0:0:0:
329,192,83444,1,0,0:0:0:0:
256,192,83550,1,0,0:0:0:0:
402,192,83550,1,0,0:0:0:0:
329,192,83655,1,0,0:0:0:0:
475,192,83655,1,0,0:0:0:0:
109,192,83655,1,0,0:0:0:0:
182,192,83867,1,0,0:0:0:0:
256,192,83867,1,0,0:0:0:0:
109,192,83972,1,0,0:0:0:0:
402,192,83972,1,0,0:0:0:0:
36,192,84078,1,0,0:0:0:0:
256,192,84078,1,0,0:0:0:0:
329,192,84078,1,0,0:0:0:0:
182,192,84289,1,0,0:0:0:0:
402,192,84289,1,0,0:0:0:0:
109,192,84500,1,0,0:0:0:0:
256,192,84500,1,0,0:0:0:0:
475,192,84500,1,0,0:0:0:0:
182,192,84712,1,0,0:0:0:0:
329,192,84712,1,0,0:0:0:0:
36,192,84817,1,0,0:0:0:0:
109,192,84817,1,0,0:0:0:0:
182,192,84923,1,0,0:0:0:0:
256,192,84923,1,0,0:0:0:0:
402,192,84923,1,0,0:0:0:0:
109,192,85134,1,0,0:0:0:0:
329,192,85134,1,0,0:0:0:0:
256,192,85345,1,0,0:0:0:0:
402,192,85345,1,0,0:0:0:0:
475,192,85345,1,0,0:0:0:0:
109,192,85557,1,0,0:0:0:0:
182,192,85557,1,0,0:0:0:0:
256,192,85662,1,0,0:0:0:0:
402,192,85662,1,0,0:0:0:0:
329,192,85768,1,0,0:0:0:0:
109,192,85768,1,0,0:0:0:0:
36,192,85768,1,0,0:0:0:0:
182,192,85979,1,0,0:0:0:0:
402,192,85979,1,0,0:0:0:0:
329,192,86050,1,0,0:0:0:0:
109,192,86120,1,0,0:0:0:0:
36,192,86191,1,0,0:0:0:0:
256,192,86191,1,0,0:0:0:0:
475,192,86191,1,0,0:0:0:0:
182,192,86296,1,0,0:0:0:0:
402,192,86296,1,0,0:0:0:0:
109,192,86402,1,0,0:0:0:0:
329,192,86402,1,0,0:0:0:0:
36,192,86507,1,0,0:0:0:0:
256,192,86507,1,0,0:0:0:0:
109,192,86613,1,0,0:0:0:0:
329,192,86613,1,0,0:0:0:0:
475,192,86613,1,0,0:0:0:0:
182,192,86719,1,0,0:0:0:0:
402,192,86719,1,0,0:0:0:0:
475,192,86824,1,0,0:0:0:0:
256,192,86824,1,0,0:0:0:0:
182,192,86930,1,0,0:0:0:0:
402,192,86930,1,0,0:0:0:0:
109,192,87036,1,0,0:0:0:0:
329,192,87036,1,0,0:0:0:0:
36,192,87036,1,0,0:0:0:0:
182,192,87247,1,0,0:0:0:0:
402,192,87247,1,0,0:0:0:0:
109,192,87353,1,0,0:0:0:0:
475,192,87353,1,0,0:0:0:0:
329,192,87458,1,0,0:0:0:0:
256,192,87458,1,0,0:0:0:0:
36,192,87458,1,0,0:0:0:0:
182,192,87669,1,0,0:0:0:0:
402,192,87669,1,0,0:0:0:0:
109,192,87881,1,0,0:0:0:0:
329,192,87881,1,0,0:0:0:0:
256,192,87881,1,0,0:0:0:0:
182,192,88092,1,0,0:0:0:0:
36,192,88092,1,0,0:0:0:0:
402,192,88198,1,0,0:0:0:0:
475,192,88198,1,0,0:0:0:0:
109,192,88303,1,0,0:0:0:0:
256,192,88303,1,0,0:0:0:0:
329,192,88303,1,0,0:0:0:0:
182,192,88514,1,0,0:0:0:0:
36,192,88514,1,0,0:0:0:0:
475,192,88620,1,0,0:0:0:0:
329,192,88726,1,0,0:0:0:0:
109,192,88726,1,0,0:0:0:0:
256,192,88726,1,0,0:0:0:0:
36,192,88831,1,0,0:0:0:0:
182,192,88937,1,0,0:0:0:0:
329,192,89043,1,0,0:0:0:0:
256,192,89043,1,0,0:0:0:0:
109,192,89043,1,0,0:0:0:0:
109,192,89148,1,0,0:0:0:0:
256,192,89148,1,0,0:0:0:0:
329,192,89148,1,0,0:0:0:0:
402,192,89254,1,0,0:0:0:0:
182,192,89360,1,0,0:0:0:0:
36,192,89360,1,0,0:0:0:0:
475,192,89360,1,0,0:0:0:0:
256,192,89465,1,0,0:0:0:0:
109,192,89571,1,0,0:0:0:0:
36,192,89571,1,0,0:0:0:0:
402,192,89571,1,0,0:0:0:0:
329,192,89571,1,0,0:0:0:0:
475,192,89571,1,0,0:0:0:0:
182,192,89676,1,0,0:0:0:0:
329,192,89782,1,0,0:0:0:0:
402,192,89782,1,0,0:0:0:0:
475,192,89782,1,0,0:0:0:0:
256,192,89888,1,0,0:0:0:0:
329,192,89993,1,0,0:0:0:0:
402,192,89993,1,0,0:0:0:0:
475,192,89993,1,0,0:0:0:0:
109,192,90099,1,0,0:0:0:0:
329,192,90205,1,0,0:0:0:0:
402,192,90205,1,0,0:0:0:0:
475,192,90205,1,0,0:0:0:0:
182,192,90310,1,0,0:0:0:0:
329,192,90416,1,0,0:0:0:0:
402,192,90416,1,0,0:0:0:0:
475,192,90416,1,0,0:0:0:0:
36,192,90416,128,0,90733:0:0:0:0:
329,192,90627,1,0,0:0:0:0:
402,192,90627,1,0,0:0:0:0:
256,192,90627,1,0,0:0:0:0:
109,192,90733,128,0,91050:0:0:0:0:
182,192,90733,1,0,0:0:0:0:
256,192,90838,1,0,0:0:0:0:
402,192,90838,1,0,0:0:0:0:
475,192,90838,1,0,0:0:0:0:
36,192,90944,1,0,0:0:0:0:
329,192,91050,1,0,0:0:0:0:
402,192,91050,1,0,0:0:0:0:
475,192,91050,1,0,0:0:0:0:
256,192,91050,128,0,91261:0:0:0:0:
182,192,91261,1,0,0:0:0:0:
109,192,91261,1,0,0:0:0:0:
36,192,91261,1,0,0:0:0:0:
475,192,91261,128,0,91578:0:0:0:0:
256,192,91472,1,0,0:0:0:0:
109,192,91472,1,0,0:0:0:0:
182,192,91472,1,0,0:0:0:0:
402,192,91578,128,0,91895:0:0:0:0:
329,192,91578,1,0,0:0:0:0:
256,192,91684,1,0,0:0:0:0:
109,192,91684,1,0,0:0:0:0:
36,192,91684,1,0,0:0:0:0:
475,192,91789,1,0,0:0:0:0:
36,192,91895,1,0,0:0:0:0:
109,192,91895,1,0,0:0:0:0:
182,192,91895,1,0,0:0:0:0:
256,192,91895,128,0,92106:0:0:0:0:
36,192,92106,128,0,92423:0:0:0:0:
329,192,92106,1,0,0:0:0:0:
402,192,92106,1,0,0:0:0:0:
475,192,92106,1,0,0:0:0:0:
109,192,92212,1,0,0:0:0:0:
182,192,92317,1,0,0:0:0:0:
402,192,92317,1,0,0:0:0:0:
475,192,92317,1,0,0:0:0:0:
256,192,92423,128,0,92740:0:0:0:0:
329,192,92423,1,0,0:0:0:0:
475,192,92529,1,0,0:0:0:0:
182,192,92529,1,0,0:0:0:0:
109,192,92529,1,0,0:0:0:0:
402,192,92634,1,0,0:0:0:0:
182,192,92740,128,0,92951:0:0:0:0:
36,192,92740,1,0,0:0:0:0:
475,192,92740,1,0,0:0:0:0:
329,192,92740,1,0,0:0:0:0:
36,192,92951,1,0,0:0:0:0:
475,192,92951,1,0,0:0:0:0:
402,192,92951,1,0,0:0:0:0:
329,192,92951,128,0,93057:0:0:0:0:
109,192,93057,128,0,93162:0:0:0:0:
256,192,93057,1,0,0:0:0:0:
36,192,93162,1,0,0:0:0:0:
475,192,93162,1,0,0:0:0:0:
402,192,93162,128,0,93268:0:0:0:0:
329,192,93268,1,0,0:0:0:0:
182,192,93268,128,0,93374:0:0:0:0:
36,192,93374,1,0,0:0:0:0:
402,192,93374,1,0,0:0:0:0:
475,192,93374,128,0,93479:0:0:0:0:
109,192,93479,1,0,0:0:0:0:
256,192,93479,128,0,93585:0:0:0:0:
36,192,93585,1,0,0:0:0:0:
475,192,93585,1,0,0:0:0:0:
182,192,93585,128,0,93691:0:0:0:0:
329,192,93691,1,0,0:0:0:0:
402,192,93691,128,0,93796:0:0:0:0:
475,192,93796,1,0,0:0:0:0:
36,192,93796,1,0,0:0:0:0:
109,192,93796,128,0,93902:0:0:0:0:
182,192,93902,1,0,0:0:0:0:
329,192,93902,128,0,94007:0:0:0:0:
475,192,94007,1,0,0:0:0:0:
109,192,94007,1,0,0:0:0:0:
36,192,94007,128,0,94113:0:0:0:0:
182,192,94113,1,0,0:0:0:0:
256,192,94113,128,0,94219:0:0:0:0:
475,192,94219,1,0,0:0:0:0:
36,192,94219,1,0,0:0:0:0:
329,192,94219,128,0,94324:0:0:0:0:
256,192,94324,1,0,0:0:0:0:
109,192,94324,128,0,94430:0:0:0:0:
475,192,94430,1,0,0:0:0:0:
36,192,94430,1,0,0:0:0:0:
402,192,94430,128,0,94536:0:0:0:0:
329,192,94536,1,0,0:0:0:0:
182,192,94536,128,0,94641:0:0:0:0:
109,192,94641,1,0,0:0:0:0:
36,192,94641,1,0,0:0:0:0:
256,192,94641,1,0,0:0:0:0:
402,192,94641,1,0,0:0:0:0:
475,192,94641,128,0,94694:0:0:0:0:
475,192,94747,128,0,94800:0:0:0:0:
36,192,94853,128,0,94905:0:0:0:0:
36,192,94958,128,0,95011:0:0:0:0:
475,192,95064,128,0,95117:0:0:0:0:
475,192,95169,128,0,95222:0:0:0:0:
36,192,95275,128,0,95328:0:0:0:0:
36,192,95381,128,0,95434:0:0:0:0:
475,192,95486,128,0,95539:0:0:0:0:
475,192,95592,128,0,95645:0:0:0:0:
36,192,95698,128,0,95750:0:0:0:0:
36,192,95803,128,0,95856:0:0:0:0:
475,192,95909,1,0,0:0:0:0:
402,192,95944,1,0,0:0:0:0:
329,192,95979,1,0,0:0:0:0:
182,192,96014,1,0,0:0:0:0:
109,192,96050,1,0,0:0:0:0:
36,192,96085,1,0,0:0:0:0:
475,192,96120,1,0,0:0:0:0:
329,192,96155,1,0,0:0:0:0:
182,192,96191,1,0,0:0:0:0:
109,192,96331,1,0,0:0:0:0:
36,192,96331,1,0,0:0:0:0:
256,192,96331,1,0,0:0:0:0:
402,192,96331,1,0,0:0:0:0:
475,192,96331,128,0,96543:0:0:0:0:
329,192,96437,128,0,96543:0:0:0:0:
182,192,96543,128,0,96754:0:0:0:0:
36,192,96648,128,0,96754:0:0:0:0:
109,192,96754,1,0,0:0:0:0:
256,192,96754,1,0,0:0:0:0:
329,192,96754,128,0,96965:0:0:0:0:
402,192,96754,1,0,0:0:0:0:
475,192,96860,128,0,96965:0:0:0:0:
36,192,96965,128,0,97176:0:0:0:0:
182,192,97071,128,0,97176:0:0:0:0:
256,192,97176,128,0,97388:0:0:0:0:
402,192,97176,128,0,97388:0:0:0:0:
109,192,97176,128,0,97388:0:0:0:0:
329,192,97388,1,0,0:0:0:0:
36,192,97388,1,0,0:0:0:0:
182,192,97493,128,0,97705:0:0:0:0:
256,192,97493,128,0,97705:0:0:0:0:
402,192,97493,128,0,97705:0:0:0:0:
36,192,97599,1,0,0:0:0:0:
109,192,97599,1,0,0:0:0:0:
475,192,97599,1,0,0:0:0:0:
329,192,97599,1,0,0:0:0:0:
329,192,97810,1,0,0:0:0:0:
475,192,97810,1,0,0:0:0:0:
182,192,97810,1,0,0:0:0:0:
256,192,97916,1,0,0:0:0:0:
402,192,98022,1,0,0:0:0:0:
475,192,98022,1,0,0:0:0:0:
109,192,98022,1,0,0:0:0:0:
36,192,98022,128,0,98233:0:0:0:0:
182,192,98127,128,0,98233:0:0:0:0:
329,192,98233,128,0,98444:0:0:0:0:
475,192,98338,128,0,98444:0:0:0:0:
402,192,98444,1,0,0:0:0:0:
256,192,98444,1,0,0:0:0:0:
182,192,98444,128,0,98655:0:0:0:0:
109,192,98444,1,0,0:0:0:0:
36,192,98550,128,0,98655:0:0:0:0:
475,192,98655,128,0,98867:0:0:0:0:
329,192,98761,128,0,98867:0:0:0:0:
256,192,98867,128,0,99078:0:0:0:0:
109,192,98867,128,0,99078:0:0:0:0:
402,192,98867,128,0,99078:0:0:0:0:
182,192,99078,1,0,0:0:0:0:
256,192,99184,128,0,99395:0:0:0:0:
329,192,99184,128,0,99395:0:0:0:0:
109,192,99184,128,0,99395:0:0:0:0:
182,192,99289,1,0,0:0:0:0:
402,192,99289,1,0,0:0:0:0:
36,192,99289,1,0,0:0:0:0:
475,192,99289,1,0,0:0:0:0:
182,192,99500,1,0,0:0:0:0:
475,192,99500,1,0,0:0:0:0:
36,192,99500,1,0,0:0:0:0:
402,192,99606,1,0,0:0:0:0:
256,192,99712,1,0,0:0:0:0:
109,192,99712,1,0,0:0:0:0:
329,192,99712,1,0,0:0:0:0:
182,192,99817,1,0,0:0:0:0:
36,192,99817,1,0,0:0:0:0:
109,192,99923,1,0,0:0:0:0:
256,192,99923,1,0,0:0:0:0:
182,192,100029,1,0,0:0:0:0:
329,192,100029,1,0,0:0:0:0:
36,192,100134,1,0,0:0:0:0:
256,192,100134,1,0,0:0:0:0:
402,192,100134,1,0,0:0:0:0:
475,192,100134,1,0,0:0:0:0:
109,192,100240,1,0,0:0:0:0:
329,192,100240,1,0,0:0:0:0:
182,192,100345,1,0,0:0:0:0:
402,192,100345,1,0,0:0:0:0:
329,192,100451,1,0,0:0:0:0:
109,192,100451,1,0,0:0:0:0:
256,192,100557,128,0,100768:0:0:0:0:
402,192,100557,128,0,100768:0:0:0:0:
475,192,100557,128,0,100768:0:0:0:0:
36,192,100662,1,0,0:0:0:0:
109,192,100768,1,0,0:0:0:0:
182,192,100874,128,0,101085:0:0:0:0:
329,192,100874,128,0,101085:0:0:0:0:
402,192,100874,128,0,101085:0:0:0:0:
109,192,100979,1,0,0:0:0:0:
36,192,100979,1,0,0:0:0:0:
475,192,100979,1,0,0:0:0:0:
256,192,100979,1,0,0:0:0:0:
256,192,101191,128,0,101402:0:0:0:0:
329,192,101191,128,0,101402:0:0:0:0:
109,192,101191,128,0,101402:0:0:0:0:
475,192,101191,1,0,0:0:0:0:
182,192,101296,1,0,0:0:0:0:
402,192,101402,1,0,0:0:0:0:
475,192,101402,1,0,0:0:0:0:
36,192,101402,128,0,101719:0:0:0:0:
256,192,101507,1,0,0:0:0:0:
329,192,101613,1,0,0:0:0:0:
109,192,101613,1,0,0:0:0:0:
182,192,101719,128,0,102036:0:0:0:0:
402,192,101719,1,0,0:0:0:0:
256,192,101824,1,0,0:0:0:0:
329,192,101824,1,0,0:0:0:0:
475,192,101824,1,0,0:0:0:0:
36,192,101824,1,0,0:0:0:0:
109,192,101930,1,0,0:0:0:0:
329,192,102036,128,0,102247:0:0:0:0:
402,192,102036,1,0,0:0:0:0:
256,192,102036,1,0,0:0:0:0:
182,192,102141,1,0,0:0:0:0:
475,192,102247,128,0,102564:0:0:0:0:
109,192,102247,1,0,0:0:0:0:
36,192,102247,1,0,0:0:0:0:
256,192,102353,1,0,0:0:0:0:
329,192,102458,1,0,0:0:0:0:
256,192,102564,128,0,102775:0:0:0:0:
182,192,102564,1,0,0:0:0:0:
109,192,102564,1,0,0:0:0:0:
329,192,102669,1,0,0:0:0:0:
402,192,102669,1,0,0:0:0:0:
475,192,102669,1,0,0:0:0:0:
36,192,102669,1,0,0:0:0:0:
109,192,102775,1,0,0:0:0:0:
256,192,102881,1,0,0:0:0:0:
182,192,102881,128,0,102986:0:0:0:0:
402,192,102986,1,0,0:0:0:0:
329,192,102986,128,0,103092:0:0:0:0:
182,192,103092,1,0,0:0:0:0:
109,192,103092,1,0,0:0:0:0:
36,192,103092,1,0,0:0:0:0:
256,192,103092,1,0,0:0:0:0:
475,192,103092,128,0,103726:0:0:0:0:
402,192,103198,1,0,0:0:0:0:
329,192,103303,1,0,0:0:0:0:
182,192,103303,1,0,0:0:0:0:
109,192,103409,1,0,0:0:0:0:
36,192,103514,1,0,0:0:0:0:
256,192,103514,1,0,0:0:0:0:
329,192,103514,1,0,0:0:0:0:
402,192,103514,1,0,0:0:0:0:
109,192,103620,1,0,0:0:0:0:
182,192,103726,128,0,103831:0:0:0:0:
256,192,103726,1,0,0:0:0:0:
329,192,103831,128,0,103937:0:0:0:0:
402,192,103831,1,0,0:0:0:0:
475,192,103937,128,0,104254:0:0:0:0:
109,192,103937,1,0,0:0:0:0:
36,192,103937,1,0,0:0:0:0:
182,192,104043,1,0,0:0:0:0:
256,192,104148,1,0,0:0:0:0:
402,192,104148,1,0,0:0:0:0:
36,192,104254,128,0,104571:0:0:0:0:
182,192,104254,1,0,0:0:0:0:
109,192,104360,1,0,0:0:0:0:
256,192,104360,1,0,0:0:0:0:
329,192,104360,1,0,0:0:0:0:
475,192,104360,1,0,0:0:0:0:
402,192,104465,1,0,0:0:0:0:
256,192,104571,128,0,104782:0:0:0:0:
182,192,104571,1,0,0:0:0:0:
475,192,104571,1,0,0:0:0:0:
109,192,104676,1,0,0:0:0:0:
36,192,104782,1,0,0:0:0:0:
329,192,104782,1,0,0:0:0:0:
475,192,104782,1,0,0:0:0:0:
182,192,104782,128,0,105205:0:0:0:0:
256,192,104888,1,0,0:0:0:0:
109,192,104993,1,0,0:0:0:0:
402,192,104993,1,0,0:0:0:0:
256,192,105099,1,0,0:0:0:0:
402,192,105205,128,0,105627:0:0:0:0:
109,192,105205,1,0,0:0:0:0:
36,192,105205,1,0,0:0:0:0:
475,192,105205,1,0,0:0:0:0:
182,192,105310,1,0,0:0:0:0:
329,192,105416,1,0,0:0:0:0:
256,192,105416,1,0,0:0:0:0:
182,192,105522,1,0,0:0:0:0:
329,192,105627,1,0,0:0:0:0:
475,192,105627,1,0,0:0:0:0:
109,192,105627,128,0,106050:0:0:0:0:
36,192,105654,128,0,105733:0:0:0:0:
256,192,105733,1,0,0:0:0:0:
182,192,105838,1,0,0:0:0:0:
329,192,105838,1,0,0:0:0:0:
256,192,105944,1,0,0:0:0:0:
329,192,106050,128,0,106472:0:0:0:0:
36,192,106050,1,0,0:0:0:0:
402,192,106050,1,0,0:0:0:0:
475,192,106050,1,0,0:0:0:0:
109,192,106155,1,0,0:0:0:0:
182,192,106261,1,0,0:0:0:0:
402,192,106261,1,0,0:0:0:0:
256,192,106367,1,0,0:0:0:0:
402,192,106472,128,0,107106:0:0:0:0:
109,192,106472,1,0,0:0:0:0:
36,192,106472,1,0,0:0:0:0:
475,192,106499,128,0,106578:0:0:0:0:
256,192,106578,1,0,0:0:0:0:
329,192,106684,1,0,0:0:0:0:
182,192,106684,1,0,0:0:0:0:
256,192,106789,1,0,0:0:0:0:
182,192,106895,1,0,0:0:0:0:
475,192,106895,1,0,0:0:0:0:
109,192,106895,1,0,0:0:0:0:
36,192,106895,1,0,0:0:0:0:
329,192,107000,1,0,0:0:0:0:
475,192,107106,128,0,107212:0:0:0:0:
256,192,107106,1,0,0:0:0:0:
36,192,107106,1,0,0:0:0:0:
109,192,107212,1,0,0:0:0:0:
475,192,107317,128,0,108162:0:0:0:0:
36,192,107317,128,0,107423:0:0:0:0:
182,192,107317,128,0,107423:0:0:0:0:
256,192,107317,128,0,107423:0:0:0:0:
329,192,107423,1,0,0:0:0:0:
402,192,107529,1,0,0:0:0:0:
182,192,107529,1,0,0:0:0:0:
109,192,107634,128,0,107740:0:0:0:0:
256,192,107634,128,0,107740:0:0:0:0:
329,192,107634,128,0,107740:0:0:0:0:
36,192,107740,1,0,0:0:0:0:
182,192,107740,1,0,0:0:0:0:
402,192,107740,1,0,0:0:0:0:
109,192,107845,1,0,0:0:0:0:
182,192,107951,128,0,108057:0:0:0:0:
329,192,107951,128,0,108057:0:0:0:0:
402,192,107951,128,0,108057:0:0:0:0:
36,192,108057,1,0,0:0:0:0:
109,192,108162,128,0,108796:0:0:0:0:
182,192,108162,1,0,0:0:0:0:
329,192,108162,1,0,0:0:0:0:
402,192,108268,1,0,0:0:0:0:
256,192,108374,1,0,0:0:0:0:
475,192,108374,1,0,0:0:0:0:
36,192,108374,1,0,0:0:0:0:
182,192,108479,1,0,0:0:0:0:
36,192,108585,1,0,0:0:0:0:
329,192,108585,1,0,0:0:0:0:
256,192,108585,1,0,0:0:0:0:
182,192,108691,1,0,0:0:0:0:
402,192,108691,1,0,0:0:0:0:
475,192,108691,1,0,0:0:0:0:
329,192,108796,128,0,108902:0:0:0:0:
36,192,108796,1,0,0:0:0:0:
256,192,108902,128,0,109007:0:0:0:0:
109,192,108902,1,0,0:0:0:0:
182,192,109007,128,0,109113:0:0:0:0:
475,192,109007,1,0,0:0:0:0:
402,192,109007,1,0,0:0:0:0:
109,192,109113,128,0,109219:0:0:0:0:
329,192,109113,1,0,0:0:0:0:
36,192,109219,128,0,109324:0:0:0:0:
402,192,109219,1,0,0:0:0:0:
475,192,109324,128,0,109430:0:0:0:0:
256,192,109324,1,0,0:0:0:0:
182,192,109324,1,0,0:0:0:0:
109,192,109430,1,0,0:0:0:0:
36,192,109430,1,0,0:0:0:0:
329,192,109430,1,0,0:0:0:0:
109,192,109641,1,0,0:0:0:0:
256,192,109641,1,0,0:0:0:0:
402,192,109641,1,0,0:0:0:0:
182,192,109747,1,0,0:0:0:0:
329,192,109853,1,0,0:0:0:0:
475,192,109853,1,0,0:0:0:0:
256,192,109853,1,0,0:0:0:0:
402,192,109853,1,0,0:0:0:0:
36,192,109853,128,0,110064:0:0:0:0:
109,192,109958,1,0,0:0:0:0:
182,192,110064,128,0,110275:0:0:0:0:
329,192,110064,1,0,0:0:0:0:
402,192,110169,1,0,0:0:0:0:
329,192,110275,128,0,110486:0:0:0:0:
256,192,110275,1,0,0:0:0:0:
475,192,110275,1,0,0:0:0:0:
36,192,110275,1,0,0:0:0:0:
182,192,110381,1,0,0:0:0:0:
475,192,110486,128,0,111120:0:0:0:0:
109,192,110486,1,0,0:0:0:0:
256,192,110592,1,0,0:0:0:0:
402,192,110698,1,0,0:0:0:0:
182,192,110698,1,0,0:0:0:0:
36,192,110698,1,0,0:0:0:0:
329,192,110803,1,0,0:0:0:0:
109,192,110909,128,0,111331:0:0:0:0:
256,192,110909,128,0,111331:0:0:0:0:
402,192,111014,1,0,0:0:0:0:
329,192,111120,1,0,0:0:0:0:
182,192,111120,1,0,0:0:0:0:
36,192,111120,1,0,0:0:0:0:
402,192,111226,1,0,0:0:0:0:
475,192,111331,1,0,0:0:0:0:
36,192,111331,1,0,0:0:0:0:
182,192,111437,1,0,0:0:0:0:
475,192,111543,128,0,111754:0:0:0:0:
402,192,111543,1,0,0:0:0:0:
109,192,111543,128,0,111965:0:0:0:0:
256,192,111648,1,0,0:0:0:0:
329,192,111754,128,0,111965:0:0:0:0:
36,192,111754,1,0,0:0:0:0:
402,192,111860,1,0,0:0:0:0:
182,192,111965,128,0,112176:0:0:0:0:
475,192,111965,128,0,112388:0:0:0:0:
256,192,111965,1,0,0:0:0:0:
36,192,111965,1,0,0:0:0:0:
329,192,112071,1,0,0:0:0:0:
36,192,112176,128,0,112810:0:0:0:0:
402,192,112176,1,0,0:0:0:0:
109,192,112176,1,0,0:0:0:0:
182,192,112282,1,0,0:0:0:0:
329,192,112388,128,0,112810:0:0:0:0:
256,192,112388,1,0,0:0:0:0:
402,192,112388,1,0,0:0:0:0:
109,192,112493,1,0,0:0:0:0:
182,192,112599,1,0,0:0:0:0:
475,192,112599,1,0,0:0:0:0:
402,192,112705,1,0,0:0:0:0:
182,192,112810,128,0,113233:0:0:0:0:
256,192,112810,1,0,0:0:0:0:
109,192,112810,1,0,0:0:0:0:
475,192,112810,1,0,0:0:0:0:
329,192,112916,1,0,0:0:0:0:
109,192,113022,1,0,0:0:0:0:
402,192,113022,1,0,0:0:0:0:
256,192,113127,1,0,0:0:0:0:
36,192,113233,128,0,114078:0:0:0:0:
475,192,113233,1,0,0:0:0:0:
329,192,113233,128,0,113444:0:0:0:0:
109,192,113338,1,0,0:0:0:0:
402,192,113444,1,0,0:0:0:0:
182,192,113444,128,0,113655:0:0:0:0:
256,192,113550,1,0,0:0:0:0:
329,192,113655,1,0,0:0:0:0:
475,192,113655,1,0,0:0:0:0:
402,192,113655,1,0,0:0:0:0:
109,192,113655,128,0,113867:0:0:0:0:
182,192,113761,1,0,0:0:0:0:
475,192,113867,128,0,114078:0:0:0:0:
256,192,113972,1,0,0:0:0:0:
402,192,114078,1,0,0:0:0:0:
329,192,114078,1,0,0:0:0:0:
182,192,114078,128,0,114289:0:0:0:0:
109,192,114184,1,0,0:0:0:0:
256,192,114289,1,0,0:0:0:0:
475,192,114289,1,0,0:0:0:0:
182,192,114395,128,0,114712:0:0:0:0:
36,192,114395,1,0,0:0:0:0:
109,192,114500,1,0,0:0:0:0:
402,192,114500,1,0,0:0:0:0:
329,192,114500,1,0,0:0:0:0:
475,192,114500,1,0,0:0:0:0:
256,192,114606,1,0,0:0:0:0:
475,192,114712,128,0,114817:0:0:0:0:
36,192,114712,1,0,0:0:0:0:
402,192,114712,1,0,0:0:0:0:
182,192,114817,1,0,0:0:0:0:
475,192,114923,128,0,115557:0:0:0:0:
329,192,114923,1,0,0:0:0:0:
36,192,114923,128,0,115134:0:0:0:0:
109,192,115029,1,0,0:0:0:0:
402,192,115134,1,0,0:0:0:0:
256,192,115134,128,0,115345:0:0:0:0:
329,192,115240,1,0,0:0:0:0:
36,192,115345,1,0,0:0:0:0:
109,192,115345,1,0,0:0:0:0:
182,192,115345,1,0,0:0:0:0:
402,192,115345,128,0,115557:0:0:0:0:
256,192,115451,1,0,0:0:0:0:
329,192,115557,1,0,0:0:0:0:
182,192,115557,128,0,116191:0:0:0:0:
109,192,115557,128,0,115768:0:0:0:0:
402,192,115662,1,0,0:0:0:0:
475,192,115768,1,0,0:0:0:0:
256,192,115768,1,0,0:0:0:0:
36,192,115768,1,0,0:0:0:0:
109,192,115874,1,0,0:0:0:0:
36,192,115979,1,0,0:0:0:0:
402,192,115979,1,0,0:0:0:0:
256,192,116085,1,0,0:0:0:0:
329,192,116191,128,0,116613:0:0:0:0:
109,192,116191,1,0,0:0:0:0:
36,192,116191,1,0,0:0:0:0:
475,192,116191,1,0,0:0:0:0:
256,192,116296,1,0,0:0:0:0:
182,192,116402,1,0,0:0:0:0:
402,192,116402,1,0,0:0:0:0:
256,192,116507,1,0,0:0:0:0:
182,192,116613,1,0,0:0:0:0:
109,192,116613,1,0,0:0:0:0:
36,192,116613,1,0,0:0:0:0:
402,192,116613,1,0,0:0:0:0:
475,192,116613,1,0,0:0:0:0:
329,192,116719,1,0,0:0:0:0:
256,192,116824,1,0,0:0:0:0:
182,192,116930,1,0,0:0:0:0:
256,192,117036,1,0,0:0:0:0:
36,192,117036,1,0,0:0:0:0:
109,192,117141,1,0,0:0:0:0:
182,192,117247,1,0,0:0:0:0:
256,192,117353,1,0,0:0:0:0:
182,192,117458,1,0,0:0:0:0:
475,192,117458,1,0,0:0:0:0:
402,192,117564,1,0,0:0:0:0:
329,192,117669,1,0,0:0:0:0:
36,192,117669,1,0,0:0:0:0:
402,192,117775,1,0,0:0:0:0:
36,192,117881,1,0,0:0:0:0:
329,192,117881,1,0,0:0:0:0:
475,192,117986,1,0,0:0:0:0:
402,192,118092,1,0,0:0:0:0:
329,192,118198,1,0,0:0:0:0:
182,192,118303,1,0,0:0:0:0:
36,192,118303,1,0,0:0:0:0:
475,192,118303,1,0,0:0:0:0:
109,192,118409,1,0,0:0:0:0:
329,192,118409,1,0,0:0:0:0:
256,192,118514,1,0,0:0:0:0:
475,192,118514,1,0,0:0:0:0:
109,192,118620,1,0,0:0:0:0:
329,192,118620,1,0,0:0:0:0:
182,192,118726,1,0,0:0:0:0:
402,192,118726,1,0,0:0:0:0:
36,192,118831,1,0,0:0:0:0:
256,192,118831,1,0,0:0:0:0:
109,192,118937,1,0,0:0:0:0:
329,192,118937,1,0,0:0:0:0:
36,192,119043,1,0,0:0:0:0:
256,192,119043,1,0,0:0:0:0:
182,192,119148,1,0,0:0:0:0:
402,192,119148,1,0,0:0:0:0:
475,192,119148,1,0,0:0:0:0:
329,192,119254,1,0,0:0:0:0:
256,192,119360,1,0,0:0:0:0:
182,192,119465,1,0,0:0:0:0:
36,192,119465,1,0,0:0:0:0:
402,192,119465,1,0,0:0:0:0:
329,192,119571,1,0,0:0:0:0:
256,192,119676,1,0,0:0:0:0:
182,192,119782,1,0,0:0:0:0:
402,192,119782,1,0,0:0:0:0:
36,192,119835,1,0,0:0:0:0:
475,192,119888,1,0,0:0:0:0:
256,192,119941,1,0,0:0:0:0:
109,192,119993,1,0,0:0:0:0:
329,192,119993,1,0,0:0:0:0:
36,192,119993,1,0,0:0:0:0:
402,192,119993,128,0,120205:0:0:0:0:
182,192,119993,128,0,120416:0:0:0:0:
475,192,120099,128,0,120205:0:0:0:0:
329,192,120205,128,0,120416:0:0:0:0:
402,192,120310,128,0,120416:0:0:0:0:
256,192,120416,128,0,120627:0:0:0:0:
36,192,120416,128,0,120838:0:0:0:0:
109,192,120416,1,0,0:0:0:0:
475,192,120416,1,0,0:0:0:0:
329,192,120522,128,0,120627:0:0:0:0:
182,192,120627,128,0,120838:0:0:0:0:
256,192,120733,128,0,120838:0:0:0:0:
109,192,120838,128,0,121050:0:0:0:0:
329,192,120838,128,0,121261:0:0:0:0:
402,192,120838,1,0,0:0:0:0:
475,192,120838,1,0,0:0:0:0:
36,192,120944,128,0,121050:0:0:0:0:
182,192,121050,128,0,121261:0:0:0:0:
109,192,121155,128,0,121261:0:0:0:0:
256,192,121261,128,0,121472:0:0:0:0:
475,192,121261,128,0,121684:0:0:0:0:
36,192,121261,1,0,0:0:0:0:
402,192,121261,1,0,0:0:0:0:
182,192,121367,128,0,121472:0:0:0:0:
329,192,121472,128,0,121684:0:0:0:0:
256,192,121578,128,0,121684:0:0:0:0:
402,192,121684,128,0,121895:0:0:0:0:
182,192,121684,128,0,122106:0:0:0:0:
109,192,121684,1,0,0:0:0:0:
36,192,121684,1,0,0:0:0:0:
475,192,121789,128,0,121895:0:0:0:0:
329,192,121895,128,0,122106:0:0:0:0:
402,192,122000,128,0,122106:0:0:0:0:
256,192,122106,128,0,122317:0:0:0:0:
36,192,122106,128,0,122529:0:0:0:0:
475,192,122106,1,0,0:0:0:0:
109,192,122106,1,0,0:0:0:0:
329,192,122212,128,0,122317:0:0:0:0:
182,192,122317,128,0,122529:0:0:0:0:
256,192,122423,128,0,122529:0:0:0:0:
109,192,122529,128,0,122740:0:0:0:0:
329,192,122529,128,0,122951:0:0:0:0:
402,192,122529,1,0,0:0:0:0:
475,192,122529,1,0,0:0:0:0:
36,192,122634,128,0,122740:0:0:0:0:
182,192,122740,128,0,122951:0:0:0:0:
109,192,122845,128,0,122951:0:0:0:0:
256,192,122951,128,0,123162:0:0:0:0:
475,192,122951,128,0,123374:0:0:0:0:
36,192,122951,1,0,0:0:0:0:
402,192,122951,1,0,0:0:0:0:
182,192,123057,128,0,123162:0:0:0:0:
329,192,123162,128,0,123374:0:0:0:0:
256,192,123268,128,0,123374:0:0:0:0:
402,192,123374,128,0,123585:0:0:0:0:
182,192,123374,128,0,123796:0:0:0:0:
109,192,123374,1,0,0:0:0:0:
36,192,123374,1,0,0:0:0:0:
475,192,123479,128,0,123585:0:0:0:0:
329,192,123585,128,0,123796:0:0:0:0:
402,192,123691,128,0,123796:0:0:0:0:
256,192,123796,128,0,124007:0:0:0:0:
36,192,123796,128,0,124219:0:0:0:0:
109,192,123796,1,0,0:0:0:0:
475,192,123796,1,0,0:0:0:0:
329,192,123902,128,0,124007:0:0:0:0:
182,192,124007,128,0,124219:0:0:0:0:
256,192,124113,128,0,124219:0:0:0:0:
109,192,124219,128,0,124430:0:0:0:0:
329,192,124219,128,0,124641:0:0:0:0:
402,192,124219,1,0,0:0:0:0:
475,192,124219,1,0,0:0:0:0:
36,192,124324,128,0,124430:0:0:0:0:
182,192,124430,128,0,124641:0:0:0:0:
109,192,124536,128,0,124641:0:0:0:0:
256,192,124641,128,0,124853:0:0:0:0:
475,192,124641,128,0,125064:0:0:0:0:
36,192,124641,1,0,0:0:0:0:
402,192,124641,1,0,0:0:0:0:
182,192,124747,128,0,124853:0:0:0:0:
329,192,124853,128,0,125064:0:0:0:0:
256,192,124958,128,0,125064:0:0:0:0:
402,192,125064,128,0,125275:0:0:0:0:
182,192,125064,128,0,125486:0:0:0:0:
109,192,125064,1,0,0:0:0:0:
36,192,125064,1,0,0:0:0:0:
475,192,125169,128,0,125275:0:0:0:0:
329,192,125275,128,0,125486:0:0:0:0:
402,192,125381,128,0,125486:0:0:0:0:
256,192,125486,128,0,125698:0:0:0:0:
36,192,125486,128,0,125909:0:0:0:0:
109,192,125486,1,0,0:0:0:0:
475,192,125486,1,0,0:0:0:0:
329,192,125592,128,0,125698:0:0:0:0:
182,192,125698,128,0,125909:0:0:0:0:
256,192,125803,128,0,125909:0:0:0:0:
109,192,125909,128,0,126120:0:0:0:0:
329,192,125909,128,0,126331:0:0:0:0:
402,192,125909,1,0,0:0:0:0:
475,192,125909,1,0,0:0:0:0:
36,192,126014,128,0,126120:0:0:0:0:
182,192,126120,128,0,126331:0:0:0:0:
109,192,126226,128,0,126331:0:0:0:0:
402,192,126226,1,0,0:0:0:0:
475,192,126226,1,0,0:0:0:0:
256,192,126331,128,0,126543:0:0:0:0:
402,192,126331,1,0,0:0:0:0:
475,192,126331,128,0,126648:0:0:0:0:
182,192,126437,128,0,126543:0:0:0:0:
329,192,126543,128,0,126754:0:0:0:0:
109,192,126543,1,0,0:0:0:0:
36,192,126543,1,0,0:0:0:0:
256,192,126648,128,0,126754:0:0:0:0:
402,192,126754,128,0,126965:0:0:0:0:
36,192,126754,128,0,126860:0:0:0:0:
182,192,126754,128,0,126860:0:0:0:0:
109,192,126754,1,0,0:0:0:0:
475,192,126860,128,0,126965:0:0:0:0:
329,192,126965,128,0,127176:0:0:0:0:
36,192,126965,128,0,127071:0:0:0:0:
182,192,126965,128,0,127071:0:0:0:0:
402,192,127071,128,0,127176:0:0:0:0:
256,192,127176,128,0,127388:0:0:0:0:
36,192,127176,128,0,127282:0:0:0:0:
109,192,127176,128,0,127282:0:0:0:0:
329,192,127282,128,0,127388:0:0:0:0:
182,192,127388,128,0,127599:0:0:0:0:
402,192,127388,128,0,127493:0:0:0:0:
475,192,127388,128,0,127493:0:0:0:0:
256,192,127493,128,0,127599:0:0:0:0:
109,192,127599,128,0,127810:0:0:0:0:
329,192,127599,128,0,127705:0:0:0:0:
475,192,127599,128,0,127705:0:0:0:0:
36,192,127705,128,0,127810:0:0:0:0:
182,192,127810,128,0,128022:0:0:0:0:
329,192,127810,128,0,127916:0:0:0:0:
475,192,127810,128,0,127916:0:0:0:0:
109,192,127916,128,0,128022:0:0:0:0:
256,192,128022,128,0,128233:0:0:0:0:
402,192,128022,128,0,128127:0:0:0:0:
475,192,128022,128,0,128127:0:0:0:0:
182,192,128127,128,0,128233:0:0:0:0:
329,192,128233,128,0,128444:0:0:0:0:
109,192,128233,128,0,128338:0:0:0:0:
36,192,128233,128,0,128338:0:0:0:0:
256,192,128338,128,0,128444:0:0:0:0:
402,192,128444,128,0,128655:0:0:0:0:
36,192,128444,128,0,128550:0:0:0:0:
182,192,128444,128,0,128550:0:0:0:0:
475,192,128550,128,0,128655:0:0:0:0:
329,192,128655,128,0,128867:0:0:0:0:
36,192,128655,128,0,128761:0:0:0:0:
182,192,128655,128,0,128761:0:0:0:0:
402,192,128761,128,0,128867:0:0:0:0:
256,192,128867,128,0,129078:0:0:0:0:
109,192,128867,128,0,128972:0:0:0:0:
36,192,128867,128,0,128972:0:0:0:0:
329,192,128972,128,0,129078:0:0:0:0:
182,192,129078,128,0,129289:0:0:0:0:
402,192,129078,128,0,129184:0:0:0:0:
475,192,129078,128,0,129184:0:0:0:0:
256,192,129184,128,0,129289:0:0:0:0:
109,192,129289,128,0,129500:0:0:0:0:
329,192,129289,128,0,129395:0:0:0:0:
475,192,129289,128,0,129395:0:0:0:0:
36,192,129395,128,0,129500:0:0:0:0:
182,192,129500,128,0,129712:0:0:0:0:
329,192,129500,128,0,129606:0:0:0:0:
475,192,129500,128,0,129606:0:0:0:0:
109,192,129606,128,0,129712:0:0:0:0:
256,192,129712,128,0,129923:0:0:0:0:
402,192,129712,128,0,129817:0:0:0:0:
475,192,129712,128,0,129817:0:0:0:0:
182,192,129817,128,0,129923:0:0:0:0:
329,192,129923,128,0,130134:0:0:0:0:
109,192,129923,128,0,130029:0:0:0:0:
36,192,129923,128,0,130029:0:0:0:0:
256,192,130029,128,0,130134:0:0:0:0:
402,192,130134,128,0,130345:0:0:0:0:
36,192,130134,128,0,130240:0:0:0:0:
109,192,130134,128,0,130240:0:0:0:0:
475,192,130240,128,0,130345:0:0:0:0:
182,192,130240,128,0,130345:0:0:0:0:
329,192,130345,128,0,130557:0:0:0:0:
109,192,130345,128,0,130451:0:0:0:0:
256,192,130345,128,0,130451:0:0:0:0:
402,192,130451,128,0,130557:0:0:0:0:
36,192,130451,128,0,130557:0:0:0:0:
256,192,130557,128,0,130768:0:0:0:0:
109,192,130557,128,0,130662:0:0:0:0:
182,192,130557,128,0,130662:0:0:0:0:
329,192,130662,128,0,130768:0:0:0:0:
36,192,130662,128,0,130768:0:0:0:0:
182,192,130768,128,0,130979:0:0:0:0:
475,192,130768,128,0,130874:0:0:0:0:
402,192,130768,128,0,130874:0:0:0:0:
256,192,130874,128,0,130979:0:0:0:0:
329,192,130874,128,0,130979:0:0:0:0:
109,192,130979,128,0,131191:0:0:0:0:
402,192,130979,128,0,131085:0:0:0:0:
475,192,130979,128,0,131085:0:0:0:0:
36,192,131085,128,0,131191:0:0:0:0:
256,192,131085,128,0,131191:0:0:0:0:
182,192,131191,128,0,131402:0:0:0:0:
329,192,131191,128,0,131296:0:0:0:0:
402,192,131191,128,0,131296:0:0:0:0:
109,192,131296,128,0,131402:0:0:0:0:
475,192,131296,128,0,131402:0:0:0:0:
256,192,131402,128,0,131613:0:0:0:0:
329,192,131402,128,0,131507:0:0:0:0:
402,192,131402,128,0,131507:0:0:0:0:
182,192,131507,128,0,131613:0:0:0:0:
36,192,131507,128,0,131613:0:0:0:0:
329,192,131613,128,0,131824:0:0:0:0:
402,192,131613,128,0,131719:0:0:0:0:
475,192,131613,128,0,131719:0:0:0:0:
256,192,131719,128,0,131824:0:0:0:0:
109,192,131719,128,0,131824:0:0:0:0:
182,192,131824,1,0,0:0:0:0:
402,192,131824,1,0,0:0:0:0:
475,192,131824,128,0,132353:0:0:0:0:
36,192,131930,128,0,132564:0:0:0:0:
109,192,132036,128,0,132775:0:0:0:0:
182,192,132141,128,0,132986:0:0:0:0:
256,192,132247,128,0,133303:0:0:0:0:
329,192,132353,128,0,132669:0:0:0:0:
402,192,132458,128,0,132881:0:0:0:0:
475,192,132564,128,0,133092:0:0:0:0:
36,192,132669,1,0,0:0:0:0:
329,192,132775,1,0,0:0:0:0:
109,192,132881,1,0,0:0:0:0:
402,192,132986,1,0,0:0:0:0:
329,192,132986,1,0,0:0:0:0:
182,192,133092,1,0,0:0:0:0:
109,192,133092,1,0,0:0:0:0:
36,192,133092,1,0,0:0:0:0:
475,192,133198,1,0,0:0:0:0:
329,192,133303,1,0,0:0:0:0:
402,192,133303,1,0,0:0:0:0:
36,192,133303,1,0,0:0:0:0:
109,192,133303,1,0,0:0:0:0:
256,192,133409,128,0,134465:0:0:0:0:
329,192,133514,128,0,135297:0:0:0:0:
36,192,133514,128,0,135218:0:0:0:0:
109,192,133514,128,0,135218:0:0:0:0:
182,192,133514,128,0,134665:0:0:0:0:
402,192,133514,128,0,134735:0:0:0:0:
475,192,133514,128,0,135356:0:0:0:0:
256,192,134544,1,0,0:0:0:0:
182,192,134735,1,0,0:0:0:0:
402,192,134809,1,0,0:0:0:0:
182,192,135218,1,0,0:0:0:0:
256,192,135297,1,0,0:0:0:0:
402,192,135356,1,0,0:0:0:0:
329,192,135522,1,0,0:0:0:0:
182,192,135614,1,0,0:0:0:0:
329,192,135715,1,0,0:0:0:0:
475,192,135812,1,0,0:0:0:0:
36,192,135891,1,0,0:0:0:0:
109,192,135965,1,0,0:0:0:0:
182,192,136023,1,0,0:0:0:0:
329,192,136129,1,0,0:0:0:0:
402,192,136191,1,0,0:0:0:0:
256,192,136261,1,0,0:0:0:0:
109,192,136340,1,0,0:0:0:0:
475,192,136442,1,0,0:0:0:0:
182,192,136578,128,0,136895:0:0:0:0:
