osu file format v14

[General]
AudioFilename: audio.mp3
AudioLeadIn: 0
PreviewTime: 96331
Countdown: 0
SampleSet: Soft
StackLeniency: 0.7
Mode: 3
LetterboxInBreaks: 0
SpecialStyle: 0
WidescreenStoryboard: 1

[Editor]
Bookmarks: 121895,123374
DistanceSpacing: 3.4
BeatDivisor: 4
GridSize: 8
TimelineZoom: 2.300006

[Metadata]
Title:Prayer
TitleUnicode:Prayer
Artist:Kankitsu
ArtistUnicode:Kankitsu
Creator:Kim_GodSSI
Version:Saint
Source:第三回BMS衆議院選
Tags:Wonki KimGodSSI Lime Electronic Instrumental Piano Trance メロディ党♪ Melody Party 祈り 願い BMS_Shuin BMS Shuin dai san kai Shūgiinsen
BeatmapID:3798808
BeatmapSetID:1848177

[Difficulty]
HPDrainRate:8
CircleSize:7
OverallDifficulty:7.5
ApproachRate:5
SliderMultiplier:1.4
SliderTickRate:1

[Events]
//Background and Video events
0,0,"BG.jpg",0,0
//Break Periods
//Storyboard Layer 0 (Background)
//Storyboard Layer 1 (Fail)
//Storyboard Layer 2 (Pass)
//Storyboard Layer 3 (Foreground)
//Storyboard Layer 4 (Overlay)
//Storyboard Sound Samples

[TimingPoints]
1684,422.535211267606,4,2,1,61,1,0
1684,-100,4,2,1,33,0,0
8444,-100,4,2,1,61,0,0
55768,-100,4,2,1,33,0,0
82810,-100,4,2,1,61,0,0

[HitObjects]
475,192,1684,128,0,2529:0:0:0:0:
329,192,1684,128,0,2529:0:0:0:0:
36,192,1684,1,0,0:0:0:0:
402,192,1684,1,0,0:0:0:0:
109,192,1684,128,0,1789:0:0:0:0:
182,192,1895,128,0,2000:0:0:0:0:
256,192,2106,128,0,2212:0:0:0:0:
36,192,2317,128,0,2423:0:0:0:0:
109,192,2423,128,0,2529:0:0:0:0:
182,192,2529,128,0,2845:0:0:0:0:
402,192,2529,128,0,2845:0:0:0:0:
329,192,2845,128,0,3162:0:0:0:0:
475,192,3162,128,0,3374:0:0:0:0:
402,192,3374,128,0,3479:0:0:0:0:
256,192,3374,128,0,3691:0:0:0:0:
109,192,3374,128,0,3691:0:0:0:0:
36,192,3374,1,0,0:0:0:0:
475,192,3585,128,0,3691:0:0:0:0:
182,192,3796,128,0,4113:0:0:0:0:
36,192,3796,128,0,4113:0:0:0:0:
109,192,4201,128,0,4307:0:0:0:0:
402,192,4236,128,0,4536:0:0:0:0:
475,192,4641,128,0,4958:0:0:0:0:
36,192,5064,128,0,5592:0:0:0:0:
182,192,5064,128,0,5592:0:0:0:0:
329,192,5064,128,0,5169:0:0:0:0:
475,192,5064,1,0,0:0:0:0:
402,192,5275,128,0,5381:0:0:0:0:
475,192,5486,128,0,5592:0:0:0:0:
109,192,5698,128,0,6754:0:0:0:0:
329,192,5698,1,0,0:0:0:0:
475,192,5698,1,0,0:0:0:0:
329,192,5909,128,0,6754:0:0:0:0:
475,192,5909,128,0,6754:0:0:0:0:
36,192,6754,128,0,7282:0:0:0:0:
402,192,6754,128,0,6860:0:0:0:0:
182,192,6754,1,0,0:0:0:0:
182,192,6965,128,0,7071:0:0:0:0:
329,192,7176,128,0,7282:0:0:0:0:
475,192,7388,128,0,8338:0:0:0:0:
182,192,7388,128,0,7493:0:0:0:0:
109,192,7493,128,0,7599:0:0:0:0:
329,192,7599,128,0,7810:0:0:0:0:
256,192,7705,128,0,7916:0:0:0:0:
182,192,7810,128,0,8022:0:0:0:0:
109,192,7916,128,0,8127:0:0:0:0:
36,192,8022,128,0,8338:0:0:0:0:
402,192,8022,128,0,8338:0:0:0:0:
329,192,8127,128,0,8338:0:0:0:0:
256,192,8233,128,0,8338:0:0:0:0:
182,192,8338,1,0,0:0:0:0:
256,192,8444,128,0,8550:0:0:0:0:
109,192,8444,128,0,8550:0:0:0:0:
36,192,8444,128,0,8867:0:0:0:0:
402,192,8444,1,0,0:0:0:0:
475,192,8444,1,0,0:0:0:0:
329,192,8550,1,0,0:0:0:0:
402,192,8655,1,0,0:0:0:0:
182,192,8655,1,0,0:0:0:0:
256,192,8761,1,0,0:0:0:0:
109,192,8867,1,0,0:0:0:0:
475,192,8867,1,0,0:0:0:0:
402,192,8867,128,0,9078:0:0:0:0:
256,192,8972,1,0,0:0:0:0:
109,192,9078,128,0,9500:0:0:0:0:
36,192,9078,1,0,0:0:0:0:
475,192,9078,1,0,0:0:0:0:
182,192,9078,1,0,0:0:0:0:
329,192,9184,1,0,0:0:0:0:
402,192,9289,1,0,0:0:0:0:
182,192,9289,1,0,0:0:0:0:
475,192,9289,1,0,0:0:0:0:
256,192,9395,1,0,0:0:0:0:
402,192,9500,1,0,0:0:0:0:
36,192,9500,1,0,0:0:0:0:
475,192,9500,128,0,9606:0:0:0:0:
329,192,9500,128,0,9606:0:0:0:0:
109,192,9606,1,0,0:0:0:0:
475,192,9712,128,0,11402:0:0:0:0:
182,192,9712,1,0,0:0:0:0:
36,192,9712,1,0,0:0:0:0:
329,192,9712,128,0,10029:0:0:0:0:
256,192,9817,1,0,0:0:0:0:
182,192,9923,1,0,0:0:0:0:
109,192,10029,1,0,0:0:0:0:
329,192,10134,1,0,0:0:0:0:
256,192,10240,1,0,0:0:0:0:
36,192,10345,128,0,11402:0:0:0:0:
182,192,10345,1,0,0:0:0:0:
256,192,10451,1,0,0:0:0:0:
109,192,10557,128,0,11402:0:0:0:0:
329,192,10557,1,0,0:0:0:0:
402,192,10662,1,0,0:0:0:0:
182,192,10768,128,0,11402:0:0:0:0:
329,192,10768,1,0,0:0:0:0:
256,192,10874,1,0,0:0:0:0:
329,192,10979,1,0,0:0:0:0:
402,192,11085,1,0,0:0:0:0:
329,192,11191,1,0,0:0:0:0:
256,192,11296,1,0,0:0:0:0:
402,192,11402,1,0,0:0:0:0:
329,192,11507,1,0,0:0:0:0:
109,192,11613,1,0,0:0:0:0:
36,192,11613,1,0,0:0:0:0:
256,192,11613,1,0,0:0:0:0:
475,192,11613,1,0,0:0:0:0:
402,192,11719,1,0,0:0:0:0:
256,192,11824,1,0,0:0:0:0:
36,192,11824,1,0,0:0:0:0:
475,192,11824,128,0,12247:0:0:0:0:
329,192,11824,128,0,11930:0:0:0:0:
182,192,11824,128,0,11930:0:0:0:0:
109,192,11930,1,0,0:0:0:0:
182,192,12036,1,0,0:0:0:0:
402,192,12036,1,0,0:0:0:0:
256,192,12141,1,0,0:0:0:0:
36,192,12247,1,0,0:0:0:0:
329,192,12247,1,0,0:0:0:0:
109,192,12247,128,0,12458:0:0:0:0:
256,192,12353,1,0,0:0:0:0:
402,192,12458,128,0,12775:0:0:0:0:
182,192,12458,1,0,0:0:0:0:
36,192,12458,1,0,0:0:0:0:
475,192,12458,1,0,0:0:0:0:
256,192,12564,1,0,0:0:0:0:
109,192,12669,1,0,0:0:0:0:
329,192,12669,1,0,0:0:0:0:
475,192,12669,1,0,0:0:0:0:
256,192,12775,1,0,0:0:0:0:
36,192,12881,128,0,12986:0:0:0:0:
182,192,12881,128,0,12986:0:0:0:0:
402,192,12881,1,0,0:0:0:0:
475,192,12881,1,0,0:0:0:0:
329,192,12986,1,0,0:0:0:0:
182,192,13092,128,0,13409:0:0:0:0:
36,192,13092,128,0,13409:0:0:0:0:
475,192,13092,1,0,0:0:0:0:
109,192,13092,1,0,0:0:0:0:
256,192,13198,1,0,0:0:0:0:
402,192,13303,1,0,0:0:0:0:
475,192,13303,1,0,0:0:0:0:
329,192,13409,1,0,0:0:0:0:
182,192,13514,1,0,0:0:0:0:
402,192,13514,1,0,0:0:0:0:
475,192,13514,1,0,0:0:0:0:
36,192,13514,1,0,0:0:0:0:
109,192,13620,1,0,0:0:0:0:
256,192,13620,1,0,0:0:0:0:
329,192,13726,1,0,0:0:0:0:
182,192,13726,1,0,0:0:0:0:
402,192,13831,1,0,0:0:0:0:
256,192,13831,1,0,0:0:0:0:
329,192,13937,1,0,0:0:0:0:
182,192,13937,1,0,0:0:0:0:
109,192,14043,1,0,0:0:0:0:
256,192,14043,1,0,0:0:0:0:
329,192,14148,1,0,0:0:0:0:
182,192,14148,1,0,0:0:0:0:
256,192,14254,1,0,0:0:0:0:
402,192,14254,1,0,0:0:0:0:
329,192,14360,1,0,0:0:0:0:
475,192,14360,1,0,0:0:0:0:
36,192,14360,128,0,14888:0:0:0:0:
256,192,14412,1,0,0:0:0:0:
182,192,14465,1,0,0:0:0:0:
402,192,14518,1,0,0:0:0:0:
329,192,14571,1,0,0:0:0:0:
256,192,14624,1,0,0:0:0:0:
182,192,14676,1,0,0:0:0:0:
109,192,14676,1,0,0:0:0:0:
475,192,14676,1,0,0:0:0:0:
402,192,14729,1,0,0:0:0:0:
329,192,14782,1,0,0:0:0:0:
256,192,14835,1,0,0:0:0:0:
475,192,14888,1,0,0:0:0:0:
402,192,14941,1,0,0:0:0:0:
329,192,14993,1,0,0:0:0:0:
182,192,14993,1,0,0:0:0:0:
36,192,14993,1,0,0:0:0:0:
109,192,14993,1,0,0:0:0:0:
36,192,15205,128,0,16789:0:0:0:0:
256,192,15205,128,0,16050:0:0:0:0:
475,192,15205,128,0,16050:0:0:0:0:
109,192,15205,1,0,0:0:0:0:
402,192,15205,1,0,0:0:0:0:
402,192,16050,128,0,16155:0:0:0:0:
182,192,16261,128,0,16367:0:0:0:0:
329,192,16367,128,0,16472:0:0:0:0:
109,192,16578,128,0,16684:0:0:0:0:
256,192,16684,128,0,16789:0:0:0:0:
329,192,16895,128,0,17000:0:0:0:0:
475,192,16895,128,0,18162:0:0:0:0:
182,192,16895,128,0,17000:0:0:0:0:
36,192,16895,128,0,17000:0:0:0:0:
256,192,17106,128,0,17212:0:0:0:0:
402,192,17212,128,0,17317:0:0:0:0:
182,192,17423,128,0,17529:0:0:0:0:
329,192,17529,128,0,17634:0:0:0:0:
256,192,17740,128,0,17845:0:0:0:0:
109,192,17740,128,0,17845:0:0:0:0:
182,192,17951,128,0,18057:0:0:0:0:
36,192,18057,128,0,18162:0:0:0:0:
329,192,18268,128,0,18374:0:0:0:0:
36,192,18374,1,0,0:0:0:0:
109,192,18444,1,0,0:0:0:0:
182,192,18514,1,0,0:0:0:0:
256,192,18585,1,0,0:0:0:0:
36,192,18585,128,0,20169:0:0:0:0:
402,192,18585,1,0,0:0:0:0:
475,192,18585,1,0,0:0:0:0:
329,192,18691,1,0,0:0:0:0:
256,192,18796,1,0,0:0:0:0:
182,192,18902,1,0,0:0:0:0:
109,192,19007,1,0,0:0:0:0:
182,192,19113,1,0,0:0:0:0:
256,192,19219,1,0,0:0:0:0:
109,192,19430,128,0,19536:0:0:0:0:
475,192,19430,128,0,19536:0:0:0:0:
329,192,19430,128,0,19536:0:0:0:0:
256,192,19641,128,0,19747:0:0:0:0:
402,192,19747,128,0,19853:0:0:0:0:
182,192,19958,128,0,20064:0:0:0:0:
329,192,20064,128,0,20169:0:0:0:0:
256,192,20275,128,0,20381:0:0:0:0:
109,192,20275,128,0,20381:0:0:0:0:
475,192,20275,1,0,0:0:0:0:
402,192,20275,1,0,0:0:0:0:
182,192,20486,128,0,20592:0:0:0:0:
329,192,20592,128,0,20698:0:0:0:0:
36,192,20803,128,0,20909:0:0:0:0:
182,192,20909,128,0,21014:0:0:0:0:
475,192,20909,128,0,21014:0:0:0:0:
402,192,21014,128,0,21120:0:0:0:0:
109,192,21120,128,0,21226:0:0:0:0:
36,192,21120,128,0,21226:0:0:0:0:
329,192,21120,128,0,21331:0:0:0:0:
475,192,21120,1,0,0:0:0:0:
256,192,21226,128,0,21437:0:0:0:0:
182,192,21331,128,0,21543:0:0:0:0:
475,192,21331,1,0,0:0:0:0:
36,192,21331,1,0,0:0:0:0:
109,192,21437,128,0,21648:0:0:0:0:
402,192,21437,1,0,0:0:0:0:
475,192,21543,128,0,21860:0:0:0:0:
402,192,21648,128,0,21860:0:0:0:0:
36,192,21648,1,0,0:0:0:0:
256,192,21648,1,0,0:0:0:0:
329,192,21754,128,0,21860:0:0:0:0:
182,192,21754,1,0,0:0:0:0:
109,192,21860,1,0,0:0:0:0:
475,192,21965,128,0,22282:0:0:0:0:
256,192,21965,1,0,0:0:0:0:
36,192,21965,1,0,0:0:0:0:
182,192,21965,128,0,22071:0:0:0:0:
329,192,21965,128,0,22071:0:0:0:0:
402,192,22071,128,0,22176:0:0:0:0:
109,192,22176,128,0,22493:0:0:0:0:
256,192,22176,128,0,22282:0:0:0:0:
36,192,22176,1,0,0:0:0:0:
329,192,22282,128,0,22388:0:0:0:0:
402,192,22388,128,0,22705:0:0:0:0:
182,192,22388,128,0,22493:0:0:0:0:
475,192,22388,1,0,0:0:0:0:
256,192,22493,128,0,22599:0:0:0:0:
36,192,22599,128,0,22705:0:0:0:0:
329,192,22599,1,0,0:0:0:0:
182,192,22705,128,0,22810:0:0:0:0:
475,192,22810,128,0,22916:0:0:0:0:
36,192,22810,128,0,23127:0:0:0:0:
256,192,22810,1,0,0:0:0:0:
402,192,22810,1,0,0:0:0:0:
329,192,22916,128,0,23022:0:0:0:0:
182,192,23022,128,0,23127:0:0:0:0:
109,192,23022,1,0,0:0:0:0:
475,192,23127,128,0,23444:0:0:0:0:
329,192,23127,128,0,23233:0:0:0:0:
256,192,23233,128,0,23338:0:0:0:0:
109,192,23233,1,0,0:0:0:0:
36,192,23233,1,0,0:0:0:0:
182,192,23338,128,0,23444:0:0:0:0:
402,192,23444,128,0,23655:0:0:0:0:
109,192,23444,128,0,23550:0:0:0:0:
256,192,23550,128,0,23655:0:0:0:0:
36,192,23655,128,0,23972:0:0:0:0:
182,192,23655,128,0,23761:0:0:0:0:
109,192,23655,1,0,0:0:0:0:
475,192,23655,1,0,0:0:0:0:
329,192,23761,128,0,23867:0:0:0:0:
402,192,23867,128,0,24184:0:0:0:0:
256,192,23867,128,0,23972:0:0:0:0:
182,192,23972,128,0,24078:0:0:0:0:
109,192,24078,128,0,24395:0:0:0:0:
329,192,24078,1,0,0:0:0:0:
36,192,24078,1,0,0:0:0:0:
256,192,24184,128,0,24289:0:0:0:0:
475,192,24289,128,0,24395:0:0:0:0:
182,192,24289,1,0,0:0:0:0:
329,192,24395,128,0,24500:0:0:0:0:
182,192,24500,128,0,24817:0:0:0:0:
475,192,24500,128,0,24606:0:0:0:0:
36,192,24500,1,0,0:0:0:0:
402,192,24500,1,0,0:0:0:0:
256,192,24606,128,0,24712:0:0:0:0:
36,192,24712,128,0,24817:0:0:0:0:
475,192,24712,1,0,0:0:0:0:
402,192,24817,128,0,25134:0:0:0:0:
329,192,24817,128,0,24923:0:0:0:0:
36,192,24923,1,0,0:0:0:0:
182,192,24923,128,0,25029:0:0:0:0:
109,192,24923,1,0,0:0:0:0:
256,192,25029,128,0,25134:0:0:0:0:
109,192,25134,128,0,25345:0:0:0:0:
475,192,25134,128,0,25240:0:0:0:0:
329,192,25240,128,0,25345:0:0:0:0:
36,192,25345,128,0,25662:0:0:0:0:
256,192,25345,128,0,25451:0:0:0:0:
182,192,25345,1,0,0:0:0:0:
475,192,25345,1,0,0:0:0:0:
402,192,25451,128,0,25557:0:0:0:0:
182,192,25557,128,0,25662:0:0:0:0:
475,192,25557,128,0,25874:0:0:0:0:
109,192,25557,1,0,0:0:0:0:
329,192,25662,128,0,25768:0:0:0:0:
256,192,25768,128,0,26085:0:0:0:0:
109,192,25768,128,0,25874:0:0:0:0:
36,192,25768,1,0,0:0:0:0:
402,192,25874,128,0,25979:0:0:0:0:
36,192,25979,128,0,26191:0:0:0:0:
329,192,25979,1,0,0:0:0:0:
182,192,26085,128,0,26191:0:0:0:0:
402,192,26191,128,0,26507:0:0:0:0:
109,192,26191,128,0,26296:0:0:0:0:
329,192,26191,128,0,26296:0:0:0:0:
475,192,26191,128,0,26296:0:0:0:0:
256,192,26296,128,0,26402:0:0:0:0:
109,192,26402,128,0,26507:0:0:0:0:
475,192,26402,128,0,26507:0:0:0:0:
256,192,26507,128,0,26719:0:0:0:0:
402,192,26613,128,0,26719:0:0:0:0:
36,192,26613,128,0,26719:0:0:0:0:
109,192,26613,128,0,26719:0:0:0:0:
475,192,26613,128,0,26719:0:0:0:0:
329,192,26719,128,0,26824:0:0:0:0:
36,192,26824,128,0,27036:0:0:0:0:
182,192,26824,128,0,26930:0:0:0:0:
402,192,26824,128,0,26930:0:0:0:0:
256,192,26930,128,0,27036:0:0:0:0:
402,192,27036,1,0,0:0:0:0:
475,192,27036,1,0,0:0:0:0:
329,192,27036,128,0,27247:0:0:0:0:
109,192,27036,128,0,27141:0:0:0:0:
182,192,27141,128,0,27247:0:0:0:0:
402,192,27247,128,0,27458:0:0:0:0:
36,192,27247,1,0,0:0:0:0:
256,192,27353,128,0,27458:0:0:0:0:
36,192,27458,128,0,27775:0:0:0:0:
109,192,27458,1,0,0:0:0:0:
329,192,27458,1,0,0:0:0:0:
475,192,27458,128,0,27564:0:0:0:0:
182,192,27564,128,0,27775:0:0:0:0:
329,192,27669,128,0,27775:0:0:0:0:
475,192,27669,1,0,0:0:0:0:
402,192,27775,128,0,27881:0:0:0:0:
475,192,27881,128,0,27986:0:0:0:0:
256,192,27881,128,0,27986:0:0:0:0:
109,192,27881,1,0,0:0:0:0:
36,192,27881,1,0,0:0:0:0:
402,192,27986,128,0,28092:0:0:0:0:
182,192,27986,128,0,28092:0:0:0:0:
329,192,28092,128,0,28198:0:0:0:0:
109,192,28092,128,0,28198:0:0:0:0:
256,192,28198,128,0,28303:0:0:0:0:
182,192,28303,128,0,28409:0:0:0:0:
475,192,28303,128,0,28620:0:0:0:0:
36,192,28303,1,0,0:0:0:0:
402,192,28303,1,0,0:0:0:0:
329,192,28409,128,0,28620:0:0:0:0:
109,192,28409,128,0,28514:0:0:0:0:
256,192,28514,128,0,28620:0:0:0:0:
36,192,28514,128,0,28620:0:0:0:0:
182,192,28620,1,0,0:0:0:0:
256,192,28726,128,0,28831:0:0:0:0:
402,192,28726,128,0,29043:0:0:0:0:
109,192,28726,128,0,28831:0:0:0:0:
475,192,28726,1,0,0:0:0:0:
36,192,28726,1,0,0:0:0:0:
329,192,28831,128,0,28937:0:0:0:0:
36,192,28937,128,0,29254:0:0:0:0:
182,192,28937,128,0,29043:0:0:0:0:
256,192,29043,128,0,29148:0:0:0:0:
475,192,29148,128,0,29465:0:0:0:0:
402,192,29148,128,0,29254:0:0:0:0:
109,192,29148,1,0,0:0:0:0:
329,192,29254,128,0,29360:0:0:0:0:
182,192,29360,128,0,29465:0:0:0:0:
36,192,29360,1,0,0:0:0:0:
256,192,29465,128,0,29571:0:0:0:0:
109,192,29571,128,0,29888:0:0:0:0:
402,192,29571,128,0,29676:0:0:0:0:
475,192,29571,1,0,0:0:0:0:
36,192,29571,128,0,29676:0:0:0:0:
182,192,29676,128,0,29782:0:0:0:0:
329,192,29782,128,0,29888:0:0:0:0:
475,192,29782,1,0,0:0:0:0:
256,192,29888,128,0,29993:0:0:0:0:
36,192,29993,128,0,30099:0:0:0:0:
402,192,29993,128,0,30310:0:0:0:0:
182,192,29993,1,0,0:0:0:0:
475,192,29993,128,0,30099:0:0:0:0:
329,192,30099,128,0,30205:0:0:0:0:
109,192,30205,128,0,30310:0:0:0:0:
256,192,30205,1,0,0:0:0:0:
182,192,30310,128,0,30416:0:0:0:0:
329,192,30416,128,0,30627:0:0:0:0:
36,192,30416,128,0,30522:0:0:0:0:
109,192,30416,128,0,30522:0:0:0:0:
475,192,30416,1,0,0:0:0:0:
402,192,30522,128,0,30733:0:0:0:0:
182,192,30627,128,0,30838:0:0:0:0:
475,192,30627,128,0,30733:0:0:0:0:
256,192,30733,128,0,30944:0:0:0:0:
329,192,30838,128,0,31050:0:0:0:0:
36,192,30838,128,0,31155:0:0:0:0:
475,192,30838,128,0,30944:0:0:0:0:
109,192,30944,128,0,31155:0:0:0:0:
182,192,31050,128,0,31155:0:0:0:0:
475,192,31050,128,0,31261:0:0:0:0:
329,192,31155,128,0,31261:0:0:0:0:
402,192,31261,128,0,31578:0:0:0:0:
182,192,31261,128,0,31367:0:0:0:0:
36,192,31261,128,0,31367:0:0:0:0:
256,192,31261,1,0,0:0:0:0:
329,192,31367,128,0,31472:0:0:0:0:
109,192,31472,128,0,31578:0:0:0:0:
475,192,31472,1,0,0:0:0:0:
256,192,31578,128,0,31684:0:0:0:0:
36,192,31684,128,0,32000:0:0:0:0:
329,192,31684,128,0,31789:0:0:0:0:
475,192,31684,128,0,31789:0:0:0:0:
109,192,31684,1,0,0:0:0:0:
182,192,31789,128,0,31895:0:0:0:0:
402,192,31895,128,0,32000:0:0:0:0:
329,192,31895,1,0,0:0:0:0:
256,192,32000,128,0,32106:0:0:0:0:
182,192,32106,128,0,32423:0:0:0:0:
36,192,32106,128,0,32212:0:0:0:0:
402,192,32106,1,0,0:0:0:0:
475,192,32106,1,0,0:0:0:0:
329,192,32212,128,0,32317:0:0:0:0:
402,192,32317,128,0,32634:0:0:0:0:
36,192,32317,128,0,32423:0:0:0:0:
256,192,32423,128,0,32529:0:0:0:0:
109,192,32529,128,0,32845:0:0:0:0:
475,192,32529,128,0,32634:0:0:0:0:
36,192,32529,1,0,0:0:0:0:
256,192,32634,128,0,32740:0:0:0:0:
329,192,32740,128,0,32951:0:0:0:0:
475,192,32740,128,0,32845:0:0:0:0:
182,192,32845,128,0,32951:0:0:0:0:
36,192,32951,128,0,33268:0:0:0:0:
475,192,32951,128,0,33057:0:0:0:0:
402,192,32951,1,0,0:0:0:0:
109,192,32951,1,0,0:0:0:0:
256,192,33057,128,0,33162:0:0:0:0:
402,192,33162,128,0,33268:0:0:0:0:
109,192,33162,1,0,0:0:0:0:
182,192,33268,128,0,33585:0:0:0:0:
329,192,33268,128,0,33374:0:0:0:0:
402,192,33374,128,0,33479:0:0:0:0:
475,192,33374,1,0,0:0:0:0:
36,192,33374,1,0,0:0:0:0:
256,192,33479,128,0,33585:0:0:0:0:
475,192,33585,128,0,33796:0:0:0:0:
109,192,33585,128,0,33691:0:0:0:0:
329,192,33691,128,0,33796:0:0:0:0:
182,192,33796,1,0,0:0:0:0:
36,192,33796,1,0,0:0:0:0:
402,192,33796,1,0,0:0:0:0:
109,192,33796,1,0,0:0:0:0:
256,192,33902,1,0,0:0:0:0:
475,192,33902,1,0,0:0:0:0:
182,192,34007,1,0,0:0:0:0:
402,192,34007,1,0,0:0:0:0:
109,192,34113,1,0,0:0:0:0:
329,192,34113,1,0,0:0:0:0:
256,192,34219,1,0,0:0:0:0:
36,192,34219,1,0,0:0:0:0:
475,192,34219,1,0,0:0:0:0:
109,192,34324,1,0,0:0:0:0:
329,192,34324,1,0,0:0:0:0:
182,192,34430,1,0,0:0:0:0:
475,192,34430,128,0,34536:0:0:0:0:
402,192,34536,128,0,34641:0:0:0:0:
256,192,34536,1,0,0:0:0:0:
329,192,34641,128,0,34747:0:0:0:0:
36,192,34641,1,0,0:0:0:0:
109,192,34641,1,0,0:0:0:0:
182,192,34641,1,0,0:0:0:0:
256,192,34747,128,0,34853:0:0:0:0:
182,192,34853,128,0,34958:0:0:0:0:
109,192,34958,128,0,35064:0:0:0:0:
329,192,34958,1,0,0:0:0:0:
402,192,34958,1,0,0:0:0:0:
475,192,34958,1,0,0:0:0:0:
182,192,35064,128,0,35169:0:0:0:0:
256,192,35169,128,0,35275:0:0:0:0:
329,192,35275,1,0,0:0:0:0:
36,192,35275,1,0,0:0:0:0:
475,192,35275,1,0,0:0:0:0:
109,192,35328,1,0,0:0:0:0:
182,192,35381,1,0,0:0:0:0:
402,192,35381,1,0,0:0:0:0:
256,192,35434,1,0,0:0:0:0:
475,192,35486,128,0,36226:0:0:0:0:
329,192,35486,128,0,35592:0:0:0:0:
109,192,35486,128,0,36014:0:0:0:0:
36,192,35486,128,0,35592:0:0:0:0:
182,192,35592,128,0,35698:0:0:0:0:
256,192,35698,128,0,35803:0:0:0:0:
402,192,35698,128,0,35803:0:0:0:0:
36,192,35698,1,0,0:0:0:0:
182,192,35803,128,0,35909:0:0:0:0:
329,192,35909,128,0,36226:0:0:0:0:
402,192,35909,128,0,36014:0:0:0:0:
36,192,35909,128,0,36014:0:0:0:0:
256,192,36014,128,0,36120:0:0:0:0:
182,192,36120,128,0,36226:0:0:0:0:
36,192,36120,128,0,36226:0:0:0:0:
402,192,36120,1,0,0:0:0:0:
256,192,36226,128,0,36331:0:0:0:0:
402,192,36331,128,0,37071:0:0:0:0:
109,192,36331,128,0,36437:0:0:0:0:
36,192,36331,128,0,36437:0:0:0:0:
475,192,36331,128,0,36437:0:0:0:0:
182,192,36331,128,0,36437:0:0:0:0:
329,192,36437,128,0,36543:0:0:0:0:
182,192,36543,128,0,36648:0:0:0:0:
36,192,36543,128,0,36648:0:0:0:0:
475,192,36543,1,0,0:0:0:0:
256,192,36648,128,0,36754:0:0:0:0:
109,192,36754,128,0,37071:0:0:0:0:
475,192,36754,128,0,36860:0:0:0:0:
329,192,36754,128,0,36860:0:0:0:0:
36,192,36754,128,0,36860:0:0:0:0:
182,192,36860,128,0,36965:0:0:0:0:
256,192,36965,128,0,37071:0:0:0:0:
36,192,36965,128,0,37071:0:0:0:0:
475,192,36965,1,0,0:0:0:0:
329,192,37071,128,0,37176:0:0:0:0:
36,192,37176,128,0,38127:0:0:0:0:
475,192,37176,128,0,37282:0:0:0:0:
182,192,37176,128,0,37282:0:0:0:0:
109,192,37176,128,0,37705:0:0:0:0:
402,192,37176,128,0,37282:0:0:0:0:
256,192,37282,128,0,37388:0:0:0:0:
329,192,37388,128,0,37493:0:0:0:0:
475,192,37388,128,0,37493:0:0:0:0:
402,192,37388,1,0,0:0:0:0:
256,192,37493,128,0,37599:0:0:0:0:
182,192,37599,128,0,37705:0:0:0:0:
475,192,37599,128,0,37705:0:0:0:0:
402,192,37599,128,0,38127:0:0:0:0:
329,192,37705,128,0,37810:0:0:0:0:
256,192,37810,128,0,37916:0:0:0:0:
109,192,37810,128,0,37916:0:0:0:0:
475,192,37810,1,0,0:0:0:0:
329,192,37916,128,0,38022:0:0:0:0:
182,192,38022,128,0,38233:0:0:0:0:
109,192,38022,128,0,38127:0:0:0:0:
475,192,38022,128,0,38127:0:0:0:0:
256,192,38127,128,0,38338:0:0:0:0:
36,192,38233,128,0,38444:0:0:0:0:
475,192,38233,128,0,38338:0:0:0:0:
402,192,38233,1,0,0:0:0:0:
109,192,38338,128,0,38444:0:0:0:0:
329,192,38338,128,0,38444:0:0:0:0:
402,192,38444,128,0,38655:0:0:0:0:
182,192,38444,128,0,38550:0:0:0:0:
475,192,38444,1,0,0:0:0:0:
256,192,38550,128,0,38655:0:0:0:0:
109,192,38655,128,0,38867:0:0:0:0:
329,192,38655,128,0,38761:0:0:0:0:
36,192,38655,1,0,0:0:0:0:
182,192,38761,128,0,38867:0:0:0:0:
475,192,38867,128,0,39606:0:0:0:0:
256,192,38867,128,0,39395:0:0:0:0:
36,192,38867,128,0,38972:0:0:0:0:
329,192,38867,128,0,38972:0:0:0:0:
402,192,38867,128,0,38972:0:0:0:0:
182,192,38972,128,0,39078:0:0:0:0:
402,192,39078,128,0,39184:0:0:0:0:
109,192,39078,128,0,39184:0:0:0:0:
36,192,39078,1,0,0:0:0:0:
182,192,39184,128,0,39289:0:0:0:0:
36,192,39289,128,0,39606:0:0:0:0:
402,192,39289,128,0,39395:0:0:0:0:
329,192,39289,128,0,39395:0:0:0:0:
109,192,39395,128,0,39500:0:0:0:0:
329,192,39500,128,0,39606:0:0:0:0:
182,192,39500,128,0,39606:0:0:0:0:
256,192,39500,1,0,0:0:0:0:
402,192,39606,128,0,39712:0:0:0:0:
182,192,39712,128,0,40134:0:0:0:0:
109,192,39712,128,0,39817:0:0:0:0:
36,192,39712,128,0,39817:0:0:0:0:
475,192,39712,128,0,39817:0:0:0:0:
329,192,39712,128,0,39817:0:0:0:0:
256,192,39817,128,0,39923:0:0:0:0:
36,192,39923,128,0,40029:0:0:0:0:
402,192,39923,128,0,40029:0:0:0:0:
475,192,39923,128,0,40029:0:0:0:0:
256,192,40029,128,0,40134:0:0:0:0:
329,192,40134,128,0,40557:0:0:0:0:
109,192,40134,128,0,40240:0:0:0:0:
36,192,40134,128,0,40240:0:0:0:0:
402,192,40134,128,0,40240:0:0:0:0:
475,192,40134,128,0,40240:0:0:0:0:
182,192,40240,128,0,40345:0:0:0:0:
256,192,40345,128,0,40451:0:0:0:0:
36,192,40345,128,0,40451:0:0:0:0:
475,192,40345,128,0,40451:0:0:0:0:
182,192,40451,128,0,40557:0:0:0:0:
36,192,40557,128,0,41719:0:0:0:0:
109,192,40557,128,0,40662:0:0:0:0:
256,192,40557,128,0,40662:0:0:0:0:
475,192,40557,128,0,41085:0:0:0:0:
402,192,40557,128,0,40662:0:0:0:0:
329,192,40662,128,0,40768:0:0:0:0:
109,192,40768,128,0,40874:0:0:0:0:
182,192,40768,128,0,40874:0:0:0:0:
402,192,40768,1,0,0:0:0:0:
256,192,40874,1,0,0:0:0:0:
182,192,40979,128,0,41402:0:0:0:0:
402,192,40979,128,0,41085:0:0:0:0:
329,192,40979,128,0,41085:0:0:0:0:
256,192,41085,128,0,41191:0:0:0:0:
402,192,41191,128,0,41296:0:0:0:0:
475,192,41191,128,0,41296:0:0:0:0:
109,192,41191,1,0,0:0:0:0:
329,192,41296,128,0,41402:0:0:0:0:
109,192,41402,128,0,41507:0:0:0:0:
256,192,41402,128,0,41507:0:0:0:0:
475,192,41402,128,0,41613:0:0:0:0:
402,192,41507,128,0,41719:0:0:0:0:
329,192,41613,128,0,41824:0:0:0:0:
109,192,41613,1,0,0:0:0:0:
182,192,41613,128,0,41719:0:0:0:0:
256,192,41719,128,0,41930:0:0:0:0:
36,192,41824,128,0,42141:0:0:0:0:
475,192,41824,128,0,41930:0:0:0:0:
109,192,41824,128,0,41930:0:0:0:0:
402,192,41930,128,0,42036:0:0:0:0:
329,192,42036,128,0,42141:0:0:0:0:
182,192,42036,128,0,42141:0:0:0:0:
475,192,42036,128,0,42141:0:0:0:0:
256,192,42141,128,0,42247:0:0:0:0:
182,192,42247,128,0,42353:0:0:0:0:
402,192,42247,128,0,42986:0:0:0:0:
36,192,42247,128,0,42353:0:0:0:0:
109,192,42247,128,0,42775:0:0:0:0:
475,192,42247,128,0,42353:0:0:0:0:
256,192,42353,128,0,42458:0:0:0:0:
329,192,42458,128,0,42564:0:0:0:0:
475,192,42458,128,0,42564:0:0:0:0:
36,192,42458,1,0,0:0:0:0:
182,192,42564,128,0,42669:0:0:0:0:
256,192,42669,128,0,42986:0:0:0:0:
36,192,42669,128,0,42775:0:0:0:0:
475,192,42669,128,0,42775:0:0:0:0:
329,192,42775,128,0,42881:0:0:0:0:
36,192,42881,128,0,43198:0:0:0:0:
109,192,42881,128,0,42986:0:0:0:0:
182,192,42881,1,0,0:0:0:0:
329,192,42986,128,0,43092:0:0:0:0:
475,192,43092,128,0,43831:0:0:0:0:
182,192,43092,128,0,43620:0:0:0:0:
402,192,43092,128,0,43198:0:0:0:0:
109,192,43092,128,0,43198:0:0:0:0:
256,192,43198,128,0,43303:0:0:0:0:
36,192,43303,128,0,43409:0:0:0:0:
402,192,43303,128,0,43409:0:0:0:0:
329,192,43303,1,0,0:0:0:0:
109,192,43409,128,0,43514:0:0:0:0:
256,192,43514,128,0,43831:0:0:0:0:
36,192,43514,128,0,43620:0:0:0:0:
402,192,43514,128,0,43620:0:0:0:0:
329,192,43620,128,0,43726:0:0:0:0:
109,192,43726,128,0,44043:0:0:0:0:
402,192,43726,128,0,43831:0:0:0:0:
36,192,43726,1,0,0:0:0:0:
182,192,43831,128,0,43937:0:0:0:0:
329,192,43937,128,0,44360:0:0:0:0:
36,192,43937,128,0,44043:0:0:0:0:
256,192,43937,128,0,44043:0:0:0:0:
475,192,43937,128,0,44360:0:0:0:0:
402,192,43937,128,0,44043:0:0:0:0:
182,192,44043,1,0,0:0:0:0:
109,192,44148,128,0,44360:0:0:0:0:
402,192,44148,1,0,0:0:0:0:
36,192,44148,1,0,0:0:0:0:
256,192,44254,128,0,44360:0:0:0:0:
36,192,44360,128,0,44465:0:0:0:0:
402,192,44360,1,0,0:0:0:0:
182,192,44360,128,0,44465:0:0:0:0:
256,192,44465,1,0,0:0:0:0:
475,192,44571,128,0,44888:0:0:0:0:
36,192,44571,128,0,44676:0:0:0:0:
329,192,44571,128,0,44676:0:0:0:0:
182,192,44571,128,0,44676:0:0:0:0:
402,192,44676,128,0,44782:0:0:0:0:
256,192,44782,128,0,45310:0:0:0:0:
182,192,44782,128,0,44888:0:0:0:0:
36,192,44782,128,0,44888:0:0:0:0:
109,192,44782,128,0,44888:0:0:0:0:
329,192,44888,128,0,44993:0:0:0:0:
109,192,44993,128,0,45099:0:0:0:0:
475,192,44993,128,0,45099:0:0:0:0:
402,192,44993,1,0,0:0:0:0:
182,192,45099,128,0,45205:0:0:0:0:
109,192,45205,128,0,45522:0:0:0:0:
36,192,45205,128,0,45310:0:0:0:0:
329,192,45205,128,0,45310:0:0:0:0:
475,192,45205,128,0,45310:0:0:0:0:
182,192,45310,128,0,45416:0:0:0:0:
402,192,45416,128,0,45522:0:0:0:0:
256,192,45416,128,0,45522:0:0:0:0:
475,192,45416,128,0,45522:0:0:0:0:
36,192,45416,1,0,0:0:0:0:
329,192,45522,128,0,45627:0:0:0:0:
36,192,45627,128,0,45944:0:0:0:0:
475,192,45627,128,0,45944:0:0:0:0:
109,192,45627,128,0,45733:0:0:0:0:
402,192,45627,128,0,45733:0:0:0:0:
182,192,45627,128,0,45733:0:0:0:0:
256,192,45733,128,0,45838:0:0:0:0:
329,192,45838,128,0,45944:0:0:0:0:
182,192,45838,128,0,45944:0:0:0:0:
402,192,45944,128,0,46050:0:0:0:0:
475,192,46050,128,0,46261:0:0:0:0:
36,192,46050,128,0,46155:0:0:0:0:
109,192,46050,128,0,46155:0:0:0:0:
256,192,46050,128,0,46155:0:0:0:0:
329,192,46155,128,0,46261:0:0:0:0:
182,192,46261,128,0,46367:0:0:0:0:
36,192,46261,1,0,0:0:0:0:
402,192,46261,128,0,46472:0:0:0:0:
256,192,46367,128,0,46472:0:0:0:0:
36,192,46446,128,0,46551:0:0:0:0:
109,192,46459,128,0,46565:0:0:0:0:
182,192,46472,128,0,46789:0:0:0:0:
329,192,46472,128,0,46578:0:0:0:0:
475,192,46472,128,0,46578:0:0:0:0:
256,192,46578,128,0,46684:0:0:0:0:
402,192,46684,128,0,47000:0:0:0:0:
475,192,46684,128,0,46789:0:0:0:0:
36,192,46684,128,0,46789:0:0:0:0:
329,192,46789,128,0,46895:0:0:0:0:
109,192,46895,128,0,47317:0:0:0:0:
256,192,46895,128,0,47000:0:0:0:0:
36,192,46895,128,0,47000:0:0:0:0:
475,192,46895,128,0,47000:0:0:0:0:
182,192,47000,128,0,47106:0:0:0:0:
475,192,47106,128,0,47317:0:0:0:0:
329,192,47106,128,0,47212:0:0:0:0:
36,192,47106,1,0,0:0:0:0:
256,192,47212,128,0,47317:0:0:0:0:
36,192,47317,128,0,47845:0:0:0:0:
182,192,47317,128,0,47740:0:0:0:0:
402,192,47317,128,0,48057:0:0:0:0:
329,192,47423,128,0,47529:0:0:0:0:
256,192,47529,128,0,47634:0:0:0:0:
329,192,47634,128,0,47740:0:0:0:0:
109,192,47740,128,0,48057:0:0:0:0:
475,192,47740,128,0,48479:0:0:0:0:
182,192,47845,128,0,47951:0:0:0:0:
329,192,47951,128,0,48057:0:0:0:0:
36,192,47951,128,0,48057:0:0:0:0:
256,192,48057,128,0,48162:0:0:0:0:
109,192,48162,1,0,0:0:0:0:
36,192,48162,128,0,48691:0:0:0:0:
402,192,48215,1,0,0:0:0:0:
329,192,48268,1,0,0:0:0:0:
256,192,48321,1,0,0:0:0:0:
182,192,48374,1,0,0:0:0:0:
109,192,48426,1,0,0:0:0:0:
329,192,48479,1,0,0:0:0:0:
402,192,48479,1,0,0:0:0:0:
475,192,48585,128,0,48902:0:0:0:0:
182,192,48585,1,0,0:0:0:0:
256,192,48638,1,0,0:0:0:0:
329,192,48691,1,0,0:0:0:0:
402,192,48743,1,0,0:0:0:0:
36,192,48796,1,0,0:0:0:0:
109,192,48796,1,0,0:0:0:0:
329,192,48849,1,0,0:0:0:0:
256,192,48902,1,0,0:0:0:0:
182,192,48955,1,0,0:0:0:0:
36,192,49007,128,0,50803:0:0:0:0:
402,192,49007,128,0,49113:0:0:0:0:
475,192,49007,128,0,49113:0:0:0:0:
109,192,49007,128,0,49113:0:0:0:0:
256,192,49113,128,0,49219:0:0:0:0:
182,192,49113,128,0,49219:0:0:0:0:
329,192,49219,128,0,49324:0:0:0:0:
475,192,49219,128,0,49324:0:0:0:0:
109,192,49324,128,0,49430:0:0:0:0:
182,192,49324,128,0,49430:0:0:0:0:
402,192,49430,128,0,49536:0:0:0:0:
475,192,49430,128,0,49536:0:0:0:0:
329,192,49430,128,0,49536:0:0:0:0:
109,192,49536,128,0,49641:0:0:0:0:
256,192,49536,128,0,49641:0:0:0:0:
402,192,49641,128,0,49747:0:0:0:0:
475,192,49641,128,0,49747:0:0:0:0:
109,192,49747,128,0,49853:0:0:0:0:
182,192,49747,128,0,49853:0:0:0:0:
402,192,49853,128,0,49958:0:0:0:0:
475,192,49853,128,0,49958:0:0:0:0:
256,192,49853,128,0,49958:0:0:0:0:
182,192,49958,128,0,50064:0:0:0:0:
402,192,50064,128,0,50169:0:0:0:0:
182,192,50169,128,0,50275:0:0:0:0:
109,192,50169,128,0,50275:0:0:0:0:
329,192,50169,128,0,50275:0:0:0:0:
475,192,50275,128,0,50381:0:0:0:0:
256,192,50381,128,0,50486:0:0:0:0:
109,192,50486,128,0,50592:0:0:0:0:
402,192,50486,128,0,50592:0:0:0:0:
329,192,50486,128,0,50592:0:0:0:0:
182,192,50592,128,0,50698:0:0:0:0:
475,192,50698,128,0,52071:0:0:0:0:
402,192,50698,128,0,50803:0:0:0:0:
109,192,50698,128,0,50803:0:0:0:0:
329,192,50698,128,0,50803:0:0:0:0:
256,192,50803,128,0,50909:0:0:0:0:
109,192,50909,128,0,51014:0:0:0:0:
402,192,50909,128,0,51014:0:0:0:0:
36,192,50909,128,0,51014:0:0:0:0:
182,192,51014,128,0,51120:0:0:0:0:
329,192,51120,128,0,51226:0:0:0:0:
402,192,51120,128,0,51226:0:0:0:0:
109,192,51226,128,0,51331:0:0:0:0:
182,192,51226,128,0,51331:0:0:0:0:
329,192,51331,128,0,51437:0:0:0:0:
256,192,51331,128,0,51437:0:0:0:0:
109,192,51437,128,0,51543:0:0:0:0:
36,192,51437,128,0,51543:0:0:0:0:
182,192,51543,128,0,51648:0:0:0:0:
329,192,51543,128,0,51648:0:0:0:0:
402,192,51543,128,0,51648:0:0:0:0:
36,192,51648,128,0,51754:0:0:0:0:
256,192,51754,128,0,51860:0:0:0:0:
182,192,51860,128,0,51965:0:0:0:0:
36,192,51860,128,0,51965:0:0:0:0:
402,192,51860,128,0,51965:0:0:0:0:
329,192,51965,128,0,52071:0:0:0:0:
109,192,52071,128,0,52176:0:0:0:0:
256,192,52176,1,0,0:0:0:0:
475,192,52176,1,0,0:0:0:0:
36,192,52176,1,0,0:0:0:0:
182,192,52247,1,0,0:0:0:0:
402,192,52247,1,0,0:0:0:0:
109,192,52317,1,0,0:0:0:0:
329,192,52317,1,0,0:0:0:0:
256,192,52388,1,0,0:0:0:0:
36,192,52388,1,0,0:0:0:0:
475,192,52388,1,0,0:0:0:0:
402,192,52388,1,0,0:0:0:0:
329,192,52493,1,0,0:0:0:0:
36,192,52599,1,0,0:0:0:0:
402,192,52599,1,0,0:0:0:0:
475,192,52599,1,0,0:0:0:0:
182,192,52599,1,0,0:0:0:0:
256,192,52705,1,0,0:0:0:0:
329,192,52810,1,0,0:0:0:0:
36,192,52810,1,0,0:0:0:0:
402,192,52810,1,0,0:0:0:0:
109,192,52810,1,0,0:0:0:0:
256,192,52916,1,0,0:0:0:0:
182,192,53022,1,0,0:0:0:0:
109,192,53022,1,0,0:0:0:0:
402,192,53022,1,0,0:0:0:0:
475,192,53022,1,0,0:0:0:0:
329,192,53127,1,0,0:0:0:0:
256,192,53233,1,0,0:0:0:0:
182,192,53233,1,0,0:0:0:0:
36,192,53233,1,0,0:0:0:0:
475,192,53233,1,0,0:0:0:0:
329,192,53338,1,0,0:0:0:0:
402,192,53444,1,0,0:0:0:0:
475,192,53444,1,0,0:0:0:0:
109,192,53444,1,0,0:0:0:0:
182,192,53444,1,0,0:0:0:0:
256,192,53550,1,0,0:0:0:0:
109,192,53655,1,0,0:0:0:0:
36,192,53655,1,0,0:0:0:0:
475,192,53655,1,0,0:0:0:0:
329,192,53655,128,0,53761:0:0:0:0:
182,192,53761,128,0,53867:0:0:0:0:
402,192,53867,128,0,53972:0:0:0:0:
36,192,53867,1,0,0:0:0:0:
475,192,53867,1,0,0:0:0:0:
109,192,53867,1,0,0:0:0:0:
256,192,53972,128,0,54078:0:0:0:0:
182,192,54078,1,0,0:0:0:0:
36,192,54078,1,0,0:0:0:0:
109,192,54078,1,0,0:0:0:0:
475,192,54184,1,0,0:0:0:0:
329,192,54184,1,0,0:0:0:0:
402,192,54184,1,0,0:0:0:0:
256,192,54289,1,0,0:0:0:0:
36,192,54289,1,0,0:0:0:0:
182,192,54289,1,0,0:0:0:0:
329,192,54395,1,0,0:0:0:0:
402,192,54395,1,0,0:0:0:0:
475,192,54395,1,0,0:0:0:0:
182,192,54500,1,0,0:0:0:0:
109,192,54500,1,0,0:0:0:0:
36,192,54500,1,0,0:0:0:0:
256,192,54606,1,0,0:0:0:0:
402,192,54606,1,0,0:0:0:0:
329,192,54606,1,0,0:0:0:0:
475,192,54712,1,0,0:0:0:0:
36,192,54712,1,0,0:0:0:0:
109,192,54712,1,0,0:0:0:0:
329,192,54817,1,0,0:0:0:0:
256,192,54817,1,0,0:0:0:0:
182,192,54817,1,0,0:0:0:0:
475,192,54923,1,0,0:0:0:0:
402,192,54923,1,0,0:0:0:0:
36,192,54923,1,0,0:0:0:0:
109,192,55029,1,0,0:0:0:0:
182,192,55029,1,0,0:0:0:0:
256,192,55029,1,0,0:0:0:0:
329,192,55134,1,0,0:0:0:0:
402,192,55134,1,0,0:0:0:0:
475,192,55134,1,0,0:0:0:0:
36,192,55240,1,0,0:0:0:0:
109,192,55240,1,0,0:0:0:0:
182,192,55240,1,0,0:0:0:0:
256,192,55345,1,0,0:0:0:0:
329,192,55345,1,0,0:0:0:0:
402,192,55345,1,0,0:0:0:0:
36,192,55451,1,0,0:0:0:0:
109,192,55451,1,0,0:0:0:0:
475,192,55451,1,0,0:0:0:0:
182,192,55557,1,0,0:0:0:0:
256,192,55557,1,0,0:0:0:0:
329,192,55557,1,0,0:0:0:0:
402,192,55662,1,0,0:0:0:0:
475,192,55662,1,0,0:0:0:0:
182,192,55768,1,0,0:0:0:0:
329,192,55768,1,0,0:0:0:0:
36,192,55768,128,0,56191:0:0:0:0:
109,192,55768,128,0,55979:0:0:0:0:
402,192,55979,128,0,56191:0:0:0:0:
256,192,56191,128,0,56402:0:0:0:0:
475,192,56402,128,0,57458:0:0:0:0:
36,192,56402,1,0,0:0:0:0:
182,192,56507,1,0,0:0:0:0:
329,192,56613,128,0,56930:0:0:0:0:
109,192,56930,128,0,57247:0:0:0:0:
402,192,57247,128,0,57458:0:0:0:0:
36,192,57458,128,0,59148:0:0:0:0:
182,192,57458,128,0,57669:0:0:0:0:
329,192,57458,128,0,57669:0:0:0:0:
256,192,57458,1,0,0:0:0:0:
475,192,57669,128,0,57881:0:0:0:0:
109,192,57881,128,0,58303:0:0:0:0:
256,192,57881,128,0,58303:0:0:0:0:
402,192,58277,1,0,0:0:0:0:
475,192,58303,128,0,58726:0:0:0:0:
329,192,58726,128,0,59148:0:0:0:0:
109,192,59148,128,0,60733:0:0:0:0:
256,192,59148,128,0,59360:0:0:0:0:
475,192,59148,128,0,59360:0:0:0:0:
402,192,59148,1,0,0:0:0:0:
329,192,59360,128,0,59571:0:0:0:0:
182,192,59571,128,0,59782:0:0:0:0:
402,192,59782,1,0,0:0:0:0:
475,192,59782,1,0,0:0:0:0:
402,192,59993,128,0,60733:0:0:0:0:
475,192,59993,128,0,60733:0:0:0:0:
36,192,60838,128,0,62423:0:0:0:0:
182,192,60838,128,0,61050:0:0:0:0:
402,192,60838,1,0,0:0:0:0:
329,192,61050,128,0,61261:0:0:0:0:
109,192,61261,128,0,61472:0:0:0:0:
402,192,61472,128,0,61895:0:0:0:0:
256,192,61895,128,0,62106:0:0:0:0:
109,192,62106,128,0,62423:0:0:0:0:
329,192,62212,1,0,0:0:0:0:
402,192,62317,1,0,0:0:0:0:
475,192,62423,1,0,0:0:0:0:
36,192,62529,1,0,0:0:0:0:
109,192,62529,128,0,62951:0:0:0:0:
256,192,62529,128,0,62740:0:0:0:0:
402,192,62740,128,0,62951:0:0:0:0:
329,192,62951,128,0,63162:0:0:0:0:
475,192,63162,128,0,64219:0:0:0:0:
36,192,63162,1,0,0:0:0:0:
109,192,63268,1,0,0:0:0:0:
182,192,63374,128,0,63691:0:0:0:0:
329,192,63691,128,0,64007:0:0:0:0:
182,192,64007,128,0,64219:0:0:0:0:
36,192,64219,128,0,65064:0:0:0:0:
109,192,64219,1,0,0:0:0:0:
256,192,64219,128,0,64430:0:0:0:0:
402,192,64219,128,0,64430:0:0:0:0:
182,192,64430,128,0,64641:0:0:0:0:
402,192,64641,128,0,65064:0:0:0:0:
475,192,64641,128,0,65064:0:0:0:0:
109,192,64853,128,0,65064:0:0:0:0:
182,192,65037,1,0,0:0:0:0:
329,192,65064,128,0,65486:0:0:0:0:
109,192,65486,128,0,65803:0:0:0:0:
36,192,65909,128,0,67705:0:0:0:0:
402,192,65909,128,0,66120:0:0:0:0:
256,192,65909,128,0,66120:0:0:0:0:
475,192,65909,1,0,0:0:0:0:
329,192,66120,128,0,66331:0:0:0:0:
182,192,66331,128,0,66543:0:0:0:0:
402,192,66543,1,0,0:0:0:0:
475,192,66543,1,0,0:0:0:0:
402,192,66754,128,0,67705:0:0:0:0:
475,192,66754,128,0,67705:0:0:0:0:
109,192,67810,128,0,68022:0:0:0:0:
256,192,68022,128,0,68233:0:0:0:0:
402,192,68233,128,0,68972:0:0:0:0:
109,192,68655,128,0,69289:0:0:0:0:
329,192,69078,1,0,0:0:0:0:
402,192,69184,1,0,0:0:0:0:
256,192,69289,1,0,0:0:0:0:
36,192,69289,1,0,0:0:0:0:
182,192,69289,1,0,0:0:0:0:
475,192,69289,128,0,70240:0:0:0:0:
329,192,69395,1,0,0:0:0:0:
109,192,69500,1,0,0:0:0:0:
256,192,69606,1,0,0:0:0:0:
36,192,69712,128,0,70240:0:0:0:0:
182,192,69712,1,0,0:0:0:0:
402,192,69817,1,0,0:0:0:0:
182,192,69923,128,0,70240:0:0:0:0:
329,192,69923,1,0,0:0:0:0:
256,192,70134,1,0,0:0:0:0:
402,192,70345,128,0,70874:0:0:0:0:
182,192,70345,1,0,0:0:0:0:
329,192,70451,1,0,0:0:0:0:
109,192,70662,1,0,0:0:0:0:
256,192,70768,1,0,0:0:0:0:
182,192,70874,1,0,0:0:0:0:
36,192,70979,128,0,71824:0:0:0:0:
402,192,70979,1,0,0:0:0:0:
475,192,70979,1,0,0:0:0:0:
109,192,70979,1,0,0:0:0:0:
329,192,71085,1,0,0:0:0:0:
256,192,71191,1,0,0:0:0:0:
475,192,71402,128,0,72247:0:0:0:0:
182,192,71402,1,0,0:0:0:0:
329,192,71507,1,0,0:0:0:0:
109,192,71719,1,0,0:0:0:0:
329,192,71824,128,0,72247:0:0:0:0:
256,192,71824,1,0,0:0:0:0:
36,192,72036,1,0,0:0:0:0:
182,192,72141,1,0,0:0:0:0:
109,192,72247,128,0,72669:0:0:0:0:
475,192,72353,1,0,0:0:0:0:
329,192,72458,1,0,0:0:0:0:
475,192,72669,128,0,73514:0:0:0:0:
329,192,72669,1,0,0:0:0:0:
36,192,72669,1,0,0:0:0:0:
402,192,72669,1,0,0:0:0:0:
256,192,72775,1,0,0:0:0:0:
182,192,72881,1,0,0:0:0:0:
109,192,72986,1,0,0:0:0:0:
182,192,73092,1,0,0:0:0:0:
256,192,73198,1,0,0:0:0:0:
329,192,73303,1,0,0:0:0:0:
256,192,73409,1,0,0:0:0:0:
36,192,73514,128,0,73726:0:0:0:0:
182,192,73514,1,0,0:0:0:0:
475,192,73726,1,0,0:0:0:0:
329,192,73831,128,0,74043:0:0:0:0:
182,192,73831,1,0,0:0:0:0:
36,192,74043,1,0,0:0:0:0:
256,192,74148,128,0,74254:0:0:0:0:
402,192,74148,1,0,0:0:0:0:
109,192,74254,1,0,0:0:0:0:
36,192,74360,128,0,74782:0:0:0:0:
475,192,74360,128,0,75627:0:0:0:0:
182,192,74360,1,0,0:0:0:0:
329,192,74360,1,0,0:0:0:0:
402,192,74571,1,0,0:0:0:0:
182,192,74782,1,0,0:0:0:0:
329,192,74888,1,0,0:0:0:0:
36,192,74993,128,0,76050:0:0:0:0:
109,192,75099,1,0,0:0:0:0:
256,192,75205,1,0,0:0:0:0:
402,192,75205,1,0,0:0:0:0:
182,192,75416,1,0,0:0:0:0:
329,192,75522,1,0,0:0:0:0:
182,192,75627,128,0,76050:0:0:0:0:
475,192,75733,1,0,0:0:0:0:
329,192,75838,1,0,0:0:0:0:
475,192,76050,128,0,76789:0:0:0:0:
109,192,76050,128,0,76155:0:0:0:0:
329,192,76050,1,0,0:0:0:0:
182,192,76155,128,0,76261:0:0:0:0:
256,192,76261,128,0,76367:0:0:0:0:
182,192,76367,128,0,76472:0:0:0:0:
256,192,76472,128,0,76578:0:0:0:0:
329,192,76578,128,0,76684:0:0:0:0:
402,192,76684,128,0,76789:0:0:0:0:
109,192,76789,128,0,76895:0:0:0:0:
256,192,76895,128,0,77000:0:0:0:0:
475,192,76895,128,0,77000:0:0:0:0:
402,192,76895,128,0,77000:0:0:0:0:
182,192,77106,128,0,77212:0:0:0:0:
109,192,77106,128,0,77212:0:0:0:0:
329,192,77212,128,0,77317:0:0:0:0:
402,192,77212,128,0,77317:0:0:0:0:
109,192,77423,128,0,77529:0:0:0:0:
36,192,77423,128,0,77529:0:0:0:0:
256,192,77529,128,0,77634:0:0:0:0:
329,192,77529,128,0,77634:0:0:0:0:
182,192,77740,1,0,0:0:0:0:
475,192,77740,128,0,77845:0:0:0:0:
36,192,77740,128,0,78479:0:0:0:0:
402,192,77845,128,0,77951:0:0:0:0:
329,192,77951,128,0,78057:0:0:0:0:
402,192,78057,128,0,78162:0:0:0:0:
329,192,78162,128,0,78268:0:0:0:0:
256,192,78268,128,0,78374:0:0:0:0:
182,192,78374,128,0,78479:0:0:0:0:
402,192,78479,128,0,78585:0:0:0:0:
36,192,78585,128,0,78691:0:0:0:0:
109,192,78585,128,0,78691:0:0:0:0:
256,192,78585,128,0,78691:0:0:0:0:
329,192,78796,128,0,78902:0:0:0:0:
402,192,78796,128,0,78902:0:0:0:0:
182,192,78902,128,0,79007:0:0:0:0:
109,192,78902,128,0,79007:0:0:0:0:
402,192,79113,128,0,79219:0:0:0:0:
475,192,79113,128,0,79219:0:0:0:0:
256,192,79219,128,0,79324:0:0:0:0:
182,192,79219,128,0,79324:0:0:0:0:
109,192,79430,128,0,79536:0:0:0:0:
329,192,79430,1,0,0:0:0:0:
475,192,79430,1,0,0:0:0:0:
182,192,79536,128,0,79641:0:0:0:0:
256,192,79641,128,0,79747:0:0:0:0:
182,192,79747,128,0,79853:0:0:0:0:
256,192,79853,128,0,79958:0:0:0:0:
475,192,79853,1,0,0:0:0:0:
329,192,79958,128,0,80064:0:0:0:0:
402,192,80064,128,0,80169:0:0:0:0:
109,192,80169,128,0,80275:0:0:0:0:
256,192,80275,128,0,80381:0:0:0:0:
475,192,80275,128,0,80381:0:0:0:0:
36,192,80275,128,0,80381:0:0:0:0:
182,192,80486,128,0,80592:0:0:0:0:
109,192,80486,128,0,80592:0:0:0:0:
402,192,80592,128,0,80698:0:0:0:0:
329,192,80592,128,0,80698:0:0:0:0:
109,192,80803,128,0,80909:0:0:0:0:
36,192,80803,128,0,80909:0:0:0:0:
256,192,80909,128,0,81014:0:0:0:0:
329,192,80909,128,0,81014:0:0:0:0:
109,192,81120,1,0,0:0:0:0:
36,192,81120,1,0,0:0:0:0:
256,192,81120,1,0,0:0:0:0:
402,192,81120,1,0,0:0:0:0:
475,192,81120,1,0,0:0:0:0:
402,192,81331,128,0,81437:0:0:0:0:
182,192,81543,128,0,81648:0:0:0:0:
329,192,81648,128,0,81754:0:0:0:0:
109,192,81860,128,0,81965:0:0:0:0:
402,192,81965,128,0,82071:0:0:0:0:
475,192,81965,128,0,82071:0:0:0:0:
36,192,81965,1,0,0:0:0:0:
256,192,81965,1,0,0:0:0:0:
36,192,82176,1,0,0:0:0:0:
182,192,82176,1,0,0:0:0:0:
109,192,82176,1,0,0:0:0:0:
256,192,82282,1,0,0:0:0:0:
329,192,82282,1,0,0:0:0:0:
402,192,82282,1,0,0:0:0:0:
109,192,82493,1,0,0:0:0:0:
256,192,82493,1,0,0:0:0:0:
182,192,82493,1,0,0:0:0:0:
402,192,82599,1,0,0:0:0:0:
475,192,82599,1,0,0:0:0:0:
329,192,82599,1,0,0:0:0:0:
36,192,82810,1,0,0:0:0:0:
256,192,82810,1,0,0:0:0:0:
402,192,82810,1,0,0:0:0:0:
475,192,82810,1,0,0:0:0:0:
329,192,82916,1,0,0:0:0:0:
109,192,82916,1,0,0:0:0:0:
182,192,83022,1,0,0:0:0:0:
402,192,83022,1,0,0:0:0:0:
256,192,83127,1,0,0:0:0:0:
475,192,83127,1,0,0:0:0:0:
182,192,83233,1,0,0:0:0:0:
329,192,83233,1,0,0:0:0:0:
36,192,83233,1,0,0:0:0:0:
109,192,83233,1,0,0:0:0:0:
402,192,83338,1,0,0:0:0:0:
475,192,83338,1,0,0:0:0:0:
256,192,83444,1,0,0:0:0:0:
109,192,83444,1,0,0:0:0:0:
402,192,83550,1,0,0:0:0:0:
36,192,83655,1,0,0:0:0:0:
256,192,83655,1,0,0:0:0:0:
182,192,83655,1,0,0:0:0:0:
329,192,83655,1,0,0:0:0:0:
475,192,83761,1,0,0:0:0:0:
182,192,83867,1,0,0:0:0:0:
109,192,83867,1,0,0:0:0:0:
402,192,83972,1,0,0:0:0:0:
475,192,83972,1,0,0:0:0:0:
329,192,83972,1,0,0:0:0:0:
109,192,84078,1,0,0:0:0:0:
36,192,84078,1,0,0:0:0:0:
256,192,84078,1,0,0:0:0:0:
475,192,84184,1,0,0:0:0:0:
329,192,84289,1,0,0:0:0:0:
182,192,84289,1,0,0:0:0:0:
402,192,84289,1,0,0:0:0:0:
36,192,84395,1,0,0:0:0:0:
475,192,84500,1,0,0:0:0:0:
329,192,84500,1,0,0:0:0:0:
256,192,84500,1,0,0:0:0:0:
182,192,84500,1,0,0:0:0:0:
36,192,84606,1,0,0:0:0:0:
182,192,84712,1,0,0:0:0:0:
329,192,84817,1,0,0:0:0:0:
402,192,84817,1,0,0:0:0:0:
475,192,84817,1,0,0:0:0:0:
256,192,84923,1,0,0:0:0:0:
109,192,84923,1,0,0:0:0:0:
36,192,84923,1,0,0:0:0:0:
402,192,85029,1,0,0:0:0:0:
329,192,85134,1,0,0:0:0:0:
256,192,85134,1,0,0:0:0:0:
182,192,85134,1,0,0:0:0:0:
475,192,85240,1,0,0:0:0:0:
329,192,85345,1,0,0:0:0:0:
36,192,85345,1,0,0:0:0:0:
182,192,85345,1,0,0:0:0:0:
109,192,85345,1,0,0:0:0:0:
402,192,85451,1,0,0:0:0:0:
109,192,85557,1,0,0:0:0:0:
182,192,85557,1,0,0:0:0:0:
402,192,85662,1,0,0:0:0:0:
475,192,85662,1,0,0:0:0:0:
329,192,85662,1,0,0:0:0:0:
256,192,85768,1,0,0:0:0:0:
109,192,85768,1,0,0:0:0:0:
36,192,85768,1,0,0:0:0:0:
402,192,85874,1,0,0:0:0:0:
182,192,85979,1,0,0:0:0:0:
36,192,85979,1,0,0:0:0:0:
256,192,86050,1,0,0:0:0:0:
329,192,86120,1,0,0:0:0:0:
402,192,86191,1,0,0:0:0:0:
475,192,86191,1,0,0:0:0:0:
36,192,86191,1,0,0:0:0:0:
182,192,86191,1,0,0:0:0:0:
109,192,86296,1,0,0:0:0:0:
329,192,86296,1,0,0:0:0:0:
402,192,86402,1,0,0:0:0:0:
182,192,86402,1,0,0:0:0:0:
475,192,86507,1,0,0:0:0:0:
256,192,86507,1,0,0:0:0:0:
36,192,86613,1,0,0:0:0:0:
329,192,86613,1,0,0:0:0:0:
182,192,86613,1,0,0:0:0:0:
109,192,86613,1,0,0:0:0:0:
402,192,86719,1,0,0:0:0:0:
475,192,86719,1,0,0:0:0:0:
256,192,86824,1,0,0:0:0:0:
182,192,86824,1,0,0:0:0:0:
402,192,86930,1,0,0:0:0:0:
36,192,87036,1,0,0:0:0:0:
256,192,87036,1,0,0:0:0:0:
109,192,87036,1,0,0:0:0:0:
329,192,87036,1,0,0:0:0:0:
475,192,87141,1,0,0:0:0:0:
182,192,87247,1,0,0:0:0:0:
109,192,87247,1,0,0:0:0:0:
402,192,87353,1,0,0:0:0:0:
475,192,87353,1,0,0:0:0:0:
329,192,87353,1,0,0:0:0:0:
109,192,87458,1,0,0:0:0:0:
36,192,87458,1,0,0:0:0:0:
256,192,87458,1,0,0:0:0:0:
475,192,87564,1,0,0:0:0:0:
329,192,87669,1,0,0:0:0:0:
182,192,87669,1,0,0:0:0:0:
402,192,87669,1,0,0:0:0:0:
36,192,87775,1,0,0:0:0:0:
475,192,87881,1,0,0:0:0:0:
256,192,87881,1,0,0:0:0:0:
329,192,87881,1,0,0:0:0:0:
182,192,87881,1,0,0:0:0:0:
36,192,87986,1,0,0:0:0:0:
182,192,88092,1,0,0:0:0:0:
329,192,88198,1,0,0:0:0:0:
402,192,88198,1,0,0:0:0:0:
475,192,88198,1,0,0:0:0:0:
256,192,88303,1,0,0:0:0:0:
109,192,88303,1,0,0:0:0:0:
36,192,88303,1,0,0:0:0:0:
475,192,88409,1,0,0:0:0:0:
256,192,88514,1,0,0:0:0:0:
36,192,88514,1,0,0:0:0:0:
402,192,88514,1,0,0:0:0:0:
182,192,88620,1,0,0:0:0:0:
475,192,88726,1,0,0:0:0:0:
36,192,88726,1,0,0:0:0:0:
329,192,88726,1,0,0:0:0:0:
109,192,88726,1,0,0:0:0:0:
402,192,88831,1,0,0:0:0:0:
256,192,88831,1,0,0:0:0:0:
182,192,88937,1,0,0:0:0:0:
329,192,88937,1,0,0:0:0:0:
109,192,89043,1,0,0:0:0:0:
256,192,89043,1,0,0:0:0:0:
36,192,89043,1,0,0:0:0:0:
402,192,89148,1,0,0:0:0:0:
475,192,89148,1,0,0:0:0:0:
329,192,89148,1,0,0:0:0:0:
36,192,89254,1,0,0:0:0:0:
182,192,89254,1,0,0:0:0:0:
256,192,89360,1,0,0:0:0:0:
109,192,89360,1,0,0:0:0:0:
475,192,89360,1,0,0:0:0:0:
182,192,89465,1,0,0:0:0:0:
329,192,89465,1,0,0:0:0:0:
36,192,89571,1,0,0:0:0:0:
109,192,89571,1,0,0:0:0:0:
256,192,89571,1,0,0:0:0:0:
402,192,89571,1,0,0:0:0:0:
475,192,89571,128,0,91261:0:0:0:0:
182,192,89676,1,0,0:0:0:0:
329,192,89676,1,0,0:0:0:0:
109,192,89782,1,0,0:0:0:0:
36,192,89782,1,0,0:0:0:0:
329,192,89888,1,0,0:0:0:0:
402,192,89888,1,0,0:0:0:0:
182,192,89993,1,0,0:0:0:0:
109,192,89993,1,0,0:0:0:0:
36,192,89993,1,0,0:0:0:0:
402,192,90099,1,0,0:0:0:0:
329,192,90099,1,0,0:0:0:0:
256,192,90205,1,0,0:0:0:0:
182,192,90205,1,0,0:0:0:0:
36,192,90310,1,0,0:0:0:0:
109,192,90310,1,0,0:0:0:0:
402,192,90416,1,0,0:0:0:0:
329,192,90416,1,0,0:0:0:0:
256,192,90416,1,0,0:0:0:0:
36,192,90522,1,0,0:0:0:0:
109,192,90522,1,0,0:0:0:0:
329,192,90627,1,0,0:0:0:0:
402,192,90627,1,0,0:0:0:0:
182,192,90733,1,0,0:0:0:0:
109,192,90733,1,0,0:0:0:0:
256,192,90838,1,0,0:0:0:0:
329,192,90838,1,0,0:0:0:0:
402,192,90838,1,0,0:0:0:0:
109,192,90944,1,0,0:0:0:0:
36,192,90944,1,0,0:0:0:0:
182,192,91050,1,0,0:0:0:0:
256,192,91050,1,0,0:0:0:0:
329,192,91155,1,0,0:0:0:0:
402,192,91155,1,0,0:0:0:0:
256,192,91261,1,0,0:0:0:0:
182,192,91261,1,0,0:0:0:0:
109,192,91261,1,0,0:0:0:0:
36,192,91261,128,0,92845:0:0:0:0:
402,192,91367,1,0,0:0:0:0:
475,192,91367,1,0,0:0:0:0:
182,192,91472,1,0,0:0:0:0:
109,192,91472,1,0,0:0:0:0:
329,192,91578,1,0,0:0:0:0:
402,192,91578,1,0,0:0:0:0:
256,192,91684,1,0,0:0:0:0:
182,192,91684,1,0,0:0:0:0:
109,192,91684,1,0,0:0:0:0:
402,192,91789,1,0,0:0:0:0:
475,192,91789,1,0,0:0:0:0:
329,192,91895,1,0,0:0:0:0:
256,192,91895,1,0,0:0:0:0:
109,192,92000,1,0,0:0:0:0:
182,192,92000,1,0,0:0:0:0:
329,192,92106,1,0,0:0:0:0:
402,192,92106,1,0,0:0:0:0:
475,192,92106,1,0,0:0:0:0:
256,192,92212,1,0,0:0:0:0:
182,192,92212,1,0,0:0:0:0:
402,192,92317,1,0,0:0:0:0:
475,192,92317,1,0,0:0:0:0:
182,192,92423,1,0,0:0:0:0:
109,192,92423,1,0,0:0:0:0:
329,192,92529,1,0,0:0:0:0:
402,192,92529,1,0,0:0:0:0:
475,192,92529,1,0,0:0:0:0:
182,192,92634,1,0,0:0:0:0:
109,192,92634,1,0,0:0:0:0:
329,192,92740,1,0,0:0:0:0:
256,192,92740,1,0,0:0:0:0:
402,192,92845,1,0,0:0:0:0:
475,192,92845,1,0,0:0:0:0:
256,192,92951,1,0,0:0:0:0:
109,192,92951,1,0,0:0:0:0:
36,192,92951,1,0,0:0:0:0:
182,192,92951,1,0,0:0:0:0:
402,192,93057,1,0,0:0:0:0:
475,192,93057,1,0,0:0:0:0:
182,192,93162,1,0,0:0:0:0:
109,192,93162,1,0,0:0:0:0:
36,192,93162,1,0,0:0:0:0:
329,192,93268,1,0,0:0:0:0:
256,192,93268,1,0,0:0:0:0:
402,192,93374,1,0,0:0:0:0:
475,192,93374,1,0,0:0:0:0:
109,192,93374,1,0,0:0:0:0:
36,192,93374,1,0,0:0:0:0:
329,192,93479,1,0,0:0:0:0:
256,192,93479,1,0,0:0:0:0:
475,192,93585,1,0,0:0:0:0:
109,192,93585,1,0,0:0:0:0:
36,192,93585,1,0,0:0:0:0:
182,192,93691,1,0,0:0:0:0:
256,192,93691,1,0,0:0:0:0:
475,192,93796,1,0,0:0:0:0:
402,192,93796,1,0,0:0:0:0:
329,192,93796,1,0,0:0:0:0:
36,192,93796,1,0,0:0:0:0:
182,192,93902,1,0,0:0:0:0:
256,192,93902,1,0,0:0:0:0:
475,192,94007,1,0,0:0:0:0:
109,192,94007,1,0,0:0:0:0:
402,192,94007,1,0,0:0:0:0:
329,192,94113,1,0,0:0:0:0:
256,192,94113,1,0,0:0:0:0:
182,192,94219,1,0,0:0:0:0:
109,192,94219,1,0,0:0:0:0:
36,192,94219,1,0,0:0:0:0:
475,192,94219,1,0,0:0:0:0:
256,192,94324,1,0,0:0:0:0:
329,192,94324,1,0,0:0:0:0:
402,192,94430,1,0,0:0:0:0:
36,192,94430,1,0,0:0:0:0:
109,192,94430,1,0,0:0:0:0:
182,192,94536,1,0,0:0:0:0:
256,192,94536,1,0,0:0:0:0:
329,192,94641,1,0,0:0:0:0:
109,192,94641,1,0,0:0:0:0:
36,192,94641,1,0,0:0:0:0:
475,192,94641,1,0,0:0:0:0:
402,192,94641,1,0,0:0:0:0:
182,192,95275,1,0,0:0:0:0:
329,192,95275,1,0,0:0:0:0:
182,192,95486,128,0,95909:0:0:0:0:
329,192,95486,128,0,95909:0:0:0:0:
475,192,95909,1,0,0:0:0:0:
36,192,95909,1,0,0:0:0:0:
402,192,95944,1,0,0:0:0:0:
329,192,95979,1,0,0:0:0:0:
256,192,96014,1,0,0:0:0:0:
182,192,96050,1,0,0:0:0:0:
109,192,96085,1,0,0:0:0:0:
36,192,96120,1,0,0:0:0:0:
402,192,96120,1,0,0:0:0:0:
475,192,96120,1,0,0:0:0:0:
475,192,96331,128,0,97071:0:0:0:0:
109,192,96331,128,0,96754:0:0:0:0:
329,192,96331,128,0,96648:0:0:0:0:
36,192,96331,128,0,96437:0:0:0:0:
182,192,96331,128,0,96437:0:0:0:0:
256,192,96437,128,0,96543:0:0:0:0:
36,192,96543,128,0,96648:0:0:0:0:
402,192,96543,128,0,96648:0:0:0:0:
182,192,96648,128,0,96860:0:0:0:0:
256,192,96754,128,0,97071:0:0:0:0:
36,192,96754,128,0,97071:0:0:0:0:
402,192,96754,128,0,96860:0:0:0:0:
329,192,96860,128,0,96965:0:0:0:0:
109,192,96965,128,0,97071:0:0:0:0:
182,192,96965,128,0,97282:0:0:0:0:
402,192,97071,128,0,97176:0:0:0:0:
256,192,97176,128,0,97705:0:0:0:0:
329,192,97176,128,0,97282:0:0:0:0:
36,192,97176,128,0,97282:0:0:0:0:
109,192,97176,128,0,97282:0:0:0:0:
475,192,97176,128,0,97282:0:0:0:0:
402,192,97282,128,0,97388:0:0:0:0:
36,192,97388,128,0,97493:0:0:0:0:
109,192,97388,128,0,97493:0:0:0:0:
402,192,97493,128,0,97599:0:0:0:0:
475,192,97493,128,0,97916:0:0:0:0:
36,192,97599,128,0,97705:0:0:0:0:
182,192,97599,128,0,97705:0:0:0:0:
329,192,97599,128,0,97705:0:0:0:0:
402,192,97705,128,0,97810:0:0:0:0:
109,192,97810,128,0,97916:0:0:0:0:
256,192,97810,128,0,97916:0:0:0:0:
182,192,97916,128,0,98022:0:0:0:0:
36,192,98022,128,0,98233:0:0:0:0:
109,192,98022,128,0,98127:0:0:0:0:
475,192,98022,128,0,98233:0:0:0:0:
329,192,98022,128,0,98127:0:0:0:0:
402,192,98127,128,0,98444:0:0:0:0:
256,192,98127,128,0,98233:0:0:0:0:
329,192,98233,128,0,98338:0:0:0:0:
182,192,98233,128,0,98338:0:0:0:0:
475,192,98338,128,0,98655:0:0:0:0:
109,192,98338,128,0,98444:0:0:0:0:
36,192,98444,128,0,98655:0:0:0:0:
182,192,98444,128,0,98550:0:0:0:0:
329,192,98444,1,0,0:0:0:0:
109,192,98550,128,0,98867:0:0:0:0:
256,192,98550,128,0,98655:0:0:0:0:
182,192,98655,128,0,98761:0:0:0:0:
329,192,98655,128,0,98761:0:0:0:0:
36,192,98761,128,0,99078:0:0:0:0:
402,192,98761,128,0,98867:0:0:0:0:
475,192,98867,128,0,99078:0:0:0:0:
256,192,98867,128,0,98972:0:0:0:0:
329,192,98867,1,0,0:0:0:0:
402,192,98972,128,0,99289:0:0:0:0:
182,192,98972,128,0,99078:0:0:0:0:
329,192,99078,128,0,99184:0:0:0:0:
109,192,99078,128,0,99184:0:0:0:0:
182,192,99184,128,0,99289:0:0:0:0:
475,192,99184,128,0,99606:0:0:0:0:
36,192,99289,128,0,99606:0:0:0:0:
256,192,99289,128,0,99395:0:0:0:0:
109,192,99395,128,0,99606:0:0:0:0:
329,192,99395,128,0,99500:0:0:0:0:
182,192,99500,128,0,99606:0:0:0:0:
402,192,99500,128,0,99606:0:0:0:0:
256,192,99606,128,0,99712:0:0:0:0:
36,192,99712,128,0,100240:0:0:0:0:
329,192,99712,128,0,99817:0:0:0:0:
475,192,99712,128,0,99817:0:0:0:0:
109,192,99712,128,0,99817:0:0:0:0:
402,192,99712,1,0,0:0:0:0:
182,192,99817,128,0,99923:0:0:0:0:
256,192,99923,128,0,100029:0:0:0:0:
402,192,99923,128,0,100451:0:0:0:0:
475,192,99923,128,0,100029:0:0:0:0:
109,192,100029,128,0,100240:0:0:0:0:
182,192,100134,128,0,100240:0:0:0:0:
329,192,100134,128,0,100240:0:0:0:0:
475,192,100134,128,0,100240:0:0:0:0:
256,192,100240,128,0,100345:0:0:0:0:
36,192,100345,128,0,100557:0:0:0:0:
109,192,100345,128,0,100874:0:0:0:0:
182,192,100345,128,0,100451:0:0:0:0:
475,192,100345,128,0,100451:0:0:0:0:
329,192,100451,128,0,100557:0:0:0:0:
256,192,100557,128,0,100662:0:0:0:0:
475,192,100557,128,0,101296:0:0:0:0:
402,192,100557,128,0,100662:0:0:0:0:
182,192,100662,128,0,100768:0:0:0:0:
36,192,100768,128,0,100874:0:0:0:0:
329,192,100768,128,0,100874:0:0:0:0:
402,192,100768,128,0,100874:0:0:0:0:
256,192,100874,128,0,100979:0:0:0:0:
402,192,100979,128,0,101191:0:0:0:0:
329,192,100979,128,0,101085:0:0:0:0:
36,192,100979,1,0,0:0:0:0:
109,192,100979,128,0,101085:0:0:0:0:
182,192,101085,128,0,101191:0:0:0:0:
36,192,101191,128,0,101402:0:0:0:0:
256,192,101191,1,0,0:0:0:0:
109,192,101296,128,0,101402:0:0:0:0:
329,192,101296,1,0,0:0:0:0:
402,192,101402,128,0,101613:0:0:0:0:
182,192,101402,128,0,101930:0:0:0:0:
475,192,101402,1,0,0:0:0:0:
256,192,101507,128,0,101613:0:0:0:0:
475,192,101613,128,0,101719:0:0:0:0:
36,192,101613,128,0,101719:0:0:0:0:
329,192,101719,128,0,101930:0:0:0:0:
36,192,101824,128,0,102564:0:0:0:0:
475,192,101824,1,0,0:0:0:0:
109,192,101824,1,0,0:0:0:0:
256,192,101824,1,0,0:0:0:0:
402,192,101930,128,0,102036:0:0:0:0:
256,192,102036,128,0,102247:0:0:0:0:
109,192,102036,128,0,102141:0:0:0:0:
402,192,102141,1,0,0:0:0:0:
109,192,102247,128,0,102458:0:0:0:0:
475,192,102247,128,0,102986:0:0:0:0:
182,192,102247,1,0,0:0:0:0:
329,192,102247,1,0,0:0:0:0:
256,192,102353,128,0,102458:0:0:0:0:
402,192,102458,128,0,102564:0:0:0:0:
329,192,102458,128,0,102564:0:0:0:0:
182,192,102564,128,0,102775:0:0:0:0:
402,192,102669,128,0,102986:0:0:0:0:
256,192,102669,1,0,0:0:0:0:
109,192,102669,1,0,0:0:0:0:
36,192,102669,1,0,0:0:0:0:
329,192,102775,128,0,102881:0:0:0:0:
36,192,102881,128,0,102986:0:0:0:0:
182,192,102881,128,0,102986:0:0:0:0:
109,192,102986,128,0,103092:0:0:0:0:
256,192,102986,128,0,103092:0:0:0:0:
475,192,103092,128,0,103831:0:0:0:0:
329,192,103092,1,0,0:0:0:0:
402,192,103092,128,0,103198:0:0:0:0:
182,192,103092,1,0,0:0:0:0:
36,192,103092,1,0,0:0:0:0:
109,192,103198,128,0,103409:0:0:0:0:
182,192,103303,128,0,103620:0:0:0:0:
402,192,103303,128,0,103409:0:0:0:0:
256,192,103409,128,0,103514:0:0:0:0:
36,192,103514,128,0,103620:0:0:0:0:
402,192,103514,128,0,103831:0:0:0:0:
329,192,103514,128,0,103620:0:0:0:0:
109,192,103514,128,0,103620:0:0:0:0:
256,192,103620,128,0,103726:0:0:0:0:
36,192,103726,128,0,103831:0:0:0:0:
109,192,103726,128,0,103831:0:0:0:0:
182,192,103831,128,0,103937:0:0:0:0:
256,192,103831,128,0,103937:0:0:0:0:
36,192,103937,128,0,104465:0:0:0:0:
109,192,103937,128,0,104043:0:0:0:0:
329,192,103937,128,0,104148:0:0:0:0:
475,192,103937,128,0,104043:0:0:0:0:
182,192,104043,128,0,104148:0:0:0:0:
109,192,104148,128,0,104254:0:0:0:0:
475,192,104148,128,0,104254:0:0:0:0:
402,192,104254,1,0,0:0:0:0:
256,192,104254,128,0,104465:0:0:0:0:
109,192,104360,1,0,0:0:0:0:
475,192,104360,128,0,104676:0:0:0:0:
182,192,104360,1,0,0:0:0:0:
329,192,104360,1,0,0:0:0:0:
402,192,104465,128,0,104571:0:0:0:0:
182,192,104571,128,0,104782:0:0:0:0:
36,192,104571,128,0,104676:0:0:0:0:
329,192,104676,128,0,104782:0:0:0:0:
402,192,104782,128,0,105099:0:0:0:0:
256,192,104782,128,0,104888:0:0:0:0:
36,192,104782,128,0,105099:0:0:0:0:
475,192,104782,128,0,105416:0:0:0:0:
109,192,104782,128,0,104888:0:0:0:0:
182,192,104888,128,0,104993:0:0:0:0:
329,192,104993,128,0,105310:0:0:0:0:
109,192,104993,128,0,105099:0:0:0:0:
256,192,105099,128,0,105205:0:0:0:0:
402,192,105205,128,0,105416:0:0:0:0:
36,192,105205,128,0,105522:0:0:0:0:
109,192,105205,128,0,105522:0:0:0:0:
182,192,105205,128,0,105310:0:0:0:0:
256,192,105310,128,0,105416:0:0:0:0:
329,192,105416,128,0,105522:0:0:0:0:
256,192,105522,1,0,0:0:0:0:
475,192,105557,128,0,105944:0:0:0:0:
402,192,105592,128,0,105944:0:0:0:0:
36,192,105627,128,0,105944:0:0:0:0:
329,192,105627,128,0,105944:0:0:0:0:
182,192,105627,128,0,105733:0:0:0:0:
109,192,105733,128,0,105944:0:0:0:0:
182,192,105838,128,0,106155:0:0:0:0:
256,192,105944,128,0,106050:0:0:0:0:
475,192,106050,128,0,106367:0:0:0:0:
36,192,106050,128,0,106367:0:0:0:0:
109,192,106050,128,0,106261:0:0:0:0:
329,192,106050,128,0,106155:0:0:0:0:
402,192,106155,128,0,106367:0:0:0:0:
256,192,106261,128,0,106367:0:0:0:0:
182,192,106367,1,0,0:0:0:0:
329,192,106472,128,0,106789:0:0:0:0:
475,192,106472,128,0,106578:0:0:0:0:
36,192,106472,128,0,106789:0:0:0:0:
109,192,106472,128,0,106578:0:0:0:0:
402,192,106472,1,0,0:0:0:0:
256,192,106578,128,0,107212:0:0:0:0:
182,192,106684,128,0,106789:0:0:0:0:
475,192,106684,128,0,107000:0:0:0:0:
109,192,106789,128,0,106895:0:0:0:0:
36,192,106895,128,0,107000:0:0:0:0:
182,192,106895,128,0,107000:0:0:0:0:
329,192,106895,128,0,107000:0:0:0:0:
402,192,107000,128,0,107106:0:0:0:0:
36,192,107106,128,0,107212:0:0:0:0:
475,192,107106,128,0,107212:0:0:0:0:
182,192,107106,128,0,107212:0:0:0:0:
109,192,107106,128,0,107423:0:0:0:0:
329,192,107212,128,0,107317:0:0:0:0:
36,192,107317,128,0,107423:0:0:0:0:
475,192,107317,128,0,107845:0:0:0:0:
402,192,107317,128,0,107423:0:0:0:0:
182,192,107317,128,0,107423:0:0:0:0:
256,192,107423,128,0,107529:0:0:0:0:
329,192,107529,128,0,107634:0:0:0:0:
36,192,107529,1,0,0:0:0:0:
109,192,107634,128,0,107740:0:0:0:0:
182,192,107634,128,0,107740:0:0:0:0:
329,192,107740,128,0,107845:0:0:0:0:
402,192,107740,128,0,107845:0:0:0:0:
36,192,107740,128,0,107845:0:0:0:0:
256,192,107845,128,0,107951:0:0:0:0:
182,192,107951,128,0,108057:0:0:0:0:
475,192,107951,128,0,108057:0:0:0:0:
109,192,107951,128,0,108057:0:0:0:0:
329,192,108057,128,0,108162:0:0:0:0:
402,192,108162,128,0,108691:0:0:0:0:
36,192,108162,128,0,108268:0:0:0:0:
475,192,108162,128,0,108268:0:0:0:0:
256,192,108162,128,0,108268:0:0:0:0:
109,192,108162,128,0,109007:0:0:0:0:
182,192,108268,128,0,108374:0:0:0:0:
329,192,108374,128,0,108479:0:0:0:0:
36,192,108374,1,0,0:0:0:0:
475,192,108374,1,0,0:0:0:0:
256,192,108479,128,0,108585:0:0:0:0:
182,192,108585,128,0,108691:0:0:0:0:
36,192,108585,128,0,108691:0:0:0:0:
475,192,108585,128,0,108691:0:0:0:0:
329,192,108691,1,0,0:0:0:0:
402,192,108796,128,0,108902:0:0:0:0:
256,192,108796,1,0,0:0:0:0:
329,192,108902,128,0,109007:0:0:0:0:
182,192,108902,1,0,0:0:0:0:
475,192,109007,128,0,109324:0:0:0:0:
36,192,109007,1,0,0:0:0:0:
256,192,109007,128,0,109113:0:0:0:0:
402,192,109007,1,0,0:0:0:0:
182,192,109113,128,0,109219:0:0:0:0:
329,192,109219,128,0,109324:0:0:0:0:
36,192,109324,1,0,0:0:0:0:
109,192,109324,1,0,0:0:0:0:
182,192,109324,1,0,0:0:0:0:
402,192,109430,1,0,0:0:0:0:
256,192,109430,1,0,0:0:0:0:
329,192,109430,1,0,0:0:0:0:
475,192,109430,1,0,0:0:0:0:
182,192,109641,1,0,0:0:0:0:
109,192,109641,1,0,0:0:0:0:
36,192,109641,1,0,0:0:0:0:
256,192,109641,1,0,0:0:0:0:
329,192,109747,1,0,0:0:0:0:
475,192,109853,128,0,110381:0:0:0:0:
256,192,109853,128,0,109958:0:0:0:0:
36,192,109853,128,0,110169:0:0:0:0:
109,192,109853,128,0,109958:0:0:0:0:
402,192,109853,1,0,0:0:0:0:
329,192,109958,128,0,110064:0:0:0:0:
109,192,110064,128,0,110169:0:0:0:0:
182,192,110064,128,0,110275:0:0:0:0:
402,192,110064,128,0,110169:0:0:0:0:
256,192,110169,128,0,110381:0:0:0:0:
36,192,110275,128,0,110381:0:0:0:0:
329,192,110275,128,0,110381:0:0:0:0:
402,192,110275,128,0,110381:0:0:0:0:
109,192,110275,128,0,110592:0:0:0:0:
182,192,110381,128,0,110486:0:0:0:0:
36,192,110486,128,0,110592:0:0:0:0:
402,192,110486,128,0,110698:0:0:0:0:
475,192,110486,128,0,110592:0:0:0:0:
256,192,110486,128,0,110592:0:0:0:0:
182,192,110592,128,0,110698:0:0:0:0:
475,192,110698,128,0,110803:0:0:0:0:
109,192,110698,128,0,110803:0:0:0:0:
36,192,110698,128,0,110803:0:0:0:0:
329,192,110698,128,0,110803:0:0:0:0:
256,192,110803,128,0,110909:0:0:0:0:
402,192,110874,128,0,110979:0:0:0:0:
475,192,110909,128,0,111437:0:0:0:0:
182,192,110909,128,0,111014:0:0:0:0:
109,192,110909,128,0,111014:0:0:0:0:
36,192,110909,128,0,111014:0:0:0:0:
329,192,111014,128,0,111120:0:0:0:0:
36,192,111120,128,0,111437:0:0:0:0:
256,192,111120,128,0,111226:0:0:0:0:
109,192,111120,128,0,111226:0:0:0:0:
402,192,111120,128,0,111226:0:0:0:0:
182,192,111226,128,0,111331:0:0:0:0:
402,192,111331,128,0,111437:0:0:0:0:
329,192,111331,128,0,111437:0:0:0:0:
109,192,111331,128,0,111437:0:0:0:0:
256,192,111437,128,0,111543:0:0:0:0:
329,192,111543,128,0,111754:0:0:0:0:
109,192,111543,128,0,111648:0:0:0:0:
475,192,111543,1,0,0:0:0:0:
36,192,111543,1,0,0:0:0:0:
182,192,111648,128,0,111754:0:0:0:0:
402,192,111648,128,0,111860:0:0:0:0:
475,192,111754,128,0,111965:0:0:0:0:
256,192,111754,128,0,111860:0:0:0:0:
36,192,111754,1,0,0:0:0:0:
329,192,111860,128,0,111965:0:0:0:0:
109,192,111860,1,0,0:0:0:0:
182,192,111965,128,0,112176:0:0:0:0:
36,192,111965,1,0,0:0:0:0:
256,192,111965,1,0,0:0:0:0:
402,192,111965,128,0,112071:0:0:0:0:
109,192,112071,128,0,112282:0:0:0:0:
329,192,112071,128,0,112176:0:0:0:0:
36,192,112176,128,0,112388:0:0:0:0:
256,192,112176,128,0,112282:0:0:0:0:
475,192,112176,1,0,0:0:0:0:
182,192,112282,128,0,112388:0:0:0:0:
402,192,112282,1,0,0:0:0:0:
475,192,112388,128,0,112599:0:0:0:0:
329,192,112388,1,0,0:0:0:0:
109,192,112388,128,0,112493:0:0:0:0:
402,192,112493,128,0,112705:0:0:0:0:
256,192,112493,128,0,112599:0:0:0:0:
36,192,112599,1,0,0:0:0:0:
329,192,112599,128,0,112810:0:0:0:0:
182,192,112599,128,0,112705:0:0:0:0:
475,192,112705,1,0,0:0:0:0:
36,192,112740,128,0,113127:0:0:0:0:
109,192,112775,128,0,113127:0:0:0:0:
182,192,112810,128,0,113127:0:0:0:0:
402,192,112810,128,0,112916:0:0:0:0:
256,192,112916,1,0,0:0:0:0:
329,192,113022,128,0,113127:0:0:0:0:
402,192,113127,1,0,0:0:0:0:
256,192,113233,128,0,113338:0:0:0:0:
182,192,113233,128,0,113338:0:0:0:0:
109,192,113233,128,0,113338:0:0:0:0:
36,192,113233,128,0,113972:0:0:0:0:
475,192,113233,128,0,113550:0:0:0:0:
402,192,113338,128,0,113550:0:0:0:0:
329,192,113444,128,0,113550:0:0:0:0:
109,192,113444,1,0,0:0:0:0:
182,192,113444,128,0,113550:0:0:0:0:
256,192,113550,128,0,113655:0:0:0:0:
402,192,113655,128,0,114184:0:0:0:0:
475,192,113655,128,0,113761:0:0:0:0:
109,192,113655,128,0,113761:0:0:0:0:
329,192,113655,128,0,113761:0:0:0:0:
256,192,113761,128,0,113867:0:0:0:0:
475,192,113867,128,0,113972:0:0:0:0:
182,192,113867,128,0,114184:0:0:0:0:
109,192,113867,1,0,0:0:0:0:
329,192,113972,128,0,114184:0:0:0:0:
109,192,114078,128,0,114817:0:0:0:0:
36,192,114078,128,0,114184:0:0:0:0:
475,192,114078,128,0,114184:0:0:0:0:
256,192,114184,128,0,114289:0:0:0:0:
329,192,114289,128,0,114395:0:0:0:0:
475,192,114289,128,0,114395:0:0:0:0:
36,192,114289,1,0,0:0:0:0:
182,192,114395,128,0,114500:0:0:0:0:
256,192,114500,128,0,114606:0:0:0:0:
475,192,114500,128,0,114606:0:0:0:0:
402,192,114500,128,0,114606:0:0:0:0:
36,192,114500,128,0,114606:0:0:0:0:
182,192,114606,128,0,114712:0:0:0:0:
402,192,114712,128,0,114817:0:0:0:0:
475,192,114712,128,0,114817:0:0:0:0:
329,192,114712,128,0,114817:0:0:0:0:
36,192,114712,1,0,0:0:0:0:
256,192,114817,128,0,114923:0:0:0:0:
182,192,114923,128,0,115029:0:0:0:0:
36,192,114923,128,0,115029:0:0:0:0:
402,192,114923,128,0,115662:0:0:0:0:
475,192,114923,128,0,115029:0:0:0:0:
109,192,114923,1,0,0:0:0:0:
329,192,115029,128,0,115134:0:0:0:0:
256,192,115134,128,0,115240:0:0:0:0:
109,192,115134,128,0,115240:0:0:0:0:
36,192,115134,1,0,0:0:0:0:
475,192,115240,128,0,115345:0:0:0:0:
182,192,115345,128,0,115451:0:0:0:0:
36,192,115345,128,0,115451:0:0:0:0:
329,192,115345,1,0,0:0:0:0:
256,192,115451,128,0,115557:0:0:0:0:
36,192,115557,128,0,116085:0:0:0:0:
109,192,115557,128,0,115662:0:0:0:0:
329,192,115557,128,0,115662:0:0:0:0:
182,192,115662,128,0,115768:0:0:0:0:
109,192,115768,128,0,115874:0:0:0:0:
475,192,115768,128,0,115874:0:0:0:0:
329,192,115768,128,0,115874:0:0:0:0:
402,192,115768,1,0,0:0:0:0:
256,192,115874,128,0,115979:0:0:0:0:
402,192,115979,128,0,116085:0:0:0:0:
182,192,115979,1,0,0:0:0:0:
109,192,116085,1,0,0:0:0:0:
329,192,116085,128,0,116191:0:0:0:0:
256,192,116191,128,0,116296:0:0:0:0:
402,192,116191,1,0,0:0:0:0:
36,192,116191,1,0,0:0:0:0:
475,192,116191,1,0,0:0:0:0:
329,192,116296,128,0,116402:0:0:0:0:
109,192,116296,1,0,0:0:0:0:
402,192,116402,128,0,116507:0:0:0:0:
36,192,116402,1,0,0:0:0:0:
182,192,116402,1,0,0:0:0:0:
256,192,116507,1,0,0:0:0:0:
475,192,116507,128,0,116613:0:0:0:0:
329,192,116613,1,0,0:0:0:0:
109,192,116613,128,0,117141:0:0:0:0:
36,192,116613,1,0,0:0:0:0:
182,192,116613,1,0,0:0:0:0:
256,192,116719,1,0,0:0:0:0:
329,192,116824,1,0,0:0:0:0:
182,192,116930,1,0,0:0:0:0:
256,192,117036,1,0,0:0:0:0:
402,192,117036,128,0,117669:0:0:0:0:
329,192,117141,1,0,0:0:0:0:
109,192,117247,128,0,117669:0:0:0:0:
256,192,117247,1,0,0:0:0:0:
182,192,117353,1,0,0:0:0:0:
329,192,117458,1,0,0:0:0:0:
256,192,117564,1,0,0:0:0:0:
182,192,117669,1,0,0:0:0:0:
475,192,117669,1,0,0:0:0:0:
36,192,117669,1,0,0:0:0:0:
329,192,117775,1,0,0:0:0:0:
36,192,117881,128,0,118198:0:0:0:0:
475,192,117881,128,0,118198:0:0:0:0:
256,192,117881,1,0,0:0:0:0:
182,192,117986,1,0,0:0:0:0:
256,192,118092,1,0,0:0:0:0:
329,192,118198,1,0,0:0:0:0:
109,192,118303,128,0,119043:0:0:0:0:
36,192,118303,1,0,0:0:0:0:
402,192,118303,1,0,0:0:0:0:
475,192,118303,1,0,0:0:0:0:
329,192,118409,1,0,0:0:0:0:
402,192,118514,1,0,0:0:0:0:
475,192,118514,1,0,0:0:0:0:
182,192,118514,1,0,0:0:0:0:
256,192,118620,1,0,0:0:0:0:
36,192,118726,1,0,0:0:0:0:
402,192,118726,1,0,0:0:0:0:
475,192,118726,1,0,0:0:0:0:
329,192,118831,5,0,0:0:0:0:
475,192,118937,128,0,119043:0:0:0:0:
256,192,118937,1,0,0:0:0:0:
402,192,119043,128,0,119148:0:0:0:0:
182,192,119043,1,0,0:0:0:0:
329,192,119148,128,0,119254:0:0:0:0:
109,192,119148,1,0,0:0:0:0:
36,192,119148,1,0,0:0:0:0:
475,192,119148,1,0,0:0:0:0:
256,192,119254,128,0,119360:0:0:0:0:
182,192,119360,128,0,119465:0:0:0:0:
109,192,119465,128,0,119571:0:0:0:0:
329,192,119465,1,0,0:0:0:0:
402,192,119465,1,0,0:0:0:0:
475,192,119465,1,0,0:0:0:0:
182,192,119571,128,0,119676:0:0:0:0:
256,192,119676,128,0,119782:0:0:0:0:
329,192,119782,128,0,119888:0:0:0:0:
36,192,119782,1,0,0:0:0:0:
475,192,119782,1,0,0:0:0:0:
109,192,119835,1,0,0:0:0:0:
182,192,119888,1,0,0:0:0:0:
402,192,119888,128,0,119993:0:0:0:0:
256,192,119941,5,0,0:0:0:0:
475,192,119993,1,0,0:0:0:0:
329,192,119993,1,0,0:0:0:0:
36,192,119993,1,0,0:0:0:0:
109,192,119993,1,0,0:0:0:0:
182,192,120099,1,0,0:0:0:0:
402,192,120099,1,0,0:0:0:0:
109,192,120205,128,0,120522:0:0:0:0:
256,192,120205,1,0,0:0:0:0:
36,192,120310,128,0,120416:0:0:0:0:
329,192,120310,1,0,0:0:0:0:
475,192,120416,1,0,0:0:0:0:
182,192,120416,128,0,120838:0:0:0:0:
402,192,120416,1,0,0:0:0:0:
256,192,120522,128,0,120627:0:0:0:0:
329,192,120522,1,0,0:0:0:0:
109,192,120627,128,0,120733:0:0:0:0:
475,192,120627,1,0,0:0:0:0:
256,192,120733,128,0,121050:0:0:0:0:
402,192,120733,1,0,0:0:0:0:
329,192,120838,128,0,120944:0:0:0:0:
36,192,120838,1,0,0:0:0:0:
475,192,120838,1,0,0:0:0:0:
182,192,120944,128,0,121155:0:0:0:0:
109,192,121050,128,0,121261:0:0:0:0:
402,192,121050,1,0,0:0:0:0:
36,192,121155,128,0,121367:0:0:0:0:
329,192,121155,1,0,0:0:0:0:
402,192,121261,128,0,121472:0:0:0:0:
475,192,121261,1,0,0:0:0:0:
256,192,121261,1,0,0:0:0:0:
329,192,121367,128,0,121578:0:0:0:0:
182,192,121367,1,0,0:0:0:0:
256,192,121472,128,0,121684:0:0:0:0:
109,192,121472,1,0,0:0:0:0:
182,192,121578,128,0,121789:0:0:0:0:
475,192,121684,1,0,0:0:0:0:
36,192,121684,1,0,0:0:0:0:
402,192,121684,1,0,0:0:0:0:
329,192,121789,1,0,0:0:0:0:
109,192,121789,1,0,0:0:0:0:
402,192,121895,128,0,122212:0:0:0:0:
256,192,121895,1,0,0:0:0:0:
475,192,122000,128,0,122106:0:0:0:0:
109,192,122000,1,0,0:0:0:0:
329,192,122106,128,0,122423:0:0:0:0:
36,192,122106,1,0,0:0:0:0:
182,192,122106,1,0,0:0:0:0:
256,192,122212,128,0,122317:0:0:0:0:
109,192,122212,1,0,0:0:0:0:
402,192,122317,128,0,122634:0:0:0:0:
36,192,122317,1,0,0:0:0:0:
475,192,122423,128,0,122529:0:0:0:0:
109,192,122423,1,0,0:0:0:0:
329,192,122529,128,0,122740:0:0:0:0:
36,192,122529,1,0,0:0:0:0:
182,192,122529,1,0,0:0:0:0:
256,192,122634,128,0,122845:0:0:0:0:
109,192,122634,1,0,0:0:0:0:
182,192,122740,128,0,122951:0:0:0:0:
475,192,122740,1,0,0:0:0:0:
109,192,122845,128,0,123057:0:0:0:0:
402,192,122845,1,0,0:0:0:0:
475,192,122951,128,0,123162:0:0:0:0:
36,192,122951,1,0,0:0:0:0:
329,192,122951,1,0,0:0:0:0:
402,192,123057,128,0,123374:0:0:0:0:
256,192,123057,1,0,0:0:0:0:
329,192,123162,128,0,123268:0:0:0:0:
36,192,123162,128,0,123268:0:0:0:0:
109,192,123162,1,0,0:0:0:0:
475,192,123268,128,0,123479:0:0:0:0:
182,192,123268,128,0,123374:0:0:0:0:
256,192,123374,5,0,0:0:0:0:
109,192,123374,1,0,0:0:0:0:
36,192,123374,1,0,0:0:0:0:
329,192,123479,1,0,0:0:0:0:
182,192,123479,1,0,0:0:0:0:
402,192,123585,128,0,123902:0:0:0:0:
109,192,123585,1,0,0:0:0:0:
475,192,123691,128,0,123796:0:0:0:0:
256,192,123691,1,0,0:0:0:0:
36,192,123796,1,0,0:0:0:0:
329,192,123796,128,0,124219:0:0:0:0:
182,192,123796,1,0,0:0:0:0:
256,192,123902,128,0,124007:0:0:0:0:
109,192,123902,1,0,0:0:0:0:
402,192,124007,128,0,124113:0:0:0:0:
36,192,124007,1,0,0:0:0:0:
256,192,124113,128,0,124430:0:0:0:0:
109,192,124113,1,0,0:0:0:0:
182,192,124219,128,0,124324:0:0:0:0:
475,192,124219,1,0,0:0:0:0:
36,192,124219,1,0,0:0:0:0:
329,192,124324,128,0,124536:0:0:0:0:
402,192,124430,128,0,124641:0:0:0:0:
109,192,124430,1,0,0:0:0:0:
475,192,124536,128,0,124747:0:0:0:0:
182,192,124536,1,0,0:0:0:0:
109,192,124641,128,0,124853:0:0:0:0:
36,192,124641,1,0,0:0:0:0:
256,192,124641,1,0,0:0:0:0:
182,192,124747,128,0,124958:0:0:0:0:
329,192,124747,1,0,0:0:0:0:
256,192,124853,128,0,125064:0:0:0:0:
402,192,124853,1,0,0:0:0:0:
329,192,124958,128,0,125169:0:0:0:0:
36,192,125064,1,0,0:0:0:0:
475,192,125064,1,0,0:0:0:0:
109,192,125064,1,0,0:0:0:0:
182,192,125169,1,0,0:0:0:0:
402,192,125169,1,0,0:0:0:0:
109,192,125275,128,0,125592:0:0:0:0:
256,192,125275,1,0,0:0:0:0:
36,192,125381,128,0,125486:0:0:0:0:
402,192,125381,1,0,0:0:0:0:
182,192,125486,128,0,125803:0:0:0:0:
475,192,125486,1,0,0:0:0:0:
329,192,125486,1,0,0:0:0:0:
256,192,125592,128,0,125698:0:0:0:0:
402,192,125592,1,0,0:0:0:0:
109,192,125698,128,0,126014:0:0:0:0:
475,192,125698,1,0,0:0:0:0:
36,192,125803,128,0,125909:0:0:0:0:
402,192,125803,1,0,0:0:0:0:
182,192,125909,128,0,126120:0:0:0:0:
475,192,125909,1,0,0:0:0:0:
329,192,125909,1,0,0:0:0:0:
256,192,126014,128,0,126226:0:0:0:0:
402,192,126014,1,0,0:0:0:0:
329,192,126120,128,0,126331:0:0:0:0:
36,192,126120,1,0,0:0:0:0:
109,192,126226,1,0,0:0:0:0:
402,192,126226,128,0,126437:0:0:0:0:
475,192,126331,1,0,0:0:0:0:
182,192,126331,1,0,0:0:0:0:
36,192,126331,128,0,126543:0:0:0:0:
109,192,126437,128,0,126754:0:0:0:0:
256,192,126437,1,0,0:0:0:0:
182,192,126543,128,0,126648:0:0:0:0:
475,192,126543,128,0,126648:0:0:0:0:
402,192,126543,1,0,0:0:0:0:
36,192,126648,128,0,126860:0:0:0:0:
329,192,126648,128,0,126754:0:0:0:0:
402,192,126754,5,0,0:0:0:0:
182,192,126754,1,0,0:0:0:0:
256,192,126754,1,0,0:0:0:0:
475,192,126754,128,0,128338:0:0:0:0:
182,192,126860,128,0,126965:0:0:0:0:
329,192,126860,128,0,126965:0:0:0:0:
109,192,126965,1,0,0:0:0:0:
36,192,126965,1,0,0:0:0:0:
402,192,126965,1,0,0:0:0:0:
256,192,127071,128,0,127176:0:0:0:0:
109,192,127071,128,0,127176:0:0:0:0:
36,192,127176,1,0,0:0:0:0:
182,192,127176,1,0,0:0:0:0:
402,192,127176,1,0,0:0:0:0:
182,192,127282,128,0,127388:0:0:0:0:
329,192,127282,128,0,127388:0:0:0:0:
109,192,127388,1,0,0:0:0:0:
36,192,127388,1,0,0:0:0:0:
402,192,127388,1,0,0:0:0:0:
256,192,127493,128,0,127599:0:0:0:0:
402,192,127493,128,0,127599:0:0:0:0:
36,192,127599,1,0,0:0:0:0:
109,192,127599,1,0,0:0:0:0:
182,192,127599,1,0,0:0:0:0:
182,192,127705,128,0,127810:0:0:0:0:
329,192,127705,128,0,127810:0:0:0:0:
36,192,127810,1,0,0:0:0:0:
256,192,127810,1,0,0:0:0:0:
402,192,127810,1,0,0:0:0:0:
109,192,127916,128,0,128022:0:0:0:0:
256,192,127916,128,0,128022:0:0:0:0:
329,192,128022,1,0,0:0:0:0:
402,192,128022,1,0,0:0:0:0:
182,192,128022,1,0,0:0:0:0:
182,192,128127,128,0,128233:0:0:0:0:
36,192,128127,128,0,128233:0:0:0:0:
109,192,128233,1,0,0:0:0:0:
329,192,128233,1,0,0:0:0:0:
402,192,128233,1,0,0:0:0:0:
109,192,128338,128,0,128444:0:0:0:0:
256,192,128338,128,0,128444:0:0:0:0:
36,192,128444,128,0,129184:0:0:0:0:
182,192,128444,1,0,0:0:0:0:
402,192,128444,1,0,0:0:0:0:
475,192,128444,1,0,0:0:0:0:
329,192,128444,1,0,0:0:0:0:
256,192,128550,128,0,128655:0:0:0:0:
402,192,128550,128,0,128655:0:0:0:0:
109,192,128655,1,0,0:0:0:0:
182,192,128655,1,0,0:0:0:0:
475,192,128655,1,0,0:0:0:0:
182,192,128761,128,0,128867:0:0:0:0:
329,192,128761,128,0,128867:0:0:0:0:
109,192,128867,1,0,0:0:0:0:
402,192,128867,1,0,0:0:0:0:
475,192,128867,1,0,0:0:0:0:
109,192,128972,128,0,129078:0:0:0:0:
256,192,128972,128,0,129078:0:0:0:0:
182,192,129078,1,0,0:0:0:0:
402,192,129078,1,0,0:0:0:0:
475,192,129078,1,0,0:0:0:0:
182,192,129184,128,0,129289:0:0:0:0:
329,192,129184,128,0,129289:0:0:0:0:
475,192,129289,128,0,130029:0:0:0:0:
109,192,129289,1,0,0:0:0:0:
36,192,129289,1,0,0:0:0:0:
256,192,129289,1,0,0:0:0:0:
402,192,129289,1,0,0:0:0:0:
36,192,129395,128,0,129500:0:0:0:0:
182,192,129395,128,0,129500:0:0:0:0:
109,192,129500,1,0,0:0:0:0:
329,192,129500,1,0,0:0:0:0:
402,192,129500,1,0,0:0:0:0:
109,192,129606,128,0,129712:0:0:0:0:
256,192,129606,128,0,129712:0:0:0:0:
182,192,129712,1,0,0:0:0:0:
36,192,129712,1,0,0:0:0:0:
402,192,129712,1,0,0:0:0:0:
182,192,129817,128,0,129923:0:0:0:0:
329,192,129817,128,0,129923:0:0:0:0:
109,192,129923,1,0,0:0:0:0:
36,192,129923,1,0,0:0:0:0:
256,192,129923,1,0,0:0:0:0:
256,192,130029,128,0,130134:0:0:0:0:
402,192,130029,128,0,130134:0:0:0:0:
36,192,130134,1,0,0:0:0:0:
109,192,130134,1,0,0:0:0:0:
329,192,130134,1,0,0:0:0:0:
475,192,130134,1,0,0:0:0:0:
182,192,130134,1,0,0:0:0:0:
36,192,130240,128,0,130345:0:0:0:0:
182,192,130240,128,0,130345:0:0:0:0:
329,192,130345,128,0,130451:0:0:0:0:
475,192,130345,128,0,130451:0:0:0:0:
402,192,130345,128,0,130451:0:0:0:0:
109,192,130451,128,0,130557:0:0:0:0:
256,192,130451,128,0,130557:0:0:0:0:
36,192,130557,1,0,0:0:0:0:
329,192,130557,1,0,0:0:0:0:
402,192,130557,1,0,0:0:0:0:
475,192,130557,1,0,0:0:0:0:
182,192,130557,1,0,0:0:0:0:
329,192,130662,128,0,130768:0:0:0:0:
475,192,130662,128,0,130768:0:0:0:0:
182,192,130768,128,0,130874:0:0:0:0:
109,192,130768,128,0,130874:0:0:0:0:
36,192,130768,128,0,130874:0:0:0:0:
256,192,130874,128,0,130979:0:0:0:0:
402,192,130874,128,0,130979:0:0:0:0:
475,192,130979,1,0,0:0:0:0:
329,192,130979,1,0,0:0:0:0:
109,192,130979,1,0,0:0:0:0:
36,192,130979,1,0,0:0:0:0:
182,192,130979,1,0,0:0:0:0:
36,192,131085,128,0,131191:0:0:0:0:
109,192,131085,128,0,131191:0:0:0:0:
402,192,131191,128,0,131296:0:0:0:0:
475,192,131191,128,0,131296:0:0:0:0:
329,192,131191,128,0,131296:0:0:0:0:
182,192,131296,128,0,131402:0:0:0:0:
109,192,131296,128,0,131402:0:0:0:0:
329,192,131402,1,0,0:0:0:0:
402,192,131402,1,0,0:0:0:0:
475,192,131402,1,0,0:0:0:0:
256,192,131402,1,0,0:0:0:0:
36,192,131402,1,0,0:0:0:0:
475,192,131507,128,0,131613:0:0:0:0:
402,192,131507,128,0,131613:0:0:0:0:
182,192,131613,128,0,131719:0:0:0:0:
109,192,131613,128,0,131719:0:0:0:0:
36,192,131613,128,0,131719:0:0:0:0:
329,192,131719,128,0,131824:0:0:0:0:
402,192,131719,128,0,131824:0:0:0:0:
182,192,131824,1,0,0:0:0:0:
109,192,131824,1,0,0:0:0:0:
475,192,131824,1,0,0:0:0:0:
36,192,131824,1,0,0:0:0:0:
256,192,131824,128,0,132669:0:0:0:0:
329,192,131895,1,0,0:0:0:0:
402,192,131965,1,0,0:0:0:0:
475,192,132036,1,0,0:0:0:0:
402,192,132106,1,0,0:0:0:0:
329,192,132176,1,0,0:0:0:0:
182,192,132247,1,0,0:0:0:0:
109,192,132317,1,0,0:0:0:0:
36,192,132388,1,0,0:0:0:0:
109,192,132458,1,0,0:0:0:0:
182,192,132529,1,0,0:0:0:0:
329,192,132599,1,0,0:0:0:0:
475,192,132669,128,0,132775:0:0:0:0:
402,192,132775,128,0,132881:0:0:0:0:
329,192,132881,128,0,132986:0:0:0:0:
36,192,132986,1,0,0:0:0:0:
256,192,132986,128,0,133092:0:0:0:0:
109,192,132986,1,0,0:0:0:0:
475,192,133092,1,0,0:0:0:0:
402,192,133092,1,0,0:0:0:0:
182,192,133092,128,0,133198:0:0:0:0:
329,192,133198,128,0,133303:0:0:0:0:
475,192,133303,1,0,0:0:0:0:
109,192,133303,128,0,133409:0:0:0:0:
36,192,133303,1,0,0:0:0:0:
256,192,133409,128,0,133514:0:0:0:0:
475,192,133514,128,0,135812:0:0:0:0:
329,192,133514,128,0,135205:0:0:0:0:
182,192,133514,128,0,135451:0:0:0:0:
109,192,133514,128,0,135748:0:0:0:0:
402,192,133514,128,0,134729:0:0:0:0:
36,192,133514,128,0,135073:0:0:0:0:
256,192,134544,128,0,135139:0:0:0:0:
402,192,134809,128,0,135244:0:0:0:0:
36,192,135165,128,0,136050:0:0:0:0:
256,192,135218,1,0,0:0:0:0:
329,192,135299,1,0,0:0:0:0:
402,192,135356,1,0,0:0:0:0:
182,192,135522,1,0,0:0:0:0:
256,192,135614,1,0,0:0:0:0:
329,192,135715,1,0,0:0:0:0:
109,192,135812,1,0,0:0:0:0:
475,192,135891,1,0,0:0:0:0:
402,192,135965,1,0,0:0:0:0:
329,192,136023,1,0,0:0:0:0:
36,192,136129,1,0,0:0:0:0:
109,192,136191,1,0,0:0:0:0:
182,192,136261,1,0,0:0:0:0:
256,192,136340,1,0,0:0:0:0:
475,192,136442,1,0,0:0:0:0:
329,192,136578,128,0,136895:0:0:0:0:
