osu file format v14

[General]
AudioFilename: audio.mp3
AudioLeadIn: 0
PreviewTime:517
Countdown: 0
SampleSet: Soft
StackLeniency: 0.7
Mode: 0
LetterboxInBreaks: 0
WidescreenStoryboard: 1

[Editor]
DistanceSpacing: 1
BeatDivisor: 4
GridSize: 4
TimelineZoom: 1

[Metadata]
Title:Haruka Mirai (TV Size)
TitleUnicode:ハルカミライ(TV Size)
Artist:Kankaku Piero
ArtistUnicode:感覚ピエロ
Creator:hanabyte
Version:normal
Source:ブラッククローバー
Tags:anime opening jrock japanese rock op 1 SHOGUNMOON00999 [[pause]] full combo olsonn ernua black clover oyb
BeatmapID:3615203
BeatmapSetID:1766086

[Difficulty]
HPDrainRate:3
CircleSize:3
OverallDifficulty:4
ApproachRate:5
SliderMultiplier:1
SliderTickRate:1

[Events]
//Background and Video events
0,0,"MOSHED-2022-5-17-21-31-8.jpg",0,0
//Break Periods
//Storyboard Layer 0 (Background)
//Storyboard Layer 1 (Fail)
//Storyboard Layer 2 (Pass)
//Storyboard Layer 3 (Foreground)
//Storyboard Layer 4 (Overlay)
//Storyboard Sound Samples

[TimingPoints]
847,329.67032967033,4,2,1,70,1,0
11396,-100,4,2,1,50,0,0
14033,-100,4,2,1,60,0,0
24583,-100,4,2,1,50,0,0
29693,-100,4,2,1,70,0,0
32495,-100,4,2,1,50,0,0
37605,-100,4,2,1,70,0,0
50956,-100,4,2,1,80,0,0
72055,-100,4,2,1,70,0,0
73374,-100,4,2,1,70,0,0
74693,-100,4,2,1,80,0,0
82605,-100,4,2,1,50,0,0
84912,-100,4,2,1,70,0,0
93154,-100,4,2,1,70,0,0

[Colours]
Combo1 : 215,243,118
Combo2 : 189,176,247

[HitObjects]
1,13,847,6,0,L|12:69,1,50,6|0,1:2|1:0,0:0:0:0:
21,110,1176,2,0,L|140:129,1,100,8|0,0:0|1:0,0:0:0:0:
147,83,1671,2,0,P|183:61|250:43,1,100,8|0,0:0|1:0,0:0:0:0:
286,37,2165,1,8,0:0:0:0:
407,125,2660,1,8,0:0:0:0:
462,207,2989,6,0,L|516:216,2,50,8|8|8,0:0|0:0|0:0,0:0:0:0:
427,243,3484,1,2,1:2:0:0:
328,225,3814,2,0,L|312:333,1,100,8|0,0:0|1:0,0:0:0:0:
265,339,4308,2,0,P|226:363|169:366,1,100,8|0,0:0|1:0,0:0:0:0:
124,353,4803,1,8,0:0:0:0:
16,248,5297,1,8,0:0:0:0:
49,153,5627,6,0,L|36:96,2,50,8|8|8,0:0|0:0|0:0,0:0:0:0:
97,165,6121,1,2,1:2:0:0:
185,117,6451,2,0,L|212:6,1,100,8|0,0:0|1:0,0:0:0:0:
254,0,6945,2,0,P|302:4|344:34,1,100,8|0,0:0|1:0,0:0:0:0:
368,76,7440,1,8,0:0:0:0:
283,199,7934,1,8,0:0:0:0:
236,287,8264,6,0,L|170:269,2,50,8|8|8,0:0|0:0|0:0,0:0:0:0:
267,325,8759,1,2,1:2:0:0:
351,378,9088,2,0,L|459:344,1,100,8|0,0:0|1:0,0:0:0:0:
488,320,9583,2,0,P|492:265|513:214,1,100,8|0,0:0|1:0,0:0:0:0:
501,173,10077,1,10,0:0:0:0:
421,111,10407,5,8,0:0:0:0:
421,111,10572,2,0,L|409:52,1,50,8|8,0:0|0:0,0:0:0:0:
362,51,10901,2,0,L|370:-1,2,50,8|8|8,0:0|0:0|0:0,0:0:0:0:
313,64,11396,1,2,0:0:0:0:
258,379,13704,5,10,0:0:0:0:
196,300,14033,2,0,P|190:254|170:188,1,100,6|10,1:2|0:2,0:0:0:0:
114,122,14693,1,2,1:2:0:0:
159,33,15022,1,10,0:2:0:0:
255,6,15352,6,0,P|299:26|371:31,1,100,2|10,1:2|0:2,0:0:0:0:
450,78,16011,1,2,1:2:0:0:
450,78,16176,1,2,1:2:0:0:
450,78,16341,1,10,0:2:0:0:
465,176,16671,6,0,L|349:194,1,100,6|10,1:2|0:2,0:0:0:0:
284,133,17330,2,0,L|165:116,1,100,2|10,1:2|0:2,0:0:0:0:
87,142,17989,5,2,1:2:0:0:
29,223,18319,1,10,0:2:0:0:
45,321,18649,1,2,1:2:0:0:
133,366,18978,1,10,0:2:0:0:
223,322,19308,6,0,P|243:274|241:204,1,100,6|10,1:2|0:2,0:0:0:0:
200,137,19967,1,2,1:2:0:0:
200,137,20132,1,2,1:2:0:0:
200,137,20297,1,10,0:2:0:0:
266,62,20627,6,0,B|288:53|288:53|377:69,1,100,2|10,1:2|0:2,0:0:0:0:
462,54,21286,2,0,B|475:69|475:69|457:166,1,100,2|10,1:2|0:2,0:0:0:0:
425,241,21945,5,6,1:2:0:0:
347,177,22275,1,10,0:2:0:0:
253,215,22605,1,2,1:2:0:0:
253,215,22770,2,0,L|204:225,1,50,10|10,0:2|0:2,0:0:0:0:
155,236,23099,1,2,1:2:0:0:
15,195,23594,5,8,0:0:0:0:
15,195,23759,2,0,L|27:131,1,50,10|10,0:0|0:0,0:0:0:0:
66,119,24088,2,0,L|79:59,1,50,8|8,3:0|3:0,0:0:0:0:
91,22,24418,1,8,3:0:0:0:
137,3,24583,6,0,P|196:2|249:19,2,100,6|0|2,1:2|1:0|1:2,0:0:0:0:
265,156,25901,5,2,1:2:0:0:
363,173,26231,1,2,1:2:0:0:
404,264,26561,1,0,1:0:0:0:
386,362,26890,2,0,L|332:346,1,50,2|2,1:2|0:0,0:0:0:0:
305,308,27220,6,0,P|266:329|193:346,2,100,2|0|2,1:2|1:0|1:2,0:0:0:0:
186,172,28539,5,2,1:2:0:0:
82,175,28868,1,2,1:2:0:0:
41,89,29198,1,8,0:0:0:0:
41,89,29363,1,2,1:2:0:0:
106,11,29693,5,6,1:2:0:0:
106,11,29857,2,0,B|152:37|152:37|219:27,1,100,0|8,0:0|0:0,0:0:0:0:
248,25,30352,1,2,0:0:0:0:
248,25,30517,1,2,1:2:0:0:
396,45,31011,6,0,P|415:96|414:155,1,100,6|2,1:2|1:2,0:0:0:0:
452,175,31506,2,0,L|444:226,1,50,8|2,0:0|0:0,0:0:0:0:
444,274,31836,2,0,P|398:278|341:294,1,100,2|10,1:2|0:0,0:0:0:0:
246,296,32495,5,6,1:2:0:0:
205,204,32825,1,0,1:0:0:0:
261,121,33154,1,2,1:2:0:0:
205,37,33484,1,0,1:0:0:0:
106,18,33814,6,0,P|56:19|-1:45,1,100,2|2,1:2|1:2,0:0:0:0:
2,86,34308,2,0,L|30:191,1,100,2|2,0:2|0:0,0:0:0:0:
40,231,34803,1,2,1:2:0:0:
126,182,35132,6,0,P|181:183|237:202,1,100,6|0,1:2|1:0,0:0:0:0:
250,244,35627,1,0,0:0:0:0:
250,244,35792,2,0,L|351:226,1,100,2|0,1:2|1:0,0:0:0:0:
445,201,36451,6,0,P|461:156|460:91,1,100,2|10,1:2|3:0,0:0:0:0:
421,75,36945,2,0,L|404:22,1,50,10|8,3:0|0:0,0:0:0:0:
360,6,37275,1,2,1:2:0:0:
267,43,37605,6,0,L|252:156,1,100,6|2,1:2|1:2,0:0:0:0:
287,178,38099,2,0,L|301:241,1,50,10|2,0:0|0:0,0:0:0:0:
315,273,38429,1,2,1:2:0:0:
203,373,38923,6,0,P|151:361|88:358,1,100,6|2,1:2|1:2,0:0:0:0:
55,370,39418,2,0,L|42:313,1,50,10|2,0:2|0:2,0:0:0:0:
17,278,39748,1,2,1:2:0:0:
86,206,40077,5,10,0:0:0:0:
29,130,40407,1,6,1:2:0:0:
29,130,40572,1,2,1:2:0:0:
80,46,40901,1,6,1:2:0:0:
80,46,41066,2,0,L|135:33,1,50,2|2,0:0|1:2,0:0:0:0:
216,93,41561,5,6,1:2:0:0:
216,93,41726,2,0,P|270:75|320:69,1,100,2|10,0:0|0:0,0:0:0:0:
360,82,42220,1,2,1:2:0:0:
455,52,42550,6,0,L|468:-2,2,50,2|10|10,1:2|0:2|0:0,0:0:0:0:
476,97,43044,1,6,1:2:0:0:
476,97,43209,1,2,1:2:0:0:
503,198,43539,1,6,1:2:0:0:
503,198,43704,2,0,L|490:250,1,50,2|2,0:0|1:2,0:0:0:0:
454,342,44198,5,6,1:2:0:0:
454,342,44363,2,0,P|402:352|339:372,1,100,2|10,0:0|0:0,0:0:0:0:
308,377,44857,1,2,0:0:0:0:
250,294,45187,1,2,1:2:0:0:
301,207,45517,5,2,1:2:0:0:
301,207,45682,2,0,L|320:109,1,100,6|10,1:2|0:2,0:0:0:0:
328,59,46176,1,6,1:2:0:0:
246,0,46506,1,2,1:2:0:0:
246,0,46671,2,0,L|185:19,1,50,10|6,0:2|1:2,0:0:0:0:
99,27,47165,6,0,P|96:84|77:143,1,100,2|0,1:2|1:0,0:0:0:0:
42,152,47660,2,0,B|36:201|36:201|64:257,1,100,8|8,0:0|0:0,0:0:0:0:
137,307,48319,6,0,L|116:386,2,75,6|4|4,1:2|1:2|1:2,0:0:0:0:
178,279,48978,2,0,L|165:188,2,75,12|4|4,0:0|1:2|1:2,0:0:0:0:
224,298,49638,2,0,L|251:370,2,75,8|8|8,0:0|0:0|0:0,0:0:0:0:
265,270,50297,5,10,0:0:0:0:
351,219,50627,2,0,L|417:236,1,50,8|10,0:0|0:0,0:0:0:0:
448,242,50956,1,6,1:2:0:0:
479,147,51286,2,0,P|476:104|447:41,1,100,10|0,0:0|1:0,0:0:0:0:
411,25,51781,5,0,1:0:0:0:
411,25,51945,1,10,0:0:0:0:
332,87,52275,2,0,L|230:108,1,100,0|8,1:0|0:0,0:0:0:0:
177,189,52934,2,0,L|201:290,1,100,2|8,1:2|0:0,0:0:0:0:
207,340,53429,5,2,0:0:0:0:
207,340,53594,2,0,P|162:349|97:372,1,100,2|10,1:2|0:0,0:0:0:0:
18,327,54253,2,0,P|22:272|41:215,1,100,2|10,1:2|0:0,0:0:0:0:
89,145,54912,1,0,1:0:0:0:
38,58,55242,1,8,0:0:0:0:
128,9,55572,5,2,1:2:0:0:
128,9,55737,1,2,1:2:0:0:
128,9,55901,2,0,L|181:16,1,50,10|2,0:2|0:0,0:0:0:0:
211,52,56231,2,0,P|257:40|314:36,1,100,2|8,1:2|0:0,0:0:0:0:
398,104,56890,5,2,1:2:0:0:
398,104,57055,1,0,1:0:0:0:
398,104,57220,2,0,L|386:168,1,50,10|2,0:0|0:0,0:0:0:0:
381,202,57550,1,0,1:0:0:0:
430,288,57879,5,10,0:0:0:0:
369,367,58209,1,2,1:2:0:0:
276,328,58539,1,10,0:0:0:0:
276,328,58704,1,2,0:0:0:0:
276,328,58868,2,0,L|172:352,1,100,0|8,1:0|0:0,0:0:0:0:
88,306,59528,5,0,1:0:0:0:
38,232,59857,1,8,0:0:0:0:
38,232,60022,1,0,1:0:0:0:
38,232,60187,1,0,0:0:0:0:
83,142,60517,1,8,0:0:0:0:
178,173,60847,5,2,1:2:0:0:
273,142,61176,2,0,L|288:87,1,50,8|10,0:0|0:0,0:0:0:0:
280,43,61506,1,6,1:2:0:0:
376,15,61836,6,0,P|442:21|485:40,1,100,10|0,0:0|1:0,0:0:0:0:
493,78,62330,1,0,1:0:0:0:
493,78,62495,1,10,0:0:0:0:
491,178,62825,2,0,P|450:200|390:204,1,100,0|8,1:0|0:0,0:0:0:0:
298,217,63484,6,0,L|276:135,2,75,2|2|2,1:2|0:0|0:0,0:0:0:0:
269,258,64143,2,0,L|152:296,1,100,2|10,1:2|0:0,0:0:0:0:
98,241,64803,5,2,1:2:0:0:
98,241,64967,1,2,1:2:0:0:
98,241,65132,2,0,P|48:228|-22:222,1,100,10|0,0:0|1:0,0:0:0:0:
13,123,65792,1,8,0:0:0:0:
110,100,66121,6,0,L|124:36,1,50,2|2,1:2|1:2,0:0:0:0:
133,2,66451,1,10,0:2:0:0:
133,2,66616,1,2,0:0:0:0:
133,2,66781,2,0,P|186:14|250:15,1,100,2|8,1:2|0:0,0:0:0:0:
330,0,67440,5,2,1:2:0:0:
398,72,67770,1,10,0:0:0:0:
398,72,67934,1,2,0:0:0:0:
398,72,68099,1,0,1:0:0:0:
361,165,68429,5,10,0:0:0:0:
275,217,68759,2,0,P|228:203|173:198,1,100,2|10,1:2|0:0,0:0:0:0:
134,172,69253,2,0,P|90:193|24:204,1,100,2|2,0:0|1:2,0:0:0:0:
6,240,69748,5,8,0:0:0:0:
31,336,70077,1,0,1:0:0:0:
31,336,70242,1,0,1:0:0:0:
31,336,70407,1,8,0:0:0:0:
129,319,70737,2,0,P|216:278|324:271,1,200,8|10,0:0|0:0,0:0:0:0:
414,298,71726,1,10,3:0:0:0:
449,383,72055,5,6,1:2:0:0:
253,34,73374,5,4,1:2:0:0:
202,120,73704,2,0,L|146:107,2,50,8|8|8,0:0|0:0|0:0,0:0:0:0:
230,168,74198,1,8,3:0:0:0:
230,168,74363,1,12,0:0:0:0:
300,239,74693,6,0,L|403:211,1,100,4|8,1:2|0:0,0:0:0:0:
424,118,75351,1,10,0:0:0:0:
357,38,75682,5,10,0:0:0:0:
357,38,75847,1,2,1:2:0:0:
357,38,76011,2,0,L|249:62,1,100,10|10,0:0|0:0,0:0:0:0:
183,124,76671,5,10,0:0:0:0:
183,124,76836,2,0,L|203:181,2,50,2|10|0,1:2|0:0|1:0,0:0:0:0:
136,104,77330,1,8,0:0:0:0:
54,161,77660,5,10,0:0:0:0:
115,239,77989,1,10,0:2:0:0:
70,328,78319,1,10,0:0:0:0:
157,376,78649,5,10,0:2:0:0:
217,296,78978,1,10,0:0:0:0:
315,280,79308,2,0,P|358:304|422:315,1,100,10|8,0:0|0:0,0:0:0:0:
473,239,79967,6,0,L|488:175,1,50,8|2,0:0|1:2,0:0:0:0:
496,141,80297,1,10,0:0:0:0:
426,66,80627,5,10,0:2:0:0:
335,109,80956,1,10,0:0:0:0:
268,34,81286,5,10,0:0:0:0:
178,77,81616,1,10,0:0:0:0:
98,16,81945,2,0,P|36:34|-3:68,1,100,10|10,0:0|0:0,0:0:0:0:
0,104,82440,1,8,0:0:0:0:
256,192,84583,5,10,0:0:0:0:
255,92,84912,1,6,1:2:0:0:
255,92,85077,1,4,1:2:0:0:
256,192,85242,12,0,93154,0:0:0:0:
