osu file format v14

[General]
AudioFilename: audio.mp3
AudioLeadIn: 0
PreviewTime: 50132
Countdown: 0
SampleSet: Soft
StackLeniency: 0.3
Mode: 2
LetterboxInBreaks: 0
WidescreenStoryboard: 1

[Editor]
Bookmarks: 847,11396,11890,13704,82440,84583,93154
DistanceSpacing: 1.5
BeatDivisor: 4
GridSize: 4
TimelineZoom: 2

[Metadata]
Title:Haruka Mirai (TV Size)
TitleUnicode:ハルカミライ (TV Size)
Artist:Kankaku Piero
ArtistUnicode:感覚ピエロ
Creator:Secre
Version:Rain
Source:ブラッククローバー
Tags:chickenbible BLACK CLOVER Opening 1 one TVアニメver. japanese anime yuki yuuki tabata jrock j-rock rock
BeatmapID:2772945
BeatmapSetID:1252821

[Difficulty]
HPDrainRate:5
CircleSize:4
OverallDifficulty:9
ApproachRate:9
SliderMultiplier:1.95
SliderTickRate:1

[Events]
//Background and Video events
0,0,"haruka mirai starts playing when en gen 2 is released.jpg",0,0
//Break Periods
//Storyboard Layer 0 (Background)
//Storyboard Layer 1 (Fail)
//Storyboard Layer 2 (Pass)
//Storyboard Layer 3 (Foreground)
//Storyboard Layer 4 (Overlay)
//Storyboard Sound Samples

[TimingPoints]
847,329.67032967033,4,2,2,80,1,0
847,-100,4,2,2,80,0,0
13704,-200,4,2,2,60,0,0
14033,-100,4,2,2,70,0,0
24583,-100,4,2,2,50,0,0
29198,-66.6666666666667,4,2,2,50,0,0
29363,-200,4,2,2,50,0,0
29693,-83.3333333333333,4,2,2,60,0,0
32495,-100,4,2,2,50,0,0
37110,-66.6666666666667,4,2,2,50,0,0
37275,-200,4,2,2,50,0,0
37605,-83.3333333333333,4,2,2,60,0,0
39748,-74.0740740740741,4,2,2,60,0,0
40407,-100,4,2,2,70,0,0
46836,-74.0740740740741,4,2,2,60,0,0
48319,-83.3333333333333,4,2,2,80,0,0
50956,-142.857142857143,4,2,2,80,0,1
51286,-80,4,2,2,90,0,1
51616,-100,4,2,2,80,0,1
52934,-83.3333333333333,4,2,2,80,0,1
53923,-100,4,2,2,80,0,1
61506,-142.857142857143,4,2,2,80,0,1
61836,-80,4,2,2,90,0,1
62165,-100,4,2,2,80,0,1
63484,-80,4,2,2,80,0,1
65792,-100,4,2,2,80,0,1
68429,-80,4,2,2,80,0,1
68759,-100,4,2,2,80,0,1
70737,-83.3333333333333,4,2,2,80,0,1
72055,-100,4,2,2,70,0,0
73374,-75.187969924812,4,2,2,70,0,0
74363,-66.6666666666667,4,2,2,60,0,0
74693,-100,4,2,2,70,0,1
76341,-78.7401574803149,4,2,2,70,0,1
82605,-100,4,2,2,60,0,0
85160,-100,4,2,2,5,0,0

[Colours]
Combo1 : 132,189,81
Combo2 : 171,147,97
Combo3 : 201,198,54
Combo4 : 148,148,148

[HitObjects]
446,143,517,6,0,L|451:269,1,97.5
172,223,847,6,0,L|173:108,1,97.5,6|0,1:0|0:0,0:0:0:0:
332,93,1176,2,0,L|223:92,2,97.5,8|0|0,3:0|3:0|3:0,0:0:0:0:
171,168,1671,2,0,L|47:167,2,97.5,8|0|0,3:0|3:0|3:0,0:0:0:0:
336,143,2165,6,0,L|236:143,2,97.5,8|0|0,3:0|3:0|3:0,0:0:0:0:
166,180,2660,2,0,L|266:180,1,97.5,8|0,3:0|3:0,0:0:0:0:
432,128,2989,2,0,L|436:246,1,97.5,8|8,0:0|0:0,0:0:0:0:
273,230,3319,1,8,0:0:0:0:
46,209,3484,6,0,L|39:94,1,97.5,0|0,3:0|3:0,0:0:0:0:
285,125,3814,2,0,L|177:126,2,97.5,8|0|0,3:0|3:0|3:0,0:0:0:0:
444,192,4308,2,0,L|325:196,2,97.5,8|0|0,3:0|3:0|3:0,0:0:0:0:
290,247,4803,6,0,L|387:243,2,97.5,8|0|0,3:0|3:0|3:0,0:0:0:0:
129,241,5297,2,0,L|123:125,1,97.5,8|0,3:0|3:0,0:0:0:0:
413,147,5627,2,0,L|307:147,1,97.5,8|8,0:0|0:0,0:0:0:0:
149,156,5956,1,8,0:0:0:0:
408,41,6121,6,0,L|278:40,1,97.5,0|0,3:0|3:0,0:0:0:0:
38,218,6451,2,0,L|142:221,2,97.5,8|0|0,3:0|3:0|3:0,0:0:0:0:
204,282,6945,2,0,L|106:279,2,97.5,8|0|0,3:0|3:0|3:0,0:0:0:0:
374,212,7440,6,0,L|276:209,2,97.5,8|0|0,3:0|3:0|3:0,0:0:0:0:
207,249,7934,2,0,L|197:118,1,97.5,8|0,3:0|3:0,0:0:0:0:
427,174,8264,2,0,L|300:175,1,97.5,8|8,0:0|0:0,0:0:0:0:
165,154,8594,1,8,0:0:0:0:
409,108,8759,6,0,L|414:221,1,97.5,0|0,3:0|3:0,0:0:0:0:
131,219,9088,2,0,L|241:218,2,97.5,8|0|0,3:0|3:0|3:0,0:0:0:0:
301,263,9583,2,0,L|191:262,2,97.5,8|0|0,3:0|3:0|3:0,0:0:0:0:
129,241,10077,6,0,L|121:151,2,48.75,8|0|0,3:0|0:0|3:0,0:0:0:0:
290,162,10407,1,8,0:0:0:0:
129,241,10572,2,0,L|62:212,2,48.75,8|8|8,0:0|0:0|0:0,0:0:0:0:
383,208,10901,2,0,L|325:207,1,48.75,8|8,0:0|0:0,0:0:0:0:
194,195,11066,2,0,L|183:138,1,48.75,8|8,0:0|0:0,0:0:0:0:
260,106,11231,1,8,0:0:0:0:
122,260,11396,6,0,L|110:129,2,97.5
244,200,11890,2,0,L|256:69,2,97.5
131,213,12385,2,0,L|121:96,1,97.5
273,106,12715,6,0,L|164:105,1,97.5
323,186,13044,2,0,L|430:186,1,97.5
273,106,13374,2,0,L|164:105,1,97.5
406,69,13704,6,0,P|416:120|401:146,1,73.125,8|0,3:0|0:0,0:0:0:0:
197,198,14033,6,0,L|62:191,2,97.5,12|0|8,3:0|0:0|0:0,0:0:0:0:
371,137,14528,2,0,L|379:272,1,97.5,0|0,0:0|3:0,0:0:0:0:
277,266,14857,1,0,3:0:0:0:
108,227,15022,2,0,L|100:100,1,97.5,8|0,0:0|0:0,0:0:0:0:
339,139,15352,5,8,3:0:0:0:
241,139,15516,1,0,0:0:0:0:
144,139,15681,1,8,0:0:0:0:
241,139,15847,1,0,0:0:0:0:
414,147,16011,2,0,L|421:269,1,97.5,8|8,3:0|3:0,0:0:0:0:
243,257,16341,2,0,P|192:225|257:184,1,146.25,8|0,0:0|0:0,0:0:0:0:
409,188,16671,6,0,L|507:188,2,97.5,12|0|8,3:0|0:0|0:0,0:0:0:0:
241,273,17165,2,0,L|232:167,1,97.5,0|0,0:0|3:0,0:0:0:0:
332,139,17495,1,0,3:0:0:0:
160,176,17660,2,0,L|152:71,1,97.5,8|0,0:0|0:0,0:0:0:0:
323,94,17989,6,0,L|212:94,1,97.5,8|0,3:0|0:0,0:0:0:0:
62,199,18319,2,0,L|165:206,1,97.5,8|0,0:0|0:0,0:0:0:0:
317,159,18649,1,8,3:0:0:0:
159,205,18814,1,8,3:0:0:0:
317,159,18978,2,0,P|358:208|312:277,1,146.25,8|0,0:0|0:0,0:0:0:0:
124,152,19308,6,0,L|1:154,2,97.5,12|0|8,3:0|0:0|0:0,0:0:0:0:
291,190,19803,1,0,0:0:0:0:
193,192,19967,1,0,3:0:0:0:
96,194,20132,1,0,3:0:0:0:
265,135,20297,2,0,L|271:274,1,97.5,8|0,0:0|0:0,0:0:0:0:
25,254,20627,6,0,L|126:252,2,97.5,8|0|8,3:0|0:0|0:0,0:0:0:0:
182,192,21121,1,0,0:0:0:0:
347,156,21286,2,0,L|352:266,1,97.5,8|8,3:0|3:0,0:0:0:0:
182,192,21616,2,0,P|137:138|200:132,1,146.25,8|0,0:0|0:0,0:0:0:0:
397,132,21945,6,0,L|405:243,1,97.5,12|0,3:0|0:0,0:0:0:0:
299,245,22275,1,8,0:0:0:0:
47,216,22440,2,0,L|159:210,1,97.5,0|8,0:0|3:0,0:0:0:0:
314,171,22770,2,0,L|253:170,1,48.75,8|8,0:0|0:0,0:0:0:0:
124,146,22934,2,0,L|112:90,2,48.75,8|8|8,0:0|0:0|3:0,0:0:0:0:
297,190,23264,6,0,L|191:188,1,97.5,0|8,0:0|3:0,0:0:0:0:
46,147,23594,2,0,L|152:142,1,97.5,8|0,0:0|0:0,0:0:0:0:
201,124,23841,1,8,0:0:0:0:
366,152,23923,2,0,L|373:265,1,97.5,8|0,0:0|3:0,0:0:0:0:
213,260,24253,2,0,L|203:155,1,97.5,0|0,3:0|3:0,0:0:0:0:
442,218,24583,6,0,P|502:184|431:113,1,195,0|0,3:0|3:0,0:0:0:0:
240,198,25242,2,0,P|173:145|250:100,1,195,0|0,3:0|3:0,0:0:0:0:
337,103,25737,1,0,0:0:0:0:
239,133,25901,6,0,L|131:132,2,97.5,0|0|0,3:0|0:0|3:0,0:0:0:0:
337,103,26396,1,0,0:0:0:0:
156,224,26726,2,0,L|36:222,2,97.5,0|0|0,0:0|3:0|0:0,0:0:0:0:
328,202,27220,6,0,P|375:171|305:69,1,195,0|0,3:0|3:0,0:0:0:0:
227,80,27715,1,0,0:0:0:0:
133,173,27879,2,0,P|81:152|151:64,1,195,2|2,3:0|3:0,0:0:0:0:
227,80,28374,1,0,0:0:0:0:
393,181,28539,6,0,L|403:83,1,97.5,2|0,3:0|0:0,0:0:0:0:
240,118,28868,1,2,3:0:0:0:
394,181,29033,2,0,L|275:181,1,97.5,0|8,0:0|0:0,0:0:0:0:
127,161,29363,1,8,0:0:0:0:
421,141,29693,6,0,L|426:262,1,116.999996429443,6|0,1:0|0:0,0:0:0:0:
171,216,30022,2,0,L|45:214,2,116.999996429443,0|8|0,3:0|0:0|0:0,0:0:0:0:
350,134,30517,2,0,P|413:172|330:294,1,233.999992858887,0|8,3:0|0:0,0:0:0:0:
78,239,31011,6,0,L|74:100,1,116.999996429443,6|0,1:0|0:0,0:0:0:0:
350,180,31341,2,0,L|485:180,2,116.999996429443,0|8|8,3:0|0:0|3:0,0:0:0:0:
177,219,31836,2,0,L|57:266,1,116.999996429443,0|8,0:0|3:0,0:0:0:0:
127,160,32083,1,8,3:0:0:0:
361,143,32165,2,0,L|364:274,1,116.999996429443,8|0,0:0|0:0,0:0:0:0:
70,218,32495,6,0,P|10:184|81:113,1,195,0|0,3:0|3:0,0:0:0:0:
272,198,33154,2,0,P|339:145|262:100,1,195,0|0,3:0|3:0,0:0:0:0:
175,103,33649,1,0,0:0:0:0:
273,133,33813,6,0,L|381:132,2,97.5,0|0|0,3:0|0:0|3:0,0:0:0:0:
175,103,34308,1,0,0:0:0:0:
356,224,34638,2,0,L|476:222,2,97.5,0|0|0,0:0|3:0|0:0,0:0:0:0:
184,202,35132,6,0,P|137:171|207:69,1,195,0|0,3:0|3:0,0:0:0:0:
285,80,35627,1,0,0:0:0:0:
379,173,35791,2,0,P|431:152|361:64,1,195,0|0,3:0|3:0,0:0:0:0:
285,80,36286,1,8,0:0:0:0:
202,128,36368,1,8,0:0:0:0:
119,181,36451,5,8,0:0:0:0:
109,84,36615,1,0,3:0:0:0:
272,118,36780,1,0,3:0:0:0:
118,181,36945,2,0,L|237:181,1,97.5,0|8,3:0|0:0,0:0:0:0:
461,225,37275,2,0,L|461:159,1,48.75,8|0,0:0|0:0,0:0:0:0:
175,236,37605,6,0,L|420:231,1,233.999992858887,8|0,3:0|3:0,0:0:0:0:
255,155,38099,1,8,0:0:0:0:
408,231,38264,1,0,0:0:0:0:
68,213,38429,2,0,L|54:89,1,116.999996429443,0|0,3:0|3:0,0:0:0:0:
156,77,38759,1,8,0:0:0:0:
402,224,38923,6,0,L|137:230,1,233.999992858887,8|0,3:0|3:0,0:0:0:0:
322,154,39418,1,8,0:0:0:0:
167,158,39583,1,8,0:0:0:0:
445,196,39748,2,0,L|447:55,1,131.62500050211,0|8,0:0|3:0,0:0:0:0:
182,70,40077,1,8,0:0:0:0:
325,62,40242,1,0,3:0:0:0:
83,157,40407,5,8,3:0:0:0:
214,172,40572,2,0,L|352:167,1,97.5,8|8,3:0|0:0,0:0:0:0:
81,236,40901,1,8,3:0:0:0:
224,198,41066,2,0,L|227:83,1,97.5,0|8,0:0|3:0,0:0:0:0:
126,93,41396,1,8,0:0:0:0:
266,122,41561,1,8,3:0:0:0:
498,214,41726,6,0,L|362:212,1,97.5,0|0,0:0|3:0,0:0:0:0:
126,184,42055,1,8,0:0:0:0:
267,184,42220,2,0,L|279:67,1,97.5,0|8,3:0|0:0,0:0:0:0:
20,92,42550,2,0,L|147:92,2,97.5,0|8|8,3:0|0:0|0:0,0:0:0:0:
288,167,43044,5,8,3:0:0:0:
145,138,43209,2,0,L|24:138,1,97.5,8|8,3:0|0:0,0:0:0:0:
335,225,43539,1,8,3:0:0:0:
196,176,43704,2,0,L|307:177,2,97.5,0|8|8,0:0|3:0|0:0,0:0:0:0:
59,82,44198,1,8,3:0:0:0:
307,223,44363,6,0,L|196:227,1,97.5,0|0,0:0|3:0,0:0:0:0:
351,138,44693,1,8,0:0:0:0:
91,190,44857,2,0,L|79:68,1,97.5,0|0,0:0|3:0,0:0:0:0:
323,84,45187,2,0,L|443:84,1,97.5,0|0,0:0|3:0,0:0:0:0:
474,140,45434,1,0,3:0:0:0:
474,140,45517,1,0,3:0:0:0:
424,146,45599,1,0,3:0:0:0:
210,167,45682,6,0,L|197:54,1,97.5,8|8,3:0|3:0,0:0:0:0:
356,58,46011,1,8,0:0:0:0:
128,137,46176,2,0,L|15:143,1,97.5,8|0,3:0|0:0,0:0:0:0:
177,217,46506,1,8,3:0:0:0:
317,219,46671,1,8,0:0:0:0:
50,212,46836,6,0,L|35:70,1,131.62500050211,8|0,3:0|0:0,0:0:0:0:
277,103,47165,1,0,3:0:0:0:
219,135,47247,1,0,3:0:0:0:
162,167,47329,1,8,0:0:0:0:
319,206,47495,1,0,3:0:0:0:
57,206,47660,6,0,L|42:129,1,65.8125002510548,8|0,0:0|0:0,0:0:0:0:
103,113,47825,2,0,L|165:140,1,65.8125002510548,8|8,0:0|0:0,0:0:0:0:
333,153,47989,2,0,L|341:76,1,65.8125002510548,8|8,0:0|0:0,0:0:0:0:
197,73,48154,2,0,L|129:32,1,65.8125002510548,8|8,0:0|0:0,0:0:0:0:
325,224,48319,6,0,L|483:345,2,175.499994644165,8|8|8,3:0|3:0|3:0,0:0:0:0:
75,163,48978,2,0,L|210:303,2,175.499994644165,8|8|8,0:0|3:0|3:0,0:0:0:0:
427,154,49638,6,0,L|284:281,2,175.499994644165,8|8|8,3:0|3:0|3:0,0:0:0:0:
151,151,50297,2,0,L|66:152,2,58.4999982147217,8|0|8,0:0|0:0|0:0,0:0:0:0:
300,90,50544,2,0,L|369:89,2,58.4999982147217,8|8|8,0:0|0:0|0:0,0:0:0:0:
148,97,50792,2,0,L|135:17,1,58.4999982147217,8|8,0:0|0:0,0:0:0:0:
317,163,50956,6,0,L|400:163,1,68.2499979171753,12|0,3:0|0:0,0:0:0:0:
162,235,51286,2,0,P|111:200|188:124,1,182.8125,6|0,1:0|0:0,0:0:0:0:
348,137,51616,2,0,L|462:136,1,97.5,0|0,3:0|3:0,0:0:0:0:
202,84,51945,1,8,0:0:0:0:
326,81,52110,1,0,0:0:0:0:
41,192,52275,6,0,L|32:79,1,97.5,8|0,3:0|0:0,0:0:0:0:
131,84,52605,2,0,L|18:86,1,97.5,8|0,0:0|0:0,0:0:0:0:
321,176,52934,2,0,L|494:239,2,175.499994644165,0|0|0,3:0|0:0|0:0,0:0:0:0:
26,192,53594,6,0,L|216:327,1,233.999992858887,8|8,3:0|0:0,0:0:0:0:
125,156,54088,1,0,0:0:0:0:
356,178,54253,2,0,L|357:50,1,97.5,0|0,3:0|3:0,0:0:0:0:
204,122,54583,2,0,P|156:85|221:47,1,146.25,8|0,0:0|0:0,0:0:0:0:
392,103,54912,6,0,L|492:104,1,97.5,8|0,3:0|0:0,0:0:0:0:
338,196,55242,2,0,L|445:192,1,97.5,8|0,0:0|0:0,0:0:0:0:
187,123,55572,2,0,L|79:127,1,97.5,0|0,3:0|3:0,0:0:0:0:
229,219,55901,1,8,0:0:0:0:
374,216,56066,1,0,0:0:0:0:
87,224,56231,6,0,P|27:187|116:127,1,195,8|8,3:0|0:0,0:0:0:0:
236,128,56726,1,0,0:0:0:0:
13,167,56890,2,0,L|129:168,2,97.5,0|0|8,3:0|3:0|0:0,0:0:0:0:
153,237,57385,1,0,0:0:0:0:
415,230,57550,6,0,L|422:112,1,97.5,8|0,3:0|0:0,0:0:0:0:
191,98,57879,2,0,L|81:102,1,97.5,8|0,0:0|0:0,0:0:0:0:
392,188,58209,2,0,L|393:79,1,97.5,0|0,3:0|3:0,0:0:0:0:
237,128,58539,1,8,0:0:0:0:
392,90,58704,1,0,0:0:0:0:
57,211,58868,6,0,L|46:78,1,97.5,8|0,3:0|0:0,0:0:0:0:
204,101,59198,1,8,0:0:0:0:
48,113,59363,1,0,0:0:0:0:
361,214,59528,2,0,L|249:207,2,97.5,0|0|8,3:0|3:0|0:0,0:0:0:0:
96,175,60022,6,0,L|81:47,1,97.5,0|0,3:0|0:0,0:0:0:0:
332,78,60352,1,0,3:0:0:0:
193,56,60517,1,8,0:0:0:0:
56,64,60682,1,0,0:0:0:0:
316,184,60847,6,0,L|415:186,1,97.5,0|8,3:0|0:0,0:0:0:0:
361,126,61094,1,8,0:0:0:0:
211,132,61176,2,0,L|150:131,1,48.75,0|8,3:0|0:0,0:0:0:0:
315,210,61341,2,0,L|383:207,1,48.75,8|8,0:0|0:0,0:0:0:0:
163,233,61506,6,0,L|65:238,1,68.2499979171753,0|0,3:0|0:0,0:0:0:0:
343,232,61836,2,0,P|391:182|313:110,1,182.8125,6|0,1:0|0:0,0:0:0:0:
157,113,62165,2,0,L|49:118,1,97.5,0|0,3:0|3:0,0:0:0:0:
302,174,62495,1,8,0:0:0:0:
167,176,62660,1,0,0:0:0:0:
431,219,62825,6,0,L|431:102,1,97.5,8|0,3:0|0:0,0:0:0:0:
341,113,63154,2,0,L|444:121,1,97.5,8|0,0:0|0:0,0:0:0:0:
182,149,63484,2,0,L|9:223,2,182.8125,0|0|0,3:0|0:0|0:0,0:0:0:0:
460,197,64143,5,8,3:0:0:0:
316,201,64308,1,0,0:0:0:0:
460,197,64473,1,8,0:0:0:0:
316,201,64638,1,0,0:0:0:0:
46,202,64803,2,0,L|176:195,1,121.875,0|0,3:0|3:0,0:0:0:0:
458,263,65132,2,0,P|470:201|366:132,1,182.8125,8|0,0:0|0:0,0:0:0:0:
217,130,65462,6,0,L|87:132,2,121.875,8|0|8,3:0|0:0|0:0,0:0:0:0:
369,159,65956,1,0,0:0:0:0:
213,140,66121,2,0,L|194:18,1,97.5,0|0,3:0|3:0,0:0:0:0:
345,29,66451,1,8,0:0:0:0:
208,45,66616,1,0,0:0:0:0:
435,197,66781,6,0,P|470:153|406:84,1,146.25,8|0,3:0|0:0,0:0:0:0:
239,104,67110,2,0,L|121:109,1,97.5,8|0,0:0|0:0,0:0:0:0:
376,190,67440,2,0,L|382:73,1,97.5,0|0,3:0|3:0,0:0:0:0:
236,91,67770,1,8,0:0:0:0:
381,63,67934,1,0,0:0:0:0:
92,183,68099,6,0,L|84:64,1,97.5,8|0,3:0|0:0,0:0:0:0:
310,117,68429,2,0,L|416:184,1,121.875,8|0,0:0|0:0,0:0:0:0:
163,142,68759,2,0,L|148:22,1,97.5,0|0,3:0|3:0,0:0:0:0:
311,48,69088,1,8,0:0:0:0:
149,42,69253,1,0,0:0:0:0:
445,175,69418,6,0,L|318:177,1,97.5,8|0,3:0|0:0,0:0:0:0:
185,163,69748,1,8,0:0:0:0:
347,176,69912,1,0,0:0:0:0:
106,186,70077,2,0,L|6:187,1,97.5,0|0,3:0|3:0,0:0:0:0:
292,193,70407,2,0,L|406:196,1,97.5,8|0,0:0|0:0,0:0:0:0:
130,233,70737,5,8,3:0:0:0:
80,208,70819,1,0,0:0:0:0:
82,153,70901,1,8,0:0:0:0:
134,133,70984,1,8,0:0:0:0:
276,181,71066,2,0,L|281:110,1,58.4999982147217,8|8,0:0|0:0,0:0:0:0:
231,86,71231,2,0,L|158:102,1,58.4999982147217,8|8,0:0|0:0,0:0:0:0:
334,227,71396,5,0,3:0:0:0:
382,199,71478,1,0,3:0:0:0:
378,143,71560,1,0,3:0:0:0:
327,122,71643,1,0,3:0:0:0:
185,89,71726,2,0,L|106:93,1,58.4999982147217,0|0,3:0|3:0,0:0:0:0:
285,61,71890,2,0,L|358:65,1,58.4999982147217,0|0,3:0|3:0,0:0:0:0:
169,255,72055,6,0,P|115:219|191:127,1,195,6|0,1:0|0:0,0:0:0:0:
260,112,72550,1,0,0:0:0:0:
404,221,72715,2,0,P|451:178|377:77,1,195
308,66,73209,1,0,0:0:0:0:
59,220,73374,6,0,P|9:175|96:93,1,194.512491986332,6|0,1:0|0:0,0:0:0:0:
272,235,73704,2,0,L|275:157,1,64.8374973287774,8|8,0:0|0:0,0:0:0:0:
218,144,73868,2,0,L|138:184,1,64.8374973287774,8|8,0:0|0:0,0:0:0:0:
312,106,74033,2,0,L|406:144,1,64.8374973287774,8|0,0:0|0:0,0:0:0:0:
224,50,74198,2,0,L|139:78,1,64.8374973287774,0|0,3:0|3:0,0:0:0:0:
361,216,74363,2,0,P|419:158|356:52,1,219.375008368492,8|0,0:0|0:0,0:0:0:0:
197,148,74693,5,12,3:0:0:0:
99,128,74857,2,0,L|90:18,1,97.5,0|8,0:0|0:0,0:0:0:0:
262,51,75187,1,0,3:0:0:0:
35,225,75352,2,0,L|24:105,1,97.5,8|0,0:0|3:0,0:0:0:0:
266,74,75682,1,8,0:0:0:0:
129,89,75847,1,0,3:0:0:0:
370,196,76011,6,0,L|480:197,1,97.5,8|0,0:0|3:0,0:0:0:0:
151,228,76341,2,0,P|110:187|166:83,1,185.737498582935,8|0,0:0|0:0,0:0:0:0:
336,160,76671,2,0,L|437:263,1,123.82499905529,8|0,0:0|3:0,0:0:0:0:
270,275,77000,1,8,0:0:0:0:
422,248,77165,1,0,3:0:0:0:
175,142,77330,5,8,0:0:0:0:
422,153,77495,2,0,L|296:194,2,123.82499905529,0|8|0,3:0|0:0|3:0,0:0:0:0:
181,137,77989,2,0,L|61:189,1,123.82499905529,8|0,0:0|3:0,0:0:0:0:
325,136,78319,2,0,L|424:217,1,123.82499905529,8|0,0:0|3:0,0:0:0:0:
126,218,78649,6,0,L|113:91,1,123.82499905529,8|0,0:0|3:0,0:0:0:0:
377,78,78978,2,0,L|394:211,1,123.82499905529,8|0,0:0|3:0,0:0:0:0:
155,213,79308,2,0,P|107:170|171:73,1,185.737498582935,8|0,0:0|0:0,0:0:0:0:
363,142,79638,2,0,L|461:236,1,123.82499905529,8|0,0:0|3:0,0:0:0:0:
195,166,79967,5,8,0:0:0:0:
419,161,80132,2,0,L|285:246,2,123.82499905529,0|8|0,3:0|0:0|3:0,0:0:0:0:
105,126,80627,2,0,L|89:279,1,123.82499905529,8|0,0:0|3:0,0:0:0:0:
269,147,80956,2,0,L|391:207,1,123.82499905529,8|0,0:0|3:0,0:0:0:0:
119,250,81286,6,0,P|68:199|129:43,1,247.64999811058,8|8,0:0|0:0,0:0:0:0:
216,62,81781,1,0,3:0:0:0:
456,175,81945,2,0,L|464:47,1,123.82499905529,8|0,0:0|3:0,0:0:0:0:
209,117,82275,2,0,L|101:199,1,123.82499905529,8|8,0:0|0:0,0:0:0:0:
209,117,82605,6,0,L|318:116,2,97.5
307,116,83099,2,0,L|431:116,2,97.5
202,130,83594,2,0,L|198:15,1,97.5
295,60,83923,6,0,L|401:65,3,97.5
131,187,84583,2,0,L|121:76,1,97.5,8|0,0:0|0:0,0:0:0:0:
369,105,84912,1,12,3:0:0:0:
110,70,85077,5,12,3:0:0:0:
256,192,85242,12,0,93154,0:0:0:0:
