osu file format v14

[General]
AudioFilename: audio.mp3
AudioLeadIn: 0
PreviewTime: 50132
Countdown: 0
SampleSet: Soft
StackLeniency: 0.3
Mode: 2
LetterboxInBreaks: 0
WidescreenStoryboard: 1

[Editor]
Bookmarks: 847,11396,11890,13704,82440,84583,93154
DistanceSpacing: 1.5
BeatDivisor: 4
GridSize: 4
TimelineZoom: 2

[Metadata]
Title:Haruka Mirai (TV Size)
TitleUnicode:ハルカミライ (TV Size)
Artist:Kankaku Piero
ArtistUnicode:感覚ピエロ
Creator:Secre
Version:Cup
Source:ブラッククローバー
Tags:chickenbible BLACK CLOVER Opening 1 one TVアニメver. japanese anime yuki yuuki tabata jrock j-rock rock
BeatmapID:2913878
BeatmapSetID:1252821

[Difficulty]
HPDrainRate:2
CircleSize:3
OverallDifficulty:6
ApproachRate:6
SliderMultiplier:1.52
SliderTickRate:1

[Events]
//Background and Video events
0,0,"haruka mirai starts playing when en gen 2 is released.jpg",0,0
//Break Periods
//Storyboard Layer 0 (Background)
//Storyboard Layer 1 (Fail)
//Storyboard Layer 2 (Pass)
//Storyboard Layer 3 (Foreground)
//Storyboard Layer 4 (Overlay)
//Storyboard Sound Samples

[TimingPoints]
847,329.67032967033,4,2,2,80,1,0
847,-100,4,2,2,80,0,0
13704,-100,4,2,2,60,0,0
14033,-100,4,2,2,70,0,0
24583,-100,4,2,2,50,0,0
29198,-100,4,2,2,50,0,0
29363,-100,4,2,2,50,0,0
29693,-100,4,2,2,60,0,0
32495,-100,4,2,2,50,0,0
37110,-100,4,2,2,50,0,0
37275,-100,4,2,2,50,0,0
37605,-100,4,2,2,60,0,0
39748,-100,4,2,2,60,0,0
40407,-100,4,2,2,70,0,0
46836,-100,4,2,2,60,0,0
48319,-100,4,2,2,80,0,0
50956,-100,4,2,2,80,0,1
51286,-100,4,2,2,90,0,1
51616,-100,4,2,2,80,0,1
52934,-100,4,2,2,80,0,1
53923,-100,4,2,2,80,0,1
61506,-100,4,2,2,80,0,1
61836,-100,4,2,2,90,0,1
62165,-100,4,2,2,80,0,1
63484,-100,4,2,2,80,0,1
65792,-100,4,2,2,80,0,1
68429,-100,4,2,2,80,0,1
68759,-100,4,2,2,80,0,1
70737,-100,4,2,2,80,0,1
72055,-100,4,2,2,70,0,0
73374,-100,4,2,2,70,0,0
74363,-100,4,2,2,60,0,0
74693,-100,4,2,2,70,0,1
76341,-100,4,2,2,70,0,1
82605,-100,4,2,2,60,0,0
85160,-100,4,2,2,5,0,0

[Colours]
Combo1 : 132,189,81
Combo2 : 171,147,97
Combo3 : 201,198,54
Combo4 : 148,148,148

[HitObjects]
308,188,517,5,0,0:0:0:0:
170,171,847,5,6,1:0:0:0:
102,171,1011,1,0,0:0:0:0:
170,171,1176,1,8,3:0:0:0:
318,167,1506,1,0,3:0:0:0:
319,91,1670,1,8,3:0:0:0:
169,94,2000,5,0,3:0:0:0:
162,18,2164,1,8,3:0:0:0:
311,81,2495,1,0,3:0:0:0:
313,5,2659,1,8,3:0:0:0:
169,94,2989,1,8,0:0:0:0:
101,95,3153,1,8,0:0:0:0:
169,94,3319,1,8,0:0:0:0:
238,80,3484,5,0,3:0:0:0:
386,155,3814,1,8,3:0:0:0:
386,79,3978,1,0,3:0:0:0:
251,120,4308,1,8,3:0:0:0:
182,121,4472,1,0,3:0:0:0:
324,217,4803,5,8,3:0:0:0:
327,141,4967,1,0,3:0:0:0:
180,89,5297,1,8,3:0:0:0:
113,90,5461,1,0,3:0:0:0:
181,165,5627,1,8,0:0:0:0:
249,162,5791,1,8,0:0:0:0:
181,165,5956,1,8,0:0:0:0:
113,153,6121,5,0,3:0:0:0:
251,218,6451,1,8,3:0:0:0:
254,142,6615,1,0,3:0:0:0:
399,144,6945,1,8,3:0:0:0:
403,68,7109,1,0,3:0:0:0:
252,92,7440,5,8,3:0:0:0:
251,16,7604,1,0,3:0:0:0:
101,128,7934,1,8,3:0:0:0:
91,52,8098,1,0,3:0:0:0:
164,56,8264,1,8,0:0:0:0:
233,56,8428,1,8,0:0:0:0:
164,56,8594,1,8,0:0:0:0:
91,91,8759,5,0,3:0:0:0:
239,177,9088,1,8,3:0:0:0:
307,176,9252,1,0,3:0:0:0:
181,81,9583,1,8,3:0:0:0:
112,83,9747,1,0,3:0:0:0:
246,199,10077,5,8,3:0:0:0:
313,197,10241,1,0,3:0:0:0:
246,199,10407,1,8,0:0:0:0:
178,190,10572,1,8,0:0:0:0:
321,176,10901,2,0,P|368:148|305:76,1,152,8|8,0:0|0:0,0:0:0:0:
259,68,11396,5,0,0:0:0:0:
256,192,11726,12,8,13704,3:0:0:0:
302,239,14033,5,12,3:0:0:0:
369,218,14197,1,0,0:0:0:0:
366,148,14362,1,8,0:0:0:0:
297,134,14527,1,0,0:0:0:0:
153,189,14857,1,0,3:0:0:0:
147,113,15021,1,8,0:0:0:0:
300,101,15352,5,8,3:0:0:0:
369,98,15516,1,0,0:0:0:0:
300,101,15682,1,8,0:0:0:0:
155,170,16011,1,8,3:0:0:0:
148,94,16175,1,8,3:0:0:0:
222,73,16341,1,8,0:0:0:0:
369,187,16671,5,12,3:0:0:0:
370,111,16835,1,0,0:0:0:0:
296,109,17000,1,8,0:0:0:0:
294,33,17164,1,0,0:0:0:0:
436,109,17495,1,0,3:0:0:0:
440,33,17659,1,8,0:0:0:0:
294,221,17989,5,8,3:0:0:0:
363,216,18153,1,0,0:0:0:0:
434,212,18318,1,8,0:0:0:0:
301,144,18649,5,8,3:0:0:0:
234,147,18813,1,8,3:0:0:0:
301,144,18978,1,8,0:0:0:0:
153,245,19308,5,12,3:0:0:0:
86,224,19472,1,0,0:0:0:0:
89,154,19637,1,8,0:0:0:0:
158,140,19802,1,0,0:0:0:0:
302,195,20132,1,0,3:0:0:0:
308,119,20296,1,8,0:0:0:0:
155,107,20627,5,8,3:0:0:0:
86,104,20791,1,0,0:0:0:0:
155,107,20957,1,8,0:0:0:0:
300,176,21286,1,8,3:0:0:0:
307,100,21450,1,8,3:0:0:0:
233,79,21616,1,8,0:0:0:0:
86,193,21946,5,12,3:0:0:0:
84,117,22110,1,0,0:0:0:0:
159,115,22275,1,8,0:0:0:0:
160,39,22439,1,0,0:0:0:0:
19,115,22770,1,8,0:0:0:0:
14,39,22934,1,8,0:0:0:0:
161,227,23264,5,0,0:0:0:0:
92,224,23428,1,8,3:0:0:0:
18,220,23593,1,8,0:0:0:0:
92,224,23759,1,0,0:0:0:0:
154,150,23924,5,8,0:0:0:0:
154,150,24088,1,0,3:0:0:0:
82,146,24253,1,0,3:0:0:0:
231,189,24583,6,0,L|389:193,1,152,0|0,3:0|3:0,0:0:0:0:
231,189,25242,2,0,L|73:193,1,152,0|0,3:0|3:0,0:0:0:0:
236,165,25901,5,0,3:0:0:0:
304,164,26065,1,0,0:0:0:0:
236,165,26231,1,0,3:0:0:0:
168,161,26396,1,0,0:0:0:0:
312,119,26726,2,0,L|316:33,1,76,0|0,0:0|3:0,0:0:0:0:
245,36,27055,1,0,0:0:0:0:
315,32,27220,6,0,L|495:27,1,152,0|0,3:0|3:0,0:0:0:0:
324,206,27879,2,0,L|167:210,1,152,2|2,3:0|3:0,0:0:0:0:
324,241,28539,6,0,L|329:78,1,152,2|2,3:0|3:0,0:0:0:0:
259,86,29033,1,0,0:0:0:0:
328,89,29198,1,8,0:0:0:0:
396,87,29362,1,8,0:0:0:0:
248,196,29693,6,0,L|88:197,1,152,6|0,1:0|3:0,0:0:0:0:
236,243,30352,2,0,L|235:142,1,76,0|0,0:0|3:0,0:0:0:0:
164,162,30682,1,0,3:0:0:0:
312,116,31011,6,0,L|491:116,1,152,6|0,1:0|3:0,0:0:0:0:
310,183,31671,1,8,3:0:0:0:
236,190,31836,2,0,L|234:-1,1,152,0|8,0:0|0:0,0:0:0:0:
390,85,32495,6,0,L|205:88,1,152,0|0,3:0|3:0,0:0:0:0:
393,216,33154,2,0,L|392:52,1,152,0|0,3:0|3:0,0:0:0:0:
240,245,33814,6,0,L|31:245,1,152,0|0,3:0|3:0,0:0:0:0:
164,179,34308,1,0,0:0:0:0:
314,142,34638,1,0,0:0:0:0:
385,141,34802,1,0,3:0:0:0:
314,142,34967,1,0,0:0:0:0:
232,157,35132,6,0,L|74:156,1,152,0|0,3:0|3:0,0:0:0:0:
231,217,35792,2,0,L|230:46,1,152,0|0,3:0|3:0,0:0:0:0:
156,62,36286,1,8,0:0:0:0:
229,63,36451,6,0,L|400:60,1,152,8|0,0:0|3:0,0:0:0:0:
237,189,37110,1,8,0:0:0:0:
168,191,37274,1,8,0:0:0:0:
315,211,37605,6,0,L|315:53,1,152,8|0,3:0|3:0,0:0:0:0:
244,54,38099,1,8,0:0:0:0:
101,157,38429,1,0,3:0:0:0:
99,81,38593,1,0,3:0:0:0:
171,58,38759,1,8,0:0:0:0:
240,138,38923,6,0,L|398:132,1,152,8|0,3:0|3:0,0:0:0:0:
323,206,39418,1,8,0:0:0:0:
180,147,39748,1,0,0:0:0:0:
315,125,40077,1,8,0:0:0:0:
315,49,40241,1,0,3:0:0:0:
247,41,40407,5,8,3:0:0:0:
180,38,40571,1,8,3:0:0:0:
316,167,40901,2,0,L|488:162,2,152,8|8|8,3:0|3:0|3:0,0:0:0:0:
177,204,41890,5,0,3:0:0:0:
245,201,42054,1,8,0:0:0:0:
315,201,42219,1,0,3:0:0:0:
177,204,42550,1,0,3:0:0:0:
171,128,42714,1,8,0:0:0:0:
321,114,43044,5,8,3:0:0:0:
390,113,43208,1,8,3:0:0:0:
249,206,43539,2,0,L|88:206,2,152,8|8|8,3:0|3:0|3:0,0:0:0:0:
395,176,44528,5,0,3:0:0:0:
399,100,44692,1,8,0:0:0:0:
326,78,44857,1,0,0:0:0:0:
182,151,45187,1,0,0:0:0:0:
249,149,45351,1,0,3:0:0:0:
118,219,45682,5,8,3:0:0:0:
108,143,45846,1,8,3:0:0:0:
251,111,46176,2,0,L|84:114,2,152,8|8|8,3:0|3:0|3:0,0:0:0:0:
391,195,47165,5,0,3:0:0:0:
395,119,47329,1,8,0:0:0:0:
325,102,47495,1,0,3:0:0:0:
256,136,47660,2,0,L|119:137,2,114,8|8|8,0:0|0:0|0:0,0:0:0:0:
323,84,48319,5,8,3:0:0:0:
435,84,48566,1,8,3:0:0:0:
323,84,48814,1,8,3:0:0:0:
254,91,48978,1,8,0:0:0:0:
145,94,49226,1,8,3:0:0:0:
254,91,49473,1,8,3:0:0:0:
326,195,49638,6,0,L|327:73,1,114,8|8,3:0|3:0,0:0:0:0:
225,113,50132,1,8,3:0:0:0:
294,110,50297,2,0,L|443:106,2,114,8|8|8,0:0|0:0|0:0,0:0:0:0:
221,147,50956,5,12,3:0:0:0:
360,203,51286,2,0,P|360:141|277:104,1,152,6|0,1:0|3:0,0:0:0:0:
141,177,51945,1,8,0:0:0:0:
141,101,52109,1,0,0:0:0:0:
214,92,52275,6,0,L|373:90,1,152,8|8,3:0|0:0,0:0:0:0:
217,207,52934,2,0,L|84:206,2,114,0|0|0,3:0|0:0|0:0,0:0:0:0:
296,196,53594,6,0,L|298:27,1,152,8|8,3:0|0:0,0:0:0:0:
157,115,54253,2,0,L|331:111,1,152,0|8,3:0|0:0,0:0:0:0:
161,190,54912,5,8,3:0:0:0:
94,193,55076,1,0,0:0:0:0:
161,190,55242,1,8,0:0:0:0:
309,115,55572,1,0,3:0:0:0:
242,115,55736,1,0,3:0:0:0:
174,115,55901,1,8,0:0:0:0:
311,208,56231,6,0,L|473:207,1,152,8|8,3:0|0:0,0:0:0:0:
326,242,56890,1,0,3:0:0:0:
326,166,57054,1,0,3:0:0:0:
397,135,57220,1,8,0:0:0:0:
256,122,57550,6,0,L|74:124,1,152,8|8,3:0|0:0,0:0:0:0:
256,122,58209,2,0,L|74:124,1,152,0|8,3:0|0:0,0:0:0:0:
249,212,58868,5,8,3:0:0:0:
325,212,59032,1,0,0:0:0:0:
249,212,59198,1,8,0:0:0:0:
106,180,59528,1,0,3:0:0:0:
98,104,59692,1,0,3:0:0:0:
168,88,59857,1,8,0:0:0:0:
235,95,60022,6,0,L|389:94,1,152,0|0,3:0|3:0,0:0:0:0:
310,168,60517,1,8,0:0:0:0:
170,227,60847,2,0,L|313:225,2,114,0|8|8,3:0|0:0|0:0,0:0:0:0:
99,179,61506,5,0,3:0:0:0:
238,154,61836,2,0,L|412:149,1,152,6|0,1:0|3:0,0:0:0:0:
251,259,62495,1,8,0:0:0:0:
253,183,62659,1,0,0:0:0:0:
329,165,62825,6,0,L|335:2,1,152,8|8,3:0|0:0,0:0:0:0:
194,59,63484,2,0,L|55:60,2,114,0|0|0,3:0|0:0|0:0,0:0:0:0:
266,111,64143,5,8,3:0:0:0:
266,35,64307,1,0,0:0:0:0:
199,40,64473,1,8,0:0:0:0:
337,162,64803,1,0,3:0:0:0:
412,162,64967,1,0,3:0:0:0:
488,162,65132,1,8,0:0:0:0:
343,245,65462,6,0,L|191:243,1,152,8|8,3:0|0:0,0:0:0:0:
343,245,66121,2,0,L|347:85,1,152,0|8,3:0|0:0,0:0:0:0:
276,82,66616,1,0,0:0:0:0:
207,78,66781,6,0,L|46:81,1,152,8|8,3:0|0:0,0:0:0:0:
201,152,67440,1,0,3:0:0:0:
202,76,67604,1,0,3:0:0:0:
131,72,67770,1,8,0:0:0:0:
280,231,68099,6,0,L|435:230,1,152,8|8,3:0|0:0,0:0:0:0:
280,231,68759,2,0,L|129:234,1,152,0|8,3:0|0:0,0:0:0:0:
280,231,69418,6,0,L|129:234,1,152,8|8,3:0|0:0,0:0:0:0:
201,159,69912,1,0,0:0:0:0:
344,143,70242,1,0,3:0:0:0:
345,67,70406,1,8,0:0:0:0:
198,240,70737,6,0,L|356:240,1,152,8|8,3:0|0:0,0:0:0:0:
198,239,71396,2,0,L|187:67,1,152,0|0,3:0|3:0,0:0:0:0:
260,64,71890,1,0,3:0:0:0:
331,61,72055,5,6,1:0:0:0:
146,167,72715,1,0,0:0:0:0:
369,150,73374,5,6,1:0:0:0:
231,178,73704,1,8,0:0:0:0:
231,102,73868,1,8,0:0:0:0:
303,85,74033,1,8,0:0:0:0:
304,9,74197,1,0,3:0:0:0:
233,80,74363,1,8,0:0:0:0:
370,187,74693,6,0,L|371:23,1,152,12|8,3:0|0:0,0:0:0:0:
233,80,75352,2,0,L|69:87,1,152,8|8,0:0|0:0,0:0:0:0:
230,200,76011,6,0,L|386:190,1,152,8|8,0:0|0:0,0:0:0:0:
231,122,76671,1,8,0:0:0:0:
227,46,76835,1,0,3:0:0:0:
300,67,77000,1,8,0:0:0:0:
303,0,77164,1,0,3:0:0:0:
234,25,77330,6,0,L|79:30,1,152,8|8,0:0|0:0,0:0:0:0:
220,152,77989,2,0,L|378:148,1,152,8|8,0:0|0:0,0:0:0:0:
220,152,78649,6,0,L|216:-5,1,152,8|8,0:0|0:0,0:0:0:0:
353,69,79308,1,8,0:0:0:0:
355,0,79472,1,0,3:0:0:0:
286,16,79638,1,8,0:0:0:0:
143,193,79967,6,0,L|306:189,1,152,8|8,0:0|0:0,0:0:0:0:
142,194,80627,2,0,L|136:12,1,152,8|8,0:0|0:0,0:0:0:0:
277,53,81286,6,0,L|106:52,1,152,8|8,0:0|0:0,0:0:0:0:
277,57,81945,2,0,L|461:57,1,152,8|8,0:0|0:0,0:0:0:0:
299,245,82605,5,0,0:0:0:0:
230,228,82769,1,0,0:0:0:0:
231,157,82934,1,0,0:0:0:0:
299,142,83099,1,0,0:0:0:0:
436,150,83429,1,0,0:0:0:0:
441,74,83593,1,0,0:0:0:0:
305,72,83923,5,0,0:0:0:0:
370,110,84087,1,0,0:0:0:0:
435,149,84252,1,0,0:0:0:0:
298,208,84583,1,8,0:0:0:0:
292,132,84747,1,0,0:0:0:0:
361,114,84912,1,12,3:0:0:0:
292,132,85077,5,12,3:0:0:0:
256,192,85407,12,0,93154,0:0:0:0:
