osu file format v14

[General]
AudioFilename: Kankaku Piero - Haruka Mirai (TV Anime ver.).mp3
AudioLeadIn: 0
PreviewTime: 50132
Countdown: 0
SampleSet: Soft
StackLeniency: 0.3
Mode: 0
LetterboxInBreaks: 0
WidescreenStoryboard: 0

[Editor]
Bookmarks: 847,11396,13704,82440,84583,93154
DistanceSpacing: 1.5
BeatDivisor: 4
GridSize: 4
TimelineZoom: 2

[Metadata]
Title:Haruka Mirai (TV Size)
TitleUnicode:ハルカミライ (TV Size)
Artist:Kankaku Piero
ArtistUnicode:感覚ピエロ
Creator:Gero
Version:Extra
Source:ブラッククローバー
Tags:ShogunMoon Shunao ezek InternalLight Kalibe ChuuritsuTv Sotarks BLACK CLOVER Opening TVアニメver.
BeatmapID:1790044
BeatmapSetID:750743

[Difficulty]
HPDrainRate:5
CircleSize:4
OverallDifficulty:8
ApproachRate:9.3
SliderMultiplier:1.8
SliderTickRate:1

[Events]
//Background and Video events
Video,0,"Video.avi"
0,0,"BGeroExtra.jpg",0,0
//Break Periods
2,11596,13150
2,82640,84029
//Storyboard Layer 0 (Background)
//Storyboard Layer 1 (Fail)
//Storyboard Layer 2 (Pass)
//Storyboard Layer 3 (Foreground)
//Storyboard Sound Samples

[TimingPoints]
847,329.67032967033,4,2,22,82,1,0
847,-100,4,2,22,82,0,0
1094,-100,4,2,22,5,0,0
1176,-100,4,2,22,82,0,0
13704,-200,4,2,22,62,0,0
13951,-200,4,2,22,5,0,0
14033,-100,4,2,22,72,0,0
24583,-142.857142857143,4,2,22,52,0,0
29198,-66.6666666666667,4,2,22,52,0,0
29281,-66.6666666666667,4,2,22,5,0,0
29363,-200,4,2,22,52,0,0
29610,-200,4,2,22,5,0,0
29693,-83.3333333333333,4,2,22,62,0,0
32495,-142.857142857143,4,2,22,52,0,0
37110,-66.6666666666667,4,2,22,52,0,0
37193,-66.6666666666667,4,2,22,5,0,0
37275,-200,4,2,22,52,0,0
37522,-200,4,2,22,5,0,0
37605,-83.3333333333333,4,2,22,62,0,0
40407,-100,4,2,22,72,0,0
45682,-100,4,2,22,62,0,0
48319,-83.3333333333333,4,2,22,82,0,0
48484,-83.3333333333333,4,2,22,5,0,0
48566,-83.3333333333333,4,2,22,82,0,0
48731,-83.3333333333333,4,2,22,5,0,0
48814,-83.3333333333333,4,2,22,82,0,0
48896,-83.3333333333333,4,2,22,5,0,0
48978,-83.3333333333333,4,2,22,82,0,0
49143,-83.3333333333333,4,2,22,5,0,0
49226,-83.3333333333333,4,2,22,82,0,0
49390,-83.3333333333333,4,2,22,5,0,0
49473,-83.3333333333333,4,2,22,82,0,0
49555,-83.3333333333333,4,2,22,5,0,0
49638,-83.3333333333333,4,2,22,82,0,0
49803,-83.3333333333333,4,2,22,5,0,0
49885,-83.3333333333333,4,2,22,82,0,0
50050,-83.3333333333333,4,2,22,5,0,0
50132,-83.3333333333333,4,2,22,82,0,0
50215,-83.3333333333333,4,2,22,5,0,0
50297,-83.3333333333333,4,2,22,82,0,0
50956,-142.857142857143,4,2,22,82,0,1
51204,-142.857142857143,4,2,22,5,0,1
51286,-100,4,2,22,92,0,1
51533,-100,4,2,22,5,0,1
51616,-100,4,2,22,82,0,1
52522,-100,4,2,22,5,0,1
52605,-100,4,2,22,82,0,1
52852,-100,4,2,22,5,0,1
52934,-100,4,2,22,82,0,1
53841,-100,4,2,22,5,0,1
53923,-100,4,2,22,82,0,1
54171,-100,4,2,22,5,0,1
54253,-100,4,2,22,82,0,1
55160,-100,4,2,22,5,0,1
55242,-100,4,2,22,82,0,1
55489,-100,4,2,22,5,0,1
55572,-100,4,2,22,82,0,1
56478,-100,4,2,22,5,0,1
56561,-100,4,2,22,82,0,1
56808,-100,4,2,22,5,0,1
56890,-100,4,2,22,82,0,1
57797,-100,4,2,22,5,0,1
57879,-100,4,2,22,82,0,1
58127,-100,4,2,22,5,0,1
58209,-100,4,2,22,82,0,1
61423,-100,4,2,22,82,0,0
61506,-142.857142857143,4,2,22,82,0,1
61753,-142.857142857143,4,2,22,5,0,1
61836,-100,4,2,22,92,0,1
62083,-100,4,2,22,5,0,1
62165,-100,4,2,22,82,0,1
63072,-100,4,2,22,5,0,1
63154,-100,4,2,22,82,0,1
65709,-100,4,2,22,5,0,1
65792,-100,4,2,22,82,0,1
67028,-100,4,2,22,5,0,1
67110,-100,4,2,22,82,0,1
67357,-100,4,2,22,5,0,1
67440,-100,4,2,22,82,0,1
68347,-100,4,2,22,5,0,1
68429,-100,4,2,22,82,0,1
68676,-100,4,2,22,5,0,1
68759,-100,4,2,22,82,0,1
72055,-100,4,2,22,72,0,0
74363,-66.6666666666667,4,2,22,62,0,0
74610,-100,4,2,22,5,0,0
74693,-100,4,2,22,72,0,1
82605,-100,4,2,22,62,0,0
85160,-100,4,2,69,5,0,0

[Colours]
Combo1 : 132,189,81
Combo2 : 171,147,97
Combo3 : 201,198,54
Combo4 : 148,148,148

[HitObjects]
128,20,847,6,0,B|160:0|188:16|192:20|196:24|224:40|256:20,1,135,6|0,1:0|0:0,0:0:0:0:
344,40,1176,6,0,B|354:84|354:84|344:128,1,90,10|0,0:0|1:0,0:0:0:0:
167,256,1506,1,0,1:0:0:0:
425,146,1671,6,0,B|401:184|401:184|363:208,1,90,10|0,0:0|1:0,0:0:0:0:
149,175,2000,1,0,1:0:0:0:
408,280,2165,6,0,B|364:290|364:290|320:280,1,90,10|0,0:0|1:0,0:0:0:0:
191,103,2495,1,0,1:0:0:0:
301,361,2660,6,0,B|263:337|263:337|239:299,1,90,10|0,0:0|1:0,0:0:0:0:
273,85,2989,1,10,0:0:0:0:
273,85,3154,1,8,0:0:0:0:
238,298,3319,1,8,0:0:0:0:
344,40,3484,6,0,B|354:84|354:84|344:128,1,90,2|0,1:0|1:0,0:0:0:0:
168,344,3814,6,0,B|158:300|158:300|168:256,1,90,10|0,0:0|1:0,0:0:0:0:
344,127,4143,1,0,1:0:0:0:
87,238,4308,6,0,B|111:200|111:200|149:176,1,90,10|0,0:0|1:0,0:0:0:0:
362,208,4638,1,0,1:0:0:0:
104,104,4803,6,0,B|148:94|148:94|192:104,1,90,10|0,0:0|1:0,0:0:0:0:
320,280,5132,1,0,1:0:0:0:
211,23,5297,6,0,B|249:47|249:47|273:85,1,90,10|0,0:0|1:0,0:0:0:0:
238,298,5627,1,10,0:0:0:0:
238,298,5792,1,8,0:0:0:0:
273,85,5956,1,8,0:0:0:0:
168,344,6121,6,0,B|158:300|158:300|168:256,1,90,2|0,1:0|1:0,0:0:0:0:
344,40,6451,6,0,B|354:84|354:84|344:128,1,90,10|0,0:0|1:0,0:0:0:0:
167,256,6781,1,0,1:0:0:0:
425,146,6945,6,0,B|401:184|401:184|363:208,1,90,10|0,0:0|1:0,0:0:0:0:
149,175,7275,1,0,1:0:0:0:
408,280,7440,6,0,B|364:290|364:290|320:280,1,90,10|0,0:0|1:0,0:0:0:0:
191,103,7770,1,0,1:0:0:0:
301,361,7934,6,0,B|263:337|263:337|239:299,1,90,10|0,0:0|1:0,0:0:0:0:
273,85,8264,1,10,0:0:0:0:
273,85,8429,1,8,0:0:0:0:
238,298,8594,1,8,0:0:0:0:
344,40,8759,6,0,B|354:84|354:84|344:128,1,90,2|0,1:0|1:0,0:0:0:0:
168,344,9088,6,0,B|158:300|158:300|168:256,1,90,10|0,0:0|1:0,0:0:0:0:
344,127,9418,1,0,1:0:0:0:
87,238,9583,6,0,B|111:200|111:200|149:176,1,90,10|0,0:0|1:0,0:0:0:0:
362,208,9912,1,0,1:0:0:0:
104,104,10077,6,0,B|148:94|148:94|192:104,1,90,10|0,0:0|1:0,0:0:0:0:
320,280,10407,1,10,0:0:0:0:
211,23,10572,5,0,1:0:0:0:
223,31,10654,1,0,1:0:0:0:
235,39,10737,1,8,0:0:0:0:
301,361,10901,5,8,0:0:0:0:
289,353,10984,1,8,0:0:0:0:
277,345,11066,1,8,0:0:0:0:
265,337,11149,1,8,0:0:0:0:
253,329,11231,1,8,0:0:0:0:
241,321,11314,1,8,0:0:0:0:
229,313,11396,5,0,0:0:0:0:
214,304,13704,6,0,B|234:331|234:331|214:358,1,67.5,8|0,3:0|0:0,0:0:0:0:
172,233,14033,6,0,P|214:219|256:233,1,90,6|0,1:0|0:0,0:0:0:0:
130,304,14363,1,10,0:0:0:0:
88,233,14528,1,2,0:0:0:0:
214,304,14693,1,0,1:0:0:0:
130,162,14857,1,10,3:0:0:0:
46,304,15022,2,0,P|88:318|130:304,1,90,10|0,0:0|0:0,0:0:0:0:
340,233,15352,6,0,P|298:219|256:233,1,90,6|2,1:0|0:0,0:0:0:0:
382,304,15682,1,8,0:0:0:0:
424,233,15847,1,2,0:0:0:0:
298,304,16011,1,2,1:0:0:0:
382,162,16176,1,0,1:0:0:0:
466,304,16341,2,0,P|424:318|382:304,1,90,10|0,0:0|0:0,0:0:0:0:
172,162,16671,6,0,B|214:146|214:146|256:162,1,90,6|0,1:0|0:0,0:0:0:0:
130,233,17000,1,10,0:0:0:0:
88,162,17165,1,2,0:0:0:0:
214,233,17330,1,0,1:0:0:0:
130,91,17495,1,10,3:0:0:0:
46,233,17660,2,0,B|88:249|88:249|130:233,1,90,10|0,0:0|0:0,0:0:0:0:
340,162,17989,6,0,B|298:146|298:146|256:162,1,90,2|2,1:0|0:0,0:0:0:0:
382,233,18319,1,8,0:0:0:0:
424,162,18484,1,2,0:0:0:0:
298,233,18649,1,2,1:0:0:0:
382,91,18814,1,0,1:0:0:0:
466,233,18978,2,0,B|424:249|424:249|382:233,1,90,10|10,0:0|3:0,0:0:0:0:
172,91,19308,6,0,P|214:77|256:91,1,90,6|0,1:0|0:0,0:0:0:0:
130,162,19638,1,10,0:0:0:0:
88,91,19803,1,2,0:0:0:0:
214,162,19967,1,0,1:0:0:0:
130,20,20132,1,10,3:0:0:0:
46,162,20297,2,0,P|88:176|130:162,1,90,10|0,0:0|0:0,0:0:0:0:
340,91,20627,6,0,P|298:77|256:91,1,90,6|2,1:0|0:0,0:0:0:0:
382,162,20956,1,8,0:0:0:0:
424,91,21121,1,2,0:0:0:0:
298,162,21286,1,6,1:0:0:0:
382,20,21451,1,0,1:0:0:0:
466,162,21616,2,0,P|424:176|382:162,1,90,10|0,0:0|0:0,0:0:0:0:
172,20,21945,6,0,B|214:4|214:4|256:20,1,90,6|0,1:0|0:0,0:0:0:0:
340,91,22275,1,10,0:0:0:0:
130,91,22440,2,0,B|172:75|172:75|214:91,1,90,2|0,0:0|1:0,0:0:0:0:
298,162,22770,5,10,0:0:0:0:
298,162,22852,1,8,0:0:0:0:
298,162,22934,2,0,B|282:204,1,45,8|8,0:0|0:0,0:0:0:0:
152,272,23099,6,0,B|198:244|234:268|238:272|242:276|278:300|324:272,1,180,6|10,1:0|3:0,0:0:0:0:
193,340,23594,1,10,0:0:0:0:
52,272,23759,5,0,0:0:0:0:
52,272,23841,1,8,0:0:0:0:
52,272,23923,1,10,0:0:0:0:
193,204,24088,1,8,3:0:0:0:
12,340,24253,1,6,3:0:0:0:
153,272,24418,1,4,3:0:0:0:
294,204,24583,6,0,B|354:184|354:184|414:204,1,125.999996154785,6|0,1:0|1:0,0:0:0:0:
482,138,25077,1,0,0:0:0:0:
414,72,25242,2,0,B|354:92|354:92|294:72,1,125.999996154785,2|0,1:0|1:0,0:0:0:0:
226,138,25737,1,2,0:0:0:0:
294,204,25901,6,0,P|302:234|294:264,1,62.9999980773926,2|0,1:0|0:0,0:0:0:0:
226,330,26231,1,2,1:0:0:0:
158,264,26396,2,0,P|150:234|158:204,1,62.9999980773926,2|0,0:0|1:0,0:0:0:0:
226,138,26726,1,2,0:0:0:0:
158,72,26890,1,2,1:0:0:0:
226,6,27055,5,2,0:0:0:0:
226,6,27138,1,0,0:0:0:0:
226,6,27220,2,0,B|261:41|261:41|269:44|269:44|264:49|264:49|272:52|272:52|308:88,1,125.999996154785,2|0,1:0|1:0,0:0:0:0:
354,5,27715,1,2,0:0:0:0:
400,89,27879,2,0,B|412:57|444:47|444:47|476:57|488:89,1,125.999996154785,2|0,1:0|1:0,0:0:0:0:
444,173,28374,1,2,0:0:0:0:
400,257,28539,6,0,B|394:288|394:288|400:319,1,62.9999980773926,2|0,1:0|0:0,0:0:0:0:
327,379,28868,1,2,1:0:0:0:
256,320,29033,1,2,0:0:0:0:
8,192,29198,6,0,P|40:183|72:192,1,67.5,8|0,0:0|0:0,0:0:0:0:
256,192,29363,6,0,B|224:203|224:203|192:192,1,67.5,4|0,1:0|0:0,0:0:0:0:
132,140,29693,6,0,B|146:192|146:192|132:244,1,107.999996704102,6|0,1:0|0:0,0:0:0:0:
42,93,30022,1,10,3:0:0:0:
132,244,30187,1,8,0:0:0:0:
222,93,30352,1,2,0:0:0:0:
8,192,30517,1,2,1:0:0:0:
132,46,30682,1,0,1:0:0:0:
256,192,30847,1,8,0:0:0:0:
380,46,31011,6,0,B|395:29|427:21|427:21|459:29|474:46,1,107.999996704102,6|0,1:0|0:0,0:0:0:0:
427,240,31341,1,10,3:0:0:0:
427,144,31506,1,8,0:0:0:0:
474,338,31671,2,0,B|459:355|427:363|427:363|395:355|380:338,1,107.999996704102,6|2,1:0|0:0,0:0:0:0:
256,244,32000,1,0,1:0:0:0:
256,244,32083,1,0,1:0:0:0:
256,244,32165,2,0,B|232:192|256:140,1,107.999996704102,10|0,0:0|0:0,0:0:0:0:
318,291,32495,6,0,B|256:280|256:280|194:291,1,125.999996154785,6|0,1:0|0:0,0:0:0:0:
120,348,32989,1,0,0:0:0:0:
120,348,33072,1,0,0:0:0:0:
120,348,33154,2,0,B|120:313|98:291|98:291|120:269|120:234,1,125.999996154785,2|0,1:0|1:0,0:0:0:0:
46,175,33649,1,2,0:0:0:0:
120,117,33814,6,0,B|145:117|145:117|181:117|208:88|208:52,1,125.999996154785,2|2,1:0|1:0,0:0:0:0:
303,51,34308,2,0,P|333:43|363:51,1,62.9999980773926,2|0,0:0|1:0,0:0:0:0:
431,117,34638,1,2,0:0:0:0:
499,52,34803,1,2,1:0:0:0:
431,117,34967,1,2,0:0:0:0:
499,182,35132,6,0,B|499:218|499:218|511:242|511:242|499:266|499:266|499:302,1,125.999996154785,6|0,1:0|1:0,0:0:0:0:
431,367,35627,1,2,0:0:0:0:
363,302,35792,2,0,B|363:266|363:266|351:242|351:242|363:218|363:218|363:182,1,125.999996154785,2|0,1:0|1:0,0:0:0:0:
431,117,36286,5,8,0:0:0:0:
431,117,36368,1,8,0:0:0:0:
431,117,36451,1,10,3:0:0:0:
499,182,36616,1,0,0:0:0:0:
295,116,36781,1,10,3:0:0:0:
363,181,36945,1,2,0:0:0:0:
159,115,37110,6,0,B|148:147|148:147|159:179,1,67.5,8|0,0:0|0:0,0:0:0:0:
159,363,37275,6,0,P|168:331|159:299,1,67.5,2|0,1:0|0:0,0:0:0:0:
107,239,37605,6,0,P|159:252|211:239,1,107.999996704102,6|0,1:0|0:0,0:0:0:0:
60,149,37934,1,10,3:0:0:0:
211,239,38099,1,10,0:0:0:0:
60,329,38264,1,2,0:0:0:0:
159,115,38429,1,2,1:0:0:0:
13,239,38594,1,0,1:0:0:0:
159,363,38759,1,8,0:0:0:0:
305,239,38923,6,0,B|312:208|330:192|330:192|312:176|305:145,1,107.999996704102,6|0,1:0|0:0,0:0:0:0:
111,192,39253,1,10,3:0:0:0:
207,192,39418,1,10,0:0:0:0:
13,145,39583,2,0,B|6:176|-12:192|-12:192|6:208|13:239,1,107.999996704102,6|0,1:0|0:0,0:0:0:0:
159,363,39912,1,0,1:0:0:0:
159,363,39995,1,0,1:0:0:0:
159,363,40077,1,8,0:0:0:0:
305,239,40242,1,2,0:0:0:0:
159,115,40407,5,2,1:0:0:0:
111,38,40572,1,10,3:0:0:0:
63,115,40737,1,8,0:0:0:0:
207,38,40901,1,2,1:0:0:0:
111,192,41066,5,0,0:0:0:0:
15,38,41231,1,10,3:0:0:0:
111,212,41396,1,8,0:0:0:0:
207,38,41561,1,6,1:0:0:0:
303,192,41726,6,0,P|314:235|303:278,1,90,0|8,0:0|3:0,0:0:0:0:
256,363,41973,1,0,1:0:0:0:
256,363,42055,1,10,0:0:0:0:
402,239,42220,1,2,1:0:0:0:
353,363,42385,1,8,0:0:0:0:
207,239,42550,1,2,1:0:0:0:
337,131,42715,5,10,0:0:0:0:
341,127,42797,1,0,0:0:0:0:
345,123,42879,1,10,0:0:0:0:
349,119,42962,1,8,0:0:0:0:
353,115,43044,5,2,1:0:0:0:
401,38,43209,1,10,3:0:0:0:
449,115,43374,1,8,0:0:0:0:
305,38,43538,1,2,1:0:0:0:
401,192,43703,5,0,0:0:0:0:
497,38,43868,1,10,3:0:0:0:
401,212,44033,1,8,0:0:0:0:
305,38,44198,1,6,1:0:0:0:
209,192,44363,6,0,P|198:235|209:278,1,90,0|8,0:0|3:0,0:0:0:0:
256,363,44610,1,0,1:0:0:0:
256,363,44692,1,10,0:0:0:0:
110,239,44857,1,2,0:0:0:0:
159,363,45022,1,0,1:0:0:0:
305,239,45187,5,2,0:0:0:0:
309,235,45269,1,0,0:0:0:0:
313,231,45351,1,2,1:0:0:0:
317,227,45434,1,0,0:0:0:0:
321,223,45516,1,10,0:0:0:0:
325,219,45600,1,8,0:0:0:0:
328,212,45682,6,0,B|356:254|332:294|328:298|324:302|300:342|328:384,1,180,4|10,1:0|0:0,0:0:0:0:
414,212,46177,2,0,B|372:184|332:208|328:212|324:216|284:240|242:212,1,180,2|2,1:0|1:0,0:0:0:0:
120,156,46671,1,10,0:0:0:0:
242,11,46836,2,0,B|252:55|252:55|242:99,1,90,6|0,1:0|0:0,0:0:0:0:
120,243,47165,5,10,3:0:0:0:
120,243,47248,1,0,1:0:0:0:
120,243,47330,1,10,0:0:0:0:
242,98,47495,1,2,1:0:0:0:
120,330,47660,5,2,1:0:0:0:
87,322,47742,1,0,1:0:0:0:
59,303,47824,1,0,1:0:0:0:
41,275,47907,1,10,0:0:0:0:
35,243,47989,5,8,0:0:0:0:
41,210,48072,1,8,0:0:0:0:
59,182,48155,1,10,0:0:0:0:
87,163,48237,1,8,0:0:0:0:
120,156,48319,6,0,P|136:105|120:54,1,107.999996704102,6|0,1:0|0:0,0:0:0:0:
137,154,48566,2,0,P|143:100|119:53,1,107.999996704102,0|0,1:0|0:0,0:0:0:0:
152,149,48814,2,0,P|155:122|150:95,1,53.9999983520508,0|0,1:0|0:0,0:0:0:0:
59,182,48978,6,0,P|43:233|59:284,1,107.999996704102,10|0,0:0|0:0,0:0:0:0:
42,184,49226,2,0,P|35:237|59:284,1,107.999996704102,0|0,1:0|0:0,0:0:0:0:
26,188,49473,2,0,P|23:214|28:241,1,53.9999983520508,0|0,1:0|0:0,0:0:0:0:
220,200,49638,6,0,P|236:149|220:98,1,107.999996704102,10|0,0:0|0:0,0:0:0:0:
237,198,49885,2,0,P|243:144|219:97,1,107.999996704102,10|0,0:0|0:0,0:0:0:0:
252,193,50133,2,0,P|255:166|250:139,1,53.9999983520508,10|0,0:0|0:0,0:0:0:0:
159,226,50297,6,0,L|133:273,1,53.9999983520508,10|8,0:0|0:0,0:0:0:0:
19,363,50462,5,8,0:0:0:0:
59,343,50544,1,10,0:0:0:0:
103,344,50626,1,8,0:0:0:0:
145,363,50709,1,8,0:0:0:0:
185,381,50791,1,10,0:0:0:0:
230,383,50874,1,8,0:0:0:0:
270,363,50956,6,0,B|287:319|287:319|270:275,1,94.499997116089,6|0,1:0|0:0,0:0:0:0:
210,219,51286,6,0,P|271:244|332:219,1,135,14|0,0:0|0:0,0:0:0:0:
390,163,51616,1,0,1:0:0:0:
271,67,51781,1,8,3:0:0:0:
152,163,51945,2,0,P|109:174|66:163,1,90,10|2,0:0|3:2,0:0:0:0:
211,114,52275,6,0,L|159:238,1,135,4|0,1:0|0:0,0:0:0:0:
159,312,52605,2,0,L|211:188,1,135,8|0,0:0|0:0,0:0:0:0:
211,114,52934,5,2,1:0:0:0:
84,237,53099,1,0,1:0:0:0:
84,237,53182,1,2,1:0:0:0:
84,237,53264,1,8,0:0:0:0:
211,360,53429,1,2,3:2:0:0:
338,238,53594,6,0,P|361:176|338:114,1,135,6|0,1:0|0:0,0:0:0:0:
275,62,53923,2,0,B|307:82|335:66|339:62|343:58|371:42|403:62,1,135,10|0,0:0|0:0,0:0:0:0:
467,114,54254,5,2,1:0:0:0:
275,166,54419,1,8,3:0:0:0:
403,62,54583,1,10,0:0:0:0:
211,114,54748,1,0,3:0:0:0:
403,166,54912,6,0,B|411:218|411:218|403:230|403:230|395:242|395:242|403:294,1,135,4|0,1:0|0:0,0:0:0:0:
395,370,55242,2,0,B|387:318|387:318|395:306|395:306|403:294|403:294|395:242,1,135,8|0,0:0|0:0,0:0:0:0:
403,166,55572,5,2,1:2:0:0:
483,294,55737,1,10,3:0:0:0:
403,136,55901,1,10,0:2:0:0:
323,294,56066,1,2,3:2:0:0:
403,106,56231,6,0,B|364:67|364:67|361:58|361:58|355:64|355:64|352:55|352:55|313:16,1,135,4|0,1:0|0:0,0:0:0:0:
240,17,56561,2,0,B|278:55|278:55|281:64|281:64|287:58|287:58|290:67|290:67|329:106,1,135,8|0,0:0|0:0,0:0:0:0:
403,106,56890,5,2,1:0:0:0:
256,192,57055,1,0,1:0:0:0:
109,106,57220,1,10,0:0:0:0:
286,192,57385,1,10,3:0:0:0:
109,278,57550,6,0,B|80:306|47:295|47:295|58:328|29:357,1,135,4|0,1:0|0:0,0:0:0:0:
114,362,57880,2,0,B|142:333|131:300|131:300|164:311|193:282,1,135,10|0,0:0|0:0,0:0:0:0:
200,368,58209,2,0,L|136:304,1,90,2|8,1:0|3:0,0:0:0:0:
32,192,58539,1,10,0:0:0:0:
136,79,58704,1,2,3:0:0:0:
0,192,58868,5,4,1:0:0:0:
106,79,59033,1,0,0:0:0:0:
212,192,59198,1,8,0:0:0:0:
52,135,59363,1,0,0:0:0:0:
106,4,59528,1,2,1:0:0:0:
160,135,59693,1,2,1:0:0:0:
0,192,59857,1,10,0:0:0:0:
106,79,60022,6,0,B|148:51|188:75|192:79|196:83|236:107|278:79,1,180,6|8,1:0|3:0,0:0:0:0:
460,135,60517,2,0,P|417:123|374:135,1,90,14|0,0:0|0:0,0:0:0:0:
278,191,60847,1,2,1:0:0:0:
374,307,61011,5,8,0:0:0:0:
363,279,61093,1,10,0:0:0:0:
363,249,61175,1,8,1:2:0:0:
373,221,61258,1,8,0:0:0:0:
384,193,61340,1,10,0:0:0:0:
385,163,61423,1,8,0:0:0:0:
374,135,61506,6,0,P|359:91|374:47,1,94.499997116089,6|0,1:0|0:0,0:0:0:0:
439,91,61836,6,0,L|304:91,1,135,14|0,0:0|0:0,0:0:0:0:
238,134,62165,1,0,1:0:0:0:
96,192,62330,1,8,3:0:0:0:
238,338,62495,2,0,B|248:294|248:294|238:250,1,90,10|2,0:0|3:2,0:0:0:0:
304,91,62825,6,0,P|278:151|304:211,1,135,4|0,1:0|0:0,0:0:0:0:
352,151,63154,1,8,0:0:0:0:
256,31,63319,1,0,0:0:0:0:
160,151,63484,1,2,1:0:0:0:
256,271,63649,1,0,1:0:0:0:
256,271,63731,1,2,1:0:0:0:
256,271,63814,1,8,0:0:0:0:
352,151,63978,1,2,3:2:0:0:
160,271,64143,5,6,1:0:0:0:
256,151,64308,1,2,0:0:0:0:
352,271,64473,1,10,0:0:0:0:
352,271,64638,1,2,0:0:0:0:
160,151,64803,1,2,1:0:0:0:
256,271,64968,1,10,3:0:0:0:
352,151,65132,2,0,P|363:108|352:65,1,90,10|0,0:0|3:0,0:0:0:0:
448,151,65462,6,0,B|432:199|432:199|447:281,1,135,4|0,1:0|0:0,0:0:0:0:
448,360,65792,1,8,0:0:0:0:
352,271,65956,1,0,0:0:0:0:
256,360,66121,5,2,1:2:0:0:
448,336,66286,1,10,3:0:0:0:
352,247,66451,1,10,0:2:0:0:
256,336,66616,1,2,3:2:0:0:
448,151,66781,6,0,B|418:124|418:124|409:98|409:98|382:92|382:92|352:65,1,135,4|0,1:0|0:0,0:0:0:0:
283,25,67110,2,0,B|337:65|337:65|283:105,1,135,8|0,0:0|0:0,0:0:0:0:
214,65,67440,1,2,1:0:0:0:
282,185,67605,1,0,1:0:0:0:
214,65,67770,1,10,0:0:0:0:
146,185,67935,1,10,3:0:0:0:
214,305,68099,6,0,B|246:325|274:309|278:305|282:301|310:285|342:305,1,135,4|0,1:0|0:0,0:0:0:0:
394,245,68429,2,0,B|373:272|373:272|373:338|373:338|394:365,1,135,10|0,0:0|0:0,0:0:0:0:
446,306,68759,1,2,1:0:0:0:
512,160,68923,1,8,3:0:0:0:
394,245,69088,1,10,0:0:0:0:
460,99,69252,1,2,3:0:0:0:
342,184,69418,5,4,1:0:0:0:
408,38,69583,1,0,0:0:0:0:
290,123,69748,2,0,L|267:210,1,90,8|0,0:0|0:0,0:0:0:0:
276,330,70077,5,2,1:0:0:0:
342,184,70242,1,2,1:0:0:0:
224,269,70407,2,0,L|201:356,1,90,10|0,0:0|0:0,0:0:0:0:
394,245,70737,5,8,1:2:0:0:
412,217,70819,1,0,0:0:0:0:
418,184,70901,1,0,1:0:0:0:
412,151,70984,1,0,1:0:0:0:
394,123,71066,5,8,3:0:0:0:
376,95,71149,1,0,1:0:0:0:
370,62,71231,1,8,0:0:0:0:
376,29,71314,1,8,0:0:0:0:
394,1,71396,5,8,1:2:0:0:
376,15,71478,1,8,0:0:0:0:
359,29,71560,1,8,0:0:0:0:
342,44,71643,1,8,0:0:0:0:
324,58,71725,5,8,3:0:0:0:
307,73,71808,1,8,0:0:0:0:
290,87,71890,1,4,3:0:0:0:
273,101,71972,1,4,3:0:0:0:
255,116,72055,5,4,1:0:0:0:
255,116,73374,5,4,1:0:0:0:
255,116,73704,5,8,0:0:0:0:
227,134,73786,1,8,0:0:0:0:
194,140,73868,1,8,0:0:0:0:
161,134,73951,1,8,0:0:0:0:
133,116,74033,5,8,0:0:0:0:
105,98,74116,1,8,0:0:0:0:
72,92,74198,1,8,3:0:0:0:
39,98,74281,1,4,3:0:0:0:
11,116,74363,6,0,B|40:176|40:176|11:308,1,202.500007724762,12|0,0:0|0:0,0:0:0:0:
72,364,74693,5,4,1:0:0:0:
133,116,74857,1,2,0:0:0:0:
440,364,75022,5,10,0:0:0:0:
378,115,75187,2,0,P|358:125|344:142,1,45,8|0,3:0|0:0,0:0:0:0:
134,309,75352,5,10,0:0:0:0:
195,61,75517,1,0,1:0:0:0:
378,309,75682,5,10,0:0:0:0:
317,61,75847,1,2,1:0:0:0:
102,364,76011,5,14,0:0:0:0:
163,116,76176,2,0,P|183:126|197:143,1,45,8|0,3:0|0:0,0:0:0:0:
410,364,76341,5,10,0:0:0:0:
349,116,76505,1,0,1:0:0:0:
164,309,76670,5,10,0:0:0:0:
409,171,76836,2,0,P|424:153|430:132,1,45,0|0,3:0|0:0,0:0:0:0:
348,309,77000,5,14,0:0:0:0:
101,171,77165,1,2,1:0:0:0:
102,364,77330,5,12,0:0:0:0:
195,61,77495,2,0,P|215:71|229:88,1,45,8|0,3:0|0:0,0:0:0:0:
410,364,77660,5,10,0:0:0:0:
317,61,77825,1,2,1:0:0:0:
102,254,77989,5,10,0:0:0:0:
408,16,78154,2,0,L|395:59,1,45,8|0,3:0|0:0,0:0:0:0:
410,254,78319,5,10,0:0:0:0:
104,16,78484,1,2,1:0:0:0:
296,254,78649,5,14,0:0:0:0:
473,89,78814,2,0,L|441:120,1,45,8|0,3:0|0:0,0:0:0:0:
216,254,78978,5,10,0:0:0:0:
39,89,79143,1,0,1:0:0:0:
159,321,79308,5,10,0:0:0:0:
256,61,79473,1,0,1:0:0:0:
353,321,79638,5,12,0:0:0:0:
256,32,79803,1,0,1:0:0:0:
159,321,79967,5,12,0:0:0:0:
394,59,80132,2,0,P|411:73|419:93,1,45,8|0,3:0|0:0,0:0:0:0:
353,321,80297,5,10,0:0:0:0:
118,59,80462,1,0,1:0:0:0:
256,254,80627,5,10,0:0:0:0:
444,58,80792,2,0,P|427:72|419:92,1,45,8|0,3:0|0:0,0:0:0:0:
256,288,80956,5,10,0:0:0:0:
68,58,81121,1,0,1:0:0:0:
353,192,81286,5,14,0:0:0:0:
168,60,81451,1,0,1:0:0:0:
159,192,81616,5,14,0:0:0:0:
344,60,81781,1,0,1:0:0:0:
368,216,81945,5,14,0:0:0:0:
153,36,82110,1,0,1:0:0:0:
144,216,82275,5,10,0:0:0:0:
359,36,82440,1,12,0:0:0:0:
359,36,84583,5,8,0:0:0:0:
374,12,84912,5,0,1:0:0:0:
138,372,85077,1,4,1:0:0:0:
256,192,85160,12,0,93154,0:0:0:0:
