osu file format v14

[General]
AudioFilename: Kankaku Piero - Haruka Mirai (TV Anime ver.).mp3
AudioLeadIn: 0
PreviewTime: 50132
Countdown: 0
SampleSet: Soft
StackLeniency: 0.7
Mode: 0
LetterboxInBreaks: 0
WidescreenStoryboard: 0

[Editor]
Bookmarks: 847,11396,13704,93154
DistanceSpacing: 1.2
BeatDivisor: 4
GridSize: 4
TimelineZoom: 2

[Metadata]
Title:Haruka Mirai (TV Size)
TitleUnicode:ハルカミライ (TV Size)
Artist:Kankaku Piero
ArtistUnicode:感覚ピエロ
Creator:Gero
Version:Easy
Source:ブラッククローバー
Tags:ShogunMoon Shunao ezek InternalLight Kalibe ChuuritsuTv Sotarks BLACK CLOVER Opening TVアニメver.
BeatmapID:1581998
BeatmapSetID:750743

[Difficulty]
HPDrainRate:3
CircleSize:3
OverallDifficulty:3
ApproachRate:4
SliderMultiplier:0.799999999999999
SliderTickRate:1

[Events]
//Background and Video events
Video,0,"Video.avi"
0,0,"BGeroEasy.jpg",0,0
//Break Periods
2,11596,12384
//Storyboard Layer 0 (Background)
//Storyboard Layer 1 (Fail)
//Storyboard Layer 2 (Pass)
//Storyboard Layer 3 (Foreground)
//Storyboard Sound Samples

[TimingPoints]
847,329.67032967033,4,2,22,70,1,0
14033,-100,4,2,22,60,0,0
24583,-100,4,2,22,50,0,0
29693,-100,4,2,22,60,0,0
32495,-100,4,2,22,50,0,0
37605,-100,4,2,22,60,0,0
40407,-100,4,2,22,70,0,0
45682,-100,4,2,22,60,0,0
48319,-100,4,2,22,80,0,0
50956,-100,4,2,22,80,0,1
61423,-100,4,2,22,80,0,0
61506,-100,4,2,22,80,0,1
72055,-100,4,2,22,70,0,0
74693,-100,4,2,22,70,0,1
82605,-100,4,2,22,60,0,0
85242,-100,4,2,69,5,0,0

[Colours]
Combo1 : 82,167,135
Combo2 : 171,147,97
Combo3 : 201,198,54
Combo4 : 148,148,148

[HitObjects]
68,108,847,5,6,1:0:0:0:
12,28,1176,2,0,P|68:10|124:28,1,120,10|10,0:0|0:0,0:0:0:0:
244,108,2165,2,0,P|300:126|356:108,1,120,10|10,0:0|0:0,0:0:0:0:
424,176,2989,2,0,B|444:172|444:172|464:176,1,40,10|8,0:0|0:0,0:0:0:0:
444,276,3484,5,2,1:0:0:0:
500,356,3814,2,0,P|444:374|388:356,1,120,10|10,0:0|0:0,0:0:0:0:
268,276,4803,2,0,P|212:258|156:276,1,120,10|10,0:0|0:0,0:0:0:0:
88,208,5627,2,0,B|68:212|68:212|48:208,1,40,10|8,0:0|0:0,0:0:0:0:
68,108,6121,5,2,1:0:0:0:
12,28,6451,2,0,P|68:10|124:28,1,120,10|10,0:0|0:0,0:0:0:0:
244,108,7440,2,0,P|300:126|356:108,1,120,10|10,0:0|0:0,0:0:0:0:
424,176,8264,2,0,B|444:172|444:172|464:176,1,40,10|8,0:0|0:0,0:0:0:0:
444,276,8759,5,2,1:0:0:0:
500,356,9088,2,0,P|444:374|388:356,1,120,10|10,0:0|0:0,0:0:0:0:
268,276,10077,2,0,P|212:258|156:276,1,120,10|0,0:0|1:0,0:0:0:0:
88,208,10901,2,0,B|68:212|68:212|48:208,1,40,8|8,0:0|0:0,0:0:0:0:
68,108,11396,5,0,0:0:0:0:
68,108,13704,5,8,3:0:0:0:
135,40,14033,5,6,1:0:0:0:
202,108,14363,2,0,B|236:124|256:165|256:165|276:124|310:108,1,160,10|10,0:0|0:0,0:0:0:0:
377,40,15352,1,6,1:0:0:0:
444,108,15682,2,0,L|377:253,1,160,8|10,0:0|0:0,0:0:0:0:
456,308,16671,5,6,1:0:0:0:
376,362,17000,2,0,B|297:351|297:351|218:362,1,160,10|10,0:0|0:0,0:0:0:0:
138,308,17989,1,2,1:0:0:0:
217,253,18319,2,0,P|214:174|165:112,1,160,8|10,0:0|0:0,0:0:0:0:
256,76,19308,5,6,1:0:0:0:
346,112,19638,2,0,B|396:92|396:92|452:72|497:103,1,160,10|10,0:0|0:0,0:0:0:0:
456,192,20627,1,6,1:0:0:0:
497,280,20956,2,0,B|452:312|396:292|396:292|346:271,1,160,8|10,0:0|0:0,0:0:0:0:
256,308,21945,6,0,B|237:271|256:234|256:234|256:191,2,120,6|2|8,1:0|0:0|0:0,0:0:0:0:
289,341,23099,2,0,L|170:321,1,120,6|10,1:0|0:0,0:0:0:0:
102,253,23923,2,0,B|82:253|66:269|66:269|50:253|30:253,1,79.9999999999999,10|6,0:0|3:0,0:0:0:0:
66,164,24583,6,0,B|106:150|119:109|119:109|162:104|182:66,1,160,6|2,1:0|1:0,0:0:0:0:
256,128,25572,1,0,1:0:0:0:
329,66,25901,2,0,B|349:104|392:109|392:109|405:150|446:164,1,160,2|0,1:0|1:0,0:0:0:0:
410,253,26890,1,2,1:0:0:0:
445,342,27220,6,0,B|410:342|410:342|373:342|328:313|325:266,1,160,2|2,1:0|1:0,0:0:0:0:
256,200,28209,1,0,1:0:0:0:
187,266,28539,2,0,B|184:313|139:342|102:342|102:342|67:342,1,160,2|8,1:0|0:0,0:0:0:0:
28,316,29363,1,2,1:0:0:0:
102,253,29693,6,0,B|102:150|102:150|170:81,1,200,6|2,1:0|1:0,0:0:0:0:
341,81,31011,2,0,B|410:150|410:150|410:253,1,200,6|2,1:0|0:0,0:0:0:0:
484,316,32165,1,10,0:0:0:0:
410,379,32495,6,0,L|256:336,1,160,6|2,1:0|1:0,0:0:0:0:
208,252,33484,1,0,1:0:0:0:
256,169,33814,2,0,P|328:199|400:169,1,160,2|0,1:0|1:0,0:0:0:0:
328,105,34803,1,2,1:0:0:0:
400,41,35132,6,0,P|328:11|256:41,1,160,6|2,1:0|1:0,0:0:0:0:
184,105,36121,1,0,1:0:0:0:
256,169,36451,2,0,B|272:224|272:224|256:325,1,160,10|8,3:0|0:0,0:0:0:0:
222,359,37275,1,4,1:0:0:0:
154,291,37605,6,0,L|343:354,1,200,6|2,1:0|1:0,0:0:0:0:
445,232,38923,2,0,L|256:169,1,200,6|0,1:0|0:0,0:0:0:0:
188,101,40077,1,8,0:0:0:0:
119,168,40407,6,0,P|89:240|119:312,2,160,2|0|0,1:0|0:0|0:0,0:0:0:0:
256,34,42385,1,8,0:0:0:0:
393,168,43044,2,0,P|423:240|393:312,2,160,2|0|0,1:0|0:0|0:0,0:0:0:0:
256,34,45022,1,0,1:0:0:0:
119,168,45682,6,0,B|92:212|120:284|180:288|180:288|256:240|332:288|332:288|392:284|420:212|393:168,1,479.999999999999,4|2,1:0|1:0,0:0:0:0:
324,100,47989,1,8,0:0:0:0:
256,34,48319,2,0,B|256:188|256:188|258:192|258:192|254:192|254:192|256:196|256:196|256:350,1,320,6|10,1:0|0:0,0:0:0:0:
96,248,50297,2,0,P|77:192|96:136,1,120,10|10,0:0|0:0,0:0:0:0:
129,102,50956,5,6,1:0:0:0:
196,169,51286,2,0,B|216:204|256:219|256:219|296:204|316:169,1,160,14|10,0:0|0:0,0:0:0:0:
383,102,52275,1,4,1:0:0:0:
450,169,52605,1,8,0:0:0:0:
383,236,52934,2,0,P|372:274|383:312,1,79.9999999999999,2|8,1:0|0:0,0:0:0:0:
450,379,53594,6,0,L|293:344,1,160,6|2,1:0|1:0,0:0:0:0:
256,256,54583,1,10,0:0:0:0:
218,167,54912,2,0,B|248:140|256:98|256:98|264:140|294:167,1,160,4|2,1:0|1:2,0:0:0:0:
332,256,55901,1,10,0:2:0:0:
370,166,56231,6,0,P|370:88|324:24,1,160,4|2,1:0|1:0,0:0:0:0:
256,88,57220,1,10,0:0:0:0:
187,24,57550,2,0,P|141:88|141:166,1,160,4|2,1:0|1:0,0:0:0:0:
180,256,58539,1,10,0:0:0:0:
218,345,58868,6,0,P|256:356|294:345,1,79.9999999999999,4|8,1:0|0:0,0:0:0:0:
332,256,59528,2,0,P|388:237|444:256,2,120,2|6|14,1:0|1:0|0:0,0:0:0:0:
294,167,60847,2,0,P|256:178|218:167,1,79.9999999999999,2|8,1:0|1:2,0:0:0:0:
142,107,61506,5,6,1:0:0:0:
64,167,61836,2,0,L|5:315,1,160,14|10,0:0|0:0,0:0:0:0:
84,372,62825,1,4,1:0:0:0:
161,314,63154,2,0,B|242:314|242:314|297:369,1,160,8|8,0:0|0:0,0:0:0:0:
365,301,64143,6,0,B|373:262|373:262|365:223,1,79.9999999999999,6|10,1:0|0:0,0:0:0:0:
433,154,64803,2,0,B|425:115|425:115|433:76,1,79.9999999999999,2|10,1:0|0:0,0:0:0:0:
501,7,65462,2,0,L|344:38,1,160,4|2,1:0|1:2,0:0:0:0:
256,76,66451,1,10,0:2:0:0:
167,113,66781,2,0,B|154:192|154:192|167:271,1,160,4|2,1:0|1:0,0:0:0:0:
256,308,67770,1,10,0:0:0:0:
345,271,68099,6,0,L|358:192,2,79.9999999999999,4|10|2,1:0|0:0|1:0,0:0:0:0:
256,308,69088,1,10,0:0:0:0:
167,345,69418,2,0,L|194:178,1,160,4|2,1:0|1:0,0:0:0:0:
103,224,70407,1,10,0:0:0:0:
13,260,70737,6,0,L|40:93,1,160,8|8,1:2|1:2,0:0:0:0:
128,66,71726,1,8,3:0:0:0:
217,29,72055,5,4,1:0:0:0:
217,29,73374,5,4,1:0:0:0:
217,29,74693,6,0,B|172:68|200:144|256:152|256:152|312:144|340:68|295:29,1,320,4|14,1:0|0:0,0:0:0:0:
400,192,76671,1,10,0:0:0:0:
295,355,77330,2,0,B|340:316|312:240|256:232|256:232|200:240|172:316|217:355,1,320,12|14,0:0|0:0,0:0:0:0:
112,192,79308,1,10,0:0:0:0:
217,29,79967,6,0,L|363:94,1,160,12|10,0:0|0:0,0:0:0:0:
363,289,81286,2,0,L|217:355,1,160,14|14,0:0|0:0,0:0:0:0:
112,192,82605,1,0,0:0:0:0:
112,192,84583,5,8,0:0:0:0:
208,192,84912,2,0,L|248:192,1,40,0|4,1:0|1:0,0:0:0:0:
256,192,85242,12,0,93154,0:0:0:0:
