osu file format v14

[General]
AudioFilename: Kankaku Piero - Haruka Mirai (TV Anime ver.).mp3
AudioLeadIn: 0
PreviewTime: 50132
Countdown: 0
SampleSet: Soft
StackLeniency: 0.7
Mode: 0
LetterboxInBreaks: 0
WidescreenStoryboard: 0

[Editor]
Bookmarks: 847,11396,13704,82440,84583,93154
DistanceSpacing: 1.3
BeatDivisor: 4
GridSize: 4
TimelineZoom: 2

[Metadata]
Title:Haruka Mirai (TV Size)
TitleUnicode:ハルカミライ (TV Size)
Artist:Kankaku Piero
ArtistUnicode:感覚ピエロ
Creator:Gero
Version:Advanced
Source:ブラッククローバー
Tags:ShogunMoon Shunao ezek InternalLight Kalibe ChuuritsuTv Sotarks BLACK CLOVER Opening TVアニメver.
BeatmapID:1734231
BeatmapSetID:750743

[Difficulty]
HPDrainRate:6
CircleSize:4
OverallDifficulty:6
ApproachRate:7
SliderMultiplier:1.2
SliderTickRate:1

[Events]
//Background and Video events
Video,0,"Video.avi"
0,0,"BGeroAdvanced.jpg",0,0
//Break Periods
2,11596,12804
2,82640,83683
//Storyboard Layer 0 (Background)
//Storyboard Layer 1 (Fail)
//Storyboard Layer 2 (Pass)
//Storyboard Layer 3 (Foreground)
//Storyboard Sound Samples

[TimingPoints]
847,329.67032967033,4,2,22,70,1,0
14033,-100,4,2,22,60,0,0
24583,-100,4,2,22,50,0,0
29693,-100,4,2,22,60,0,0
32495,-100,4,2,22,50,0,0
37605,-100,4,2,22,60,0,0
40407,-100,4,2,22,70,0,0
45682,-100,4,2,22,60,0,0
48319,-100,4,2,22,80,0,0
50956,-100,4,2,22,80,0,1
61423,-100,4,2,22,80,0,0
61506,-100,4,2,22,80,0,1
72055,-100,4,2,22,70,0,0
74693,-100,4,2,22,70,0,1
82605,-100,4,2,22,60,0,0
85160,-100,4,2,69,5,0,0

[Colours]
Combo1 : 82,167,135
Combo2 : 171,147,97
Combo3 : 201,198,54
Combo4 : 148,148,148

[HitObjects]
201,153,847,5,6,1:0:0:0:
201,153,1176,2,0,P|256:132|311:153,1,120,10|0,0:0|1:0,0:0:0:0:
311,231,1671,2,0,P|256:252|201:231,1,120,10|0,0:0|1:0,0:0:0:0:
132,192,2165,2,0,L|171:305,1,120,10|0,0:0|1:0,0:0:0:0:
102,344,2660,2,0,L|63:231,1,120,10|10,0:0|0:0,0:0:0:0:
63,153,3154,1,8,0:0:0:0:
132,192,3319,1,8,0:0:0:0:
132,114,3484,6,0,B|161:106|161:106|190:114,1,60,2|0,1:0|1:0,0:0:0:0:
258,74,3814,2,0,B|298:74|298:74|338:74|363:114,1,120,10|0,0:0|1:0,0:0:0:0:
432,148,4308,2,0,B|448:180|471:192|471:192|448:204|432:236,1,120,10|0,0:0|1:0,0:0:0:0:
363,269,4803,2,0,B|338:310|298:310|298:310|258:310,1,120,10|0,0:0|1:0,0:0:0:0:
190,270,5297,2,0,L|74:301,1,120,10|10,0:0|0:0,0:0:0:0:
5,262,5792,1,8,0:0:0:0:
74,222,5956,1,8,0:0:0:0:
5,182,6121,6,0,P|-2:153|5:124,1,60,2|0,1:0|1:0,0:0:0:0:
73,84,6451,2,0,B|99:71|127:80|131:84|135:88|163:97|189:84,1,120,10|0,0:0|1:0,0:0:0:0:
256,44,6945,2,0,B|285:51|297:84|297:84|285:117|256:124,1,120,10|0,0:0|1:0,0:0:0:0:
189,164,7440,2,0,B|160:171|148:204|148:204|160:237|189:244,1,120,10|0,0:0|1:0,0:0:0:0:
256,204,7934,2,0,B|282:217|310:208|314:204|318:200|346:191|372:204,1,120,10|10,0:0|0:0,0:0:0:0:
441,244,8429,1,8,0:0:0:0:
373,284,8594,1,8,0:0:0:0:
441,324,8759,6,0,L|501:324,1,60,2|0,1:0|1:0,0:0:0:0:
373,364,9088,2,0,B|326:364|326:364|318:368|318:368|318:360|318:360|310:364|310:364|263:364,1,120,10|0,0:0|1:0,0:0:0:0:
194,324,9583,2,0,B|147:324|147:324|139:328|139:328|139:320|139:320|131:324|131:324|84:324,1,120,10|0,0:0|1:0,0:0:0:0:
15,284,10077,1,10,0:0:0:0:
83,244,10242,1,0,1:0:0:0:
15,204,10407,1,10,0:0:0:0:
83,164,10572,2,0,L|83:134,2,30,0|0|8,1:0|1:0|0:0,0:0:0:0:
151,204,10901,2,0,L|151:174,5,30,8|8|8|8|8|8,0:0|0:0|0:0|0:0|0:0|0:0,0:0:0:0:
151,134,11396,5,0,0:0:0:0:
151,134,13704,5,8,3:0:0:0:
151,134,14033,2,0,B|132:100|160:64|192:64|192:64|214:64,1,120,6|10,1:0|0:0,0:0:0:0:
297,64,14528,2,0,B|320:64|320:64|352:64|380:100|361:134,1,120,2|10,0:0|3:0,0:0:0:0:
308,192,15022,1,10,0:0:0:0:
308,192,15352,1,6,1:0:0:0:
361,250,15517,2,0,B|380:284|352:320|320:320|320:320|298:320,1,120,2|2,0:0|0:0,0:0:0:0:
215,320,16012,2,0,B|192:320|192:320|160:320|132:284|151:250,1,120,2|10,1:0|0:0,0:0:0:0:
256,134,16671,6,0,L|296:20,1,120,6|10,1:0|0:0,0:0:0:0:
216,20,17165,2,0,L|256:134,1,120,2|10,0:0|3:0,0:0:0:0:
308,192,17660,1,10,0:0:0:0:
308,192,17989,1,2,1:0:0:0:
256,250,18154,2,0,L|216:364,1,120,2|2,0:0|0:0,0:0:0:0:
296,364,18648,2,0,L|256:250,1,120,2|10,1:0|0:0,0:0:0:0:
400,192,19308,6,0,B|429:185|441:152|441:152|429:119|400:112,1,120,6|10,1:0|0:0,0:0:0:0:
440,44,19803,2,0,B|433:15|400:3|400:3|367:15|360:44,1,120,2|10,0:0|3:0,0:0:0:0:
320,111,20297,1,10,0:0:0:0:
192,111,20627,1,6,1:0:0:0:
152,44,20792,2,0,B|145:15|112:3|112:3|79:15|72:44,1,120,2|2,0:0|0:0,0:0:0:0:
112,112,21286,2,0,B|83:119|71:152|71:152|83:185|112:192,1,120,6|10,1:0|0:0,0:0:0:0:
256,250,21945,6,0,L|316:250,1,60,6|0,1:0|0:0,0:0:0:0:
368,192,22275,1,10,0:0:0:0:
316,134,22440,2,0,L|256:134,1,60,2|0,0:0|1:0,0:0:0:0:
204,76,22770,1,10,0:0:0:0:
204,76,22852,1,8,0:0:0:0:
204,76,22934,1,8,0:0:0:0:
256,18,23099,6,0,B|303:18|303:18|311:14|311:14|311:22|311:22|319:18|319:18|366:18,1,120,6|10,1:0|3:0,0:0:0:0:
418,76,23594,2,0,B|458:56|458:56|498:76,1,90,10|8,0:0|0:0,0:0:0:0:
498,76,23923,2,0,L|484:134,1,60,10|8,0:0|3:0,0:0:0:0:
464,212,24253,2,0,L|449:270,1,60,6|4,3:0|3:0,0:0:0:0:
429,347,24583,6,0,P|373:365|317:347,1,120,6|0,1:0|1:0,0:0:0:0:
83,347,25242,2,0,P|139:365|195:347,1,120,2|0,1:0|1:0,0:0:0:0:
256,296,25737,1,2,0:0:0:0:
195,245,25901,2,0,B|196:216|196:216|208:188,1,60,2|0,1:0|0:0,0:0:0:0:
256,124,26231,1,2,1:0:0:0:
304,188,26396,2,0,B|337:154|337:154|340:146|340:146|345:151|345:151|348:143|348:143|381:110,1,120,2|2,0:0|0:0,0:0:0:0:
429,174,26890,1,2,1:0:0:0:
477,111,27055,1,2,0:0:0:0:
429,48,27220,6,0,B|372:24|372:24|313:24,1,120,2|0,1:0|1:0,0:0:0:0:
256,76,27715,1,2,0:0:0:0:
198,24,27879,2,0,B|140:24|140:24|83:48,1,120,2|0,1:0|1:0,0:0:0:0:
35,111,28374,1,2,0:0:0:0:
83,174,28539,2,0,B|112:181|124:214|124:214|112:247|83:254,1,120,2|2,1:0|1:0,0:0:0:0:
35,317,29033,1,2,0:0:0:0:
82,379,29198,1,8,0:0:0:0:
82,379,29363,1,2,1:0:0:0:
225,316,29693,6,0,P|276:287|303:234,1,120,6|10,1:0|3:0,0:0:0:0:
368,192,30187,1,8,0:0:0:0:
368,192,30352,1,2,0:0:0:0:
303,149,30517,2,0,P|276:96|225:67,1,120,2|8,1:0|0:0,0:0:0:0:
188,136,31011,2,0,B|132:114|132:114|76:136,1,120,6|10,1:0|3:0,0:0:0:0:
20,192,31506,1,8,0:0:0:0:
20,192,31671,1,6,1:0:0:0:
76,248,31836,2,0,B|132:270|132:270|188:248,1,120,2|10,0:0|0:0,0:0:0:0:
300,356,32495,6,0,B|314:327|341:314|341:314|354:287|383:272,1,120,6|0,1:0|0:0,0:0:0:0:
383,111,33154,2,0,B|354:96|341:69|341:69|314:56|300:28,1,120,2|0,1:0|1:0,0:0:0:0:
256,92,33649,1,2,0:0:0:0:
212,28,33814,2,0,B|172:28|172:28|132:28|107:68,1,120,2|2,1:0|1:0,0:0:0:0:
52,123,34308,2,0,P|107:102|162:123,1,120,2|2,0:0|0:0,0:0:0:0:
200,192,34803,1,2,1:0:0:0:
200,192,34967,1,2,0:0:0:0:
161,261,35132,6,0,B|161:322|161:322|191:372,1,120,6|0,1:0|1:0,0:0:0:0:
256,328,35627,1,2,0:0:0:0:
320,372,35792,2,0,B|351:322|351:322|350:261,1,120,2|0,1:0|1:0,0:0:0:0:
312,192,36286,1,8,0:0:0:0:
312,192,36368,1,8,0:0:0:0:
312,192,36451,2,0,L|312:132,1,60,10|0,3:0|0:0,0:0:0:0:
256,76,36781,1,10,3:0:0:0:
200,132,36945,1,2,0:0:0:0:
144,76,37110,1,8,0:0:0:0:
144,76,37275,1,4,1:0:0:0:
40,192,37605,6,0,B|40:239|40:239|44:247|44:247|36:247|36:247|40:255|40:255|40:302,1,120,6|10,1:0|3:0,0:0:0:0:
120,302,38099,2,0,B|148:312|148:312|176:302,1,60,10|2,0:0|0:0,0:0:0:0:
256,302,38429,2,0,P|288:251|296:192,1,120,2|8,1:0|0:0,0:0:0:0:
215,192,38923,2,0,P|223:251|256:302,1,120,6|10,1:0|3:0,0:0:0:0:
336,302,39418,2,0,B|364:312|364:312|392:302,1,60,10|6,0:0|1:0,0:0:0:0:
472,302,39748,2,0,B|472:255|472:255|476:247|476:247|468:247|468:247|472:239|472:239|472:192,1,120,0|8,0:0|0:0,0:0:0:0:
416,136,40242,1,2,0:0:0:0:
472,80,40407,5,2,1:0:0:0:
416,136,40572,2,0,B|392:104|348:104|348:104|306:104,1,120,10|2,3:0|1:0,0:0:0:0:
256,44,41066,1,0,0:0:0:0:
206,104,41231,2,0,B|164:104|164:104|120:104|96:136,1,120,10|6,3:0|1:0,0:0:0:0:
40,80,41726,6,0,B|19:136|19:136|40:192,1,120,0|10,0:0|0:0,0:0:0:0:
96,248,42220,1,2,1:0:0:0:
152,193,42385,2,0,L|211:192,1,60,8|2,0:0|1:0,0:0:0:0:
292,192,42715,1,10,0:0:0:0:
360,232,42879,5,10,0:0:0:0:
360,238,42962,1,8,0:0:0:0:
360,244,43044,1,2,1:0:0:0:
428,192,43209,2,0,B|457:185|469:152|469:152|457:119|428:112,1,120,10|2,3:0|1:0,0:0:0:0:
360,72,43704,1,0,0:0:0:0:
292,112,43868,2,0,B|263:119|251:152|251:152|263:185|292:192,1,120,10|6,3:0|1:0,0:0:0:0:
360,232,44363,5,0,0:0:0:0:
292,272,44527,1,8,3:0:0:0:
292,272,44610,1,0,1:0:0:0:
292,272,44693,1,10,0:0:0:0:
360,312,44857,2,0,B|407:312|407:312|415:316|415:316|415:308|415:308|423:312|423:312|470:312,2,120,2|2|10,0:0|0:0|0:0,0:0:0:0:
292,272,45682,6,0,P|237:293|182:272,1,120,4|10,1:0|0:0,0:0:0:0:
126,327,46176,2,0,P|105:272|126:217,1,120,2|2,1:0|1:0,0:0:0:0:
71,161,46671,1,10,0:0:0:0:
125,104,46836,1,6,1:0:0:0:
125,104,47165,6,0,L|103:83,2,30,10|0|10,3:0|1:0|0:0,0:0:0:0:
179,47,47495,1,2,1:0:0:0:
233,104,47660,2,0,L|254:83,2,30,2|0|0,1:0|1:0|1:0,0:0:0:0:
287,161,47989,2,0,L|308:140,2,30,8|8|10,0:0|0:0|0:0,0:0:0:0:
233,218,48319,6,0,B|220:261|220:261|233:304,2,90,6|0|0,1:0|1:0|1:0,0:0:0:0:
297,261,48978,2,0,B|284:304|284:304|297:347,2,90,10|0|0,0:0|1:0|1:0,0:0:0:0:
361,304,49638,6,0,B|348:261|348:261|361:218,2,90,10|10|10,0:0|0:0|0:0,0:0:0:0:
425,261,50297,2,0,B|412:218|412:218|425:175,2,90,10|10|10,0:0|0:0|0:0,0:0:0:0:
489,217,50956,6,0,B|508:175|489:133|489:133|509:106,1,120,6|14,1:0|0:0,0:0:0:0:
453,50,51451,1,0,0:0:0:0:
398,107,51616,2,0,L|338:107,1,60,0|8,1:0|3:0,0:0:0:0:
283,50,51945,2,0,B|256:37|256:37|229:50,1,60,10|2,0:0|3:2,0:0:0:0:
174,107,52275,6,0,P|153:162|174:217,1,120,4|8,1:0|0:0,0:0:0:0:
229,274,52770,1,0,0:0:0:0:
173,331,52934,2,0,B|133:311|133:311|93:331,2,90,2|2|2,1:0|1:0|3:2,0:0:0:0:
229,274,53594,6,0,L|336:327,1,120,6|10,1:0|0:0,0:0:0:0:
391,272,54088,1,0,0:0:0:0:
336,216,54253,2,0,P|329:187|336:158,1,60,2|8,1:0|3:0,0:0:0:0:
281,102,54583,2,0,P|288:73|281:44,1,60,10|0,0:0|3:0,0:0:0:0:
208,73,54912,6,0,B|201:44|168:32|168:32|135:44|128:73,2,120,4|8|2,1:0|0:0|1:2,0:0:0:0:
281,102,55737,1,10,3:0:0:0:
354,73,55901,2,0,B|386:73|386:73|405:92,1,60,10|2,0:2|3:2,0:0:0:0:
478,63,56231,6,0,B|491:110|463:144|463:144|489:165,1,120,4|8,1:0|0:0,0:0:0:0:
433,221,56726,1,0,0:0:0:0:
376,166,56890,2,0,P|325:194|296:246,1,120,2|10,1:0|0:0,0:0:0:0:
256,312,57385,1,10,3:0:0:0:
215,246,57550,6,0,B|188:233|188:233|161:246,1,60,4|0,1:0|0:0,0:0:0:0:
120,312,57879,2,0,B|93:325|93:325|66:312,1,60,10|0,0:0|0:0,0:0:0:0:
25,246,58209,2,0,B|24:208|4:192|4:192|24:176|25:138,1,120,2|10,1:0|0:0,0:0:0:0:
66,72,58704,1,2,3:0:0:0:
107,138,58868,5,4,1:0:0:0:
107,138,59033,1,0,0:0:0:0:
148,72,59198,2,0,P|177:65|206:72,1,60,8|0,0:0|0:0,0:0:0:0:
247,138,59528,2,0,P|276:145|305:138,1,60,2|2,1:0|1:0,0:0:0:0:
346,72,59857,5,10,0:0:0:0:
346,72,60022,2,0,B|367:51|375:20|375:20|383:51|404:72,1,120,6|8,1:0|3:0,0:0:0:0:
445,138,60517,2,0,B|458:165|458:165|445:192,1,60,14|0,0:0|0:0,0:0:0:0:
404,259,60847,2,0,B|391:302|391:302|404:345,2,90,2|10|10,1:0|0:0|0:0,0:0:0:0:
364,192,61506,6,0,P|309:171|254:192,1,120,6|14,1:0|0:0,0:0:0:0:
214,259,62000,1,0,0:0:0:0:
174,191,62165,2,0,P|145:184|116:191,1,60,0|8,1:0|3:0,0:0:0:0:
76,122,62495,2,0,P|47:129|18:122,1,60,10|2,0:0|3:2,0:0:0:0:
47,50,62825,6,0,B|72:12|112:12|112:12|153:12,1,120,4|8,1:0|0:0,0:0:0:0:
216,60,63319,1,0,0:0:0:0:
296,60,63484,2,0,L|386:60,2,90,2|2|2,1:0|1:0|3:2,0:0:0:0:
256,128,64143,6,0,L|256:188,1,60,6|2,1:0|0:0,0:0:0:0:
216,256,64473,2,0,P|209:285|216:314,1,60,10|2,0:0|0:0,0:0:0:0:
256,380,64803,1,2,1:0:0:0:
256,380,64967,1,10,3:0:0:0:
296,313,65132,2,0,P|302:284|296:256,1,60,10|0,0:0|3:0,0:0:0:0:
336,188,65462,6,0,B|312:136|312:136|312:68,1,120,4|8,1:0|0:0,0:0:0:0:
256,20,65956,1,0,0:0:0:0:
200,73,66121,2,0,L|200:133,1,60,2|10,1:2|3:0,0:0:0:0:
144,186,66451,1,10,0:2:0:0:
88,132,66616,1,2,3:2:0:0:
32,186,66781,6,0,P|11:241|32:296,1,120,4|8,1:0|0:0,0:0:0:0:
88,350,67275,1,0,0:0:0:0:
144,296,67440,2,0,P|173:289|202:296,1,60,2|0,1:0|1:0,0:0:0:0:
256,240,67770,1,10,0:0:0:0:
310,295,67934,1,10,3:0:0:0:
365,240,68099,6,0,B|398:273|398:273|406:276|406:276|401:281|401:281|409:284|409:284|442:317,1,120,4|10,1:0|0:0,0:0:0:0:
484,252,68594,1,0,0:0:0:0:
442,186,68759,2,0,B|448:156|420:128|392:128|392:128|358:128,1,120,2|10,1:0|0:0,0:0:0:0:
303,72,69253,1,2,3:0:0:0:
248,128,69418,5,4,1:0:0:0:
248,128,69583,1,0,0:0:0:0:
303,184,69748,2,0,P|310:213|303:242,1,60,8|0,0:0|0:0,0:0:0:0:
248,298,70077,1,2,1:0:0:0:
248,298,70242,1,2,1:0:0:0:
193,242,70407,2,0,L|150:284,1,60,10|0,0:0|0:0,0:0:0:0:
95,228,70737,6,0,L|73:206,7,30,8|0|0|0|8|0|8|8,1:2|0:0|1:0|1:0|3:0|1:0|0:0|0:0,0:0:0:0:
73,167,71396,2,0,L|51:145,7,30,8|8|8|8|8|8|4|4,1:2|0:0|0:0|0:0|3:0|0:0|3:0|3:0,0:0:0:0:
51,106,72055,5,4,1:0:0:0:
51,106,73374,5,4,1:0:0:0:
180,192,73704,5,8,0:0:0:0:
180,192,73786,1,8,0:0:0:0:
180,192,73868,1,8,0:0:0:0:
256,216,74033,1,8,0:0:0:0:
256,216,74116,1,8,0:0:0:0:
256,216,74198,1,8,3:0:0:0:
332,192,74363,1,12,0:0:0:0:
461,106,74693,6,0,B|428:73|428:73|420:70|420:70|425:65|425:65|417:62|417:62|384:29,1,120,4|10,1:0|0:0,0:0:0:0:
256,116,75352,2,0,P|201:95|146:116,1,120,10|10,0:0|0:0,0:0:0:0:
146,268,76011,2,0,P|201:289|256:268,1,120,14|10,0:0|0:0,0:0:0:0:
382,356,76671,2,0,B|417:322|417:322|425:319|425:319|420:314|420:314|428:311|428:311|461:278,1,120,10|14,0:0|0:0,0:0:0:0:
461,106,77330,5,12,0:0:0:0:
461,106,77660,1,10,0:0:0:0:
332,192,77989,1,10,0:0:0:0:
332,192,78319,1,10,0:0:0:0:
256,328,78649,1,14,0:0:0:0:
256,328,78978,1,10,0:0:0:0:
180,192,79308,1,10,0:0:0:0:
180,192,79638,1,12,0:0:0:0:
51,106,79968,6,0,B|84:73|84:73|92:70|92:70|87:65|87:65|95:62|95:62|128:29,1,120,12|10,0:0|0:0,0:0:0:0:
256,116,80627,2,0,P|311:95|366:116,1,120,10|10,0:0|0:0,0:0:0:0:
366,268,81286,2,0,P|311:289|256:268,1,120,14|14,0:0|0:0,0:0:0:0:
129,356,81945,2,0,B|95:322|95:322|87:319|87:319|92:314|92:314|84:311|84:311|51:278,1,120,14|10,0:0|0:0,0:0:0:0:
106,222,82440,1,12,0:0:0:0:
106,222,84583,5,8,0:0:0:0:
106,222,84912,5,0,1:0:0:0:
160,166,85077,1,4,1:0:0:0:
256,192,85160,12,0,93154,0:0:0:0:
