osu file format v14

[General]
AudioFilename: audio.mp3
AudioLeadIn: 0
PreviewTime: -1
Countdown: 1
SampleSet: None
StackLeniency: 0.7
Mode: 0
LetterboxInBreaks: 0
WidescreenStoryboard: 0

[Editor]
DistanceSpacing: 1.5
BeatDivisor: 4
GridSize: 4
TimelineZoom: 1.9

[Metadata]
Title:Haruka Mirai (TV Size)
TitleUnicode:Haruka Mirai (TV Size)
Artist:Kankaku Piero
ArtistUnicode:Kankaku Piero
Creator:Drxvmik
Version:Asta VS Yuno
Source:
Tags:
BeatmapID:1925775
BeatmapSetID:922184

[Difficulty]
HPDrainRate:6
CircleSize:3.8
OverallDifficulty:9
ApproachRate:9.8
SliderMultiplier:1.4
SliderTickRate:1

[Events]
//Background and Video events
0,0,"Black-Clover.jpg",0,0
//Break Periods
//Storyboard Layer 0 (Background)
//Storyboard Layer 1 (Fail)
//Storyboard Layer 2 (Pass)
//Storyboard Layer 3 (Foreground)
//Storyboard Sound Samples

[TimingPoints]
199,329.67032967033,4,1,0,100,1,0
1023,-66.6666666666667,4,1,0,84,0,0
14045,-72.992700729927,4,1,0,75,0,0
24759,-100,4,1,0,55,0,0
27891,-66.6666666666667,4,1,0,83,0,0
32563,-200,4,1,0,45,0,0
33971,-66.6666666666667,4,1,0,83,0,0
35395,-181.818181818181,4,1,0,90,0,0
36462,-66.6666666666667,4,1,0,94,0,0
51133,-66.6666666666667,4,1,0,100,0,1
71242,-100,4,1,0,100,0,1
74869,-57.1428571428571,4,1,0,100,0,1
82616,-100,4,1,0,34,0,0
84594,-100,4,1,0,100,0,0
92671,-100,4,1,0,5,0,0

[HitObjects]
130,158,528,6,0,P|181:120|304:197,1,210
222,248,1188,1,0,0:0:0:0:
383,216,1352,5,0,0:0:0:0:
293,122,1517,1,0,0:0:0:0:
321,304,1682,1,0,0:0:0:0:
172,168,1847,1,0,0:0:0:0:
397,215,2012,1,0,0:0:0:0:
210,300,2177,5,0,0:0:0:0:
277,228,2341,2,0,P|388:242|414:260,1,105.000004005432
210,300,2671,1,0,0:0:0:0:
128,246,2836,1,0,0:0:0:0:
222,206,3001,1,0,0:0:0:0:
307,334,3166,6,0,P|377:297|390:261,1,105.000004005432
335,199,3495,1,0,0:0:0:0:
131,182,3660,5,0,0:0:0:0:
256,62,3825,1,0,0:0:0:0:
230,297,3990,1,0,0:0:0:0:
365,133,4155,1,0,0:0:0:0:
165,223,4319,1,0,0:0:0:0:
363,251,4484,1,0,0:0:0:0:
234,113,4649,1,0,0:0:0:0:
283,328,4814,1,0,0:0:0:0:
319,71,4979,1,0,0:0:0:0:
168,255,5144,2,0,P|74:241|42:220,1,105.000004005432
251,199,5473,5,0,0:0:0:0:
463,29,5638,1,0,0:0:0:0:
385,283,5803,1,0,0:0:0:0:
327,118,5968,2,0,P|263:93|206:109,1,105.000004005432
135,166,6297,5,0,0:0:0:0:
409,251,6462,1,0,0:0:0:0:
273,79,6627,1,0,0:0:0:0:
225,332,6792,1,0,0:0:0:0:
420,128,6957,1,0,0:0:0:0:
148,226,7122,1,0,0:0:0:0:
311,67,7286,1,0,0:0:0:0:
308,289,7451,1,0,0:0:0:0:
129,45,7616,1,0,0:0:0:0:
425,209,7781,1,0,0:0:0:0:
176,273,7946,5,0,0:0:0:0:
235,196,8111,1,0,0:0:0:0:
314,148,8275,2,0,P|420:194|425:210,1,105.000004005432
228,195,8605,5,0,0:0:0:0:
91,45,8770,1,0,0:0:0:0:
51,321,8935,1,0,0:0:0:0:
319,59,9100,1,0,0:0:0:0:
257,318,9264,1,0,0:0:0:0:
88,143,9429,1,0,0:0:0:0:
394,220,9594,1,0,0:0:0:0:
82,296,9759,1,0,0:0:0:0:
192,72,9924,2,0,P|245:82|306:55,1,105.000004005432
114,136,10253,5,0,0:0:0:0:
118,187,10335,1,0,0:0:0:0:
144,232,10417,1,0,0:0:0:0:
188,261,10500,1,0,0:0:0:0:
239,269,10582,1,0,0:0:0:0:
289,254,10665,1,0,0:0:0:0:
327,219,10747,1,0,0:0:0:0:
347,171,10829,1,0,0:0:0:0:
344,119,10912,1,0,0:0:0:0:
333,81,10995,5,0,0:0:0:0:
281,74,11077,1,0,0:0:0:0:
233,94,11159,1,0,0:0:0:0:
203,136,11242,1,0,0:0:0:0:
225,168,13715,5,0,0:0:0:0:
126,112,14045,1,0,0:0:0:0:
126,112,14209,2,0,P|109:190|127:226,1,95.9000027071381
189,282,14539,5,0,0:0:0:0:
341,215,14704,1,0,0:0:0:0:
280,346,14869,5,0,0:0:0:0:
232,183,15034,1,0,0:0:0:0:
402,293,15199,1,0,0:0:0:0:
358,104,15363,5,0,0:0:0:0:
384,98,15528,1,0,0:0:0:0:
270,193,15693,1,0,0:0:0:0:
245,169,15858,1,0,0:0:0:0:
377,82,16023,1,0,0:0:0:0:
370,108,16188,1,0,0:0:0:0:
354,311,16352,5,0,0:0:0:0:
319,293,16517,1,0,0:0:0:0:
220,167,16682,2,0,P|134:218|128:249,1,95.9000027071381
290,251,17012,1,0,0:0:0:0:
305,277,17177,1,0,0:0:0:0:
308,93,17341,5,0,0:0:0:0:
287,119,17506,1,0,0:0:0:0:
375,238,17671,1,0,0:0:0:0:
368,206,17836,1,0,0:0:0:0:
160,140,18001,5,0,0:0:0:0:
188,124,18166,1,0,0:0:0:0:
264,264,18330,1,0,0:0:0:0:
261,224,18495,1,0,0:0:0:0:
323,74,18660,5,0,0:0:0:0:
368,160,18825,1,0,0:0:0:0:
313,250,18990,6,0,P|381:311|412:298,1,95.9000027071381
232,174,19319,1,0,0:0:0:0:
215,142,19484,1,0,0:0:0:0:
338,49,19649,5,0,0:0:0:0:
326,87,19814,1,0,0:0:0:0:
341,271,19979,5,0,0:0:0:0:
326,238,20144,1,0,0:0:0:0:
208,70,20308,5,0,0:0:0:0:
193,102,20473,1,0,0:0:0:0:
305,260,20638,5,0,0:0:0:0:
285,234,20803,1,0,0:0:0:0:
314,64,20968,5,0,0:0:0:0:
283,104,21133,1,0,0:0:0:0:
397,269,21297,5,0,0:0:0:0:
378,215,21462,1,0,0:0:0:0:
221,51,21627,5,0,0:0:0:0:
176,125,21792,1,0,0:0:0:0:
230,240,21957,5,0,0:0:0:0:
405,128,22122,1,0,0:0:0:0:
436,238,22286,5,0,0:0:0:0:
218,122,22451,1,0,0:0:0:0:
316,320,22616,5,0,0:0:0:0:
316,320,22699,1,0,0:0:0:0:
316,320,22781,1,0,0:0:0:0:
287,49,22946,5,0,0:0:0:0:
157,325,23111,1,0,0:0:0:0:
401,208,23275,5,0,0:0:0:0:
319,151,23440,1,0,0:0:0:0:
410,109,23605,1,0,0:0:0:0:
305,53,23770,1,0,0:0:0:0:
314,300,23935,5,0,0:0:0:0:
314,300,24017,1,0,0:0:0:0:
314,300,24100,1,0,0:0:0:0:
314,300,24182,1,0,0:0:0:0:
314,300,24264,1,0,0:0:0:0:
314,300,24347,1,0,0:0:0:0:
314,300,24429,1,0,0:0:0:0:
219,217,24594,6,0,P|172:209|119:237,1,95.9000027071381
34,291,24924,1,0,0:0:0:0:
121,335,25089,1,0,0:0:0:0:
117,232,25253,2,0,P|183:224|203:237,1,70
217,306,25583,1,0,0:0:0:0:
295,254,25748,1,0,0:0:0:0:
201,180,25913,5,0,0:0:0:0:
295,254,26078,1,0,0:0:0:0:
343,155,26242,1,0,0:0:0:0:
386,294,26407,1,0,0:0:0:0:
343,155,26572,1,0,0:0:0:0:
463,193,26737,5,0,0:0:0:0:
221,290,26902,1,0,0:0:0:0:
225,119,27067,1,0,0:0:0:0:
364,282,27231,5,0,0:0:0:0:
364,282,27314,1,0,0:0:0:0:
364,282,27396,1,0,0:0:0:0:
270,202,27561,2,0,P|214:193|179:210,1,70
108,253,27891,5,0,0:0:0:0:
108,253,27973,1,0,0:0:0:0:
108,253,28056,2,0,P|176:308|213:291,1,105.000004005432
261,251,28385,1,0,0:0:0:0:
354,140,28550,1,0,0:0:0:0:
434,273,28715,5,0,0:0:0:0:
192,165,28880,1,0,0:0:0:0:
301,328,29045,1,0,0:0:0:0:
361,142,29374,2,0,P|396:102|475:122,1,105.000004005432
277,203,29704,6,0,P|181:220|159:197,1,105.000004005432
95,160,30034,5,0,0:0:0:0:
105,128,30199,1,0,0:0:0:0:
201,241,30363,5,0,0:0:0:0:
276,168,30528,2,0,P|385:169|408:188,1,105.000004005432
201,241,30858,6,0,P|112:240|103:223,1,105.000004005432
79,62,31188,1,0,0:0:0:0:
108,93,31352,1,0,0:0:0:0:
170,209,31517,1,0,0:0:0:0:
249,133,31682,2,0,P|330:128|359:161,1,105.000004005432
170,209,32012,6,0,P|114:225|154:129,1,210.000008010865
205,185,32506,6,0,P|286:153|279:129,1,105.000004005432
260,72,32836,1,0,0:0:0:0:
286,62,32918,1,0,0:0:0:0:
316,51,33001,2,0,P|341:54|374:87,1,70
312,174,33495,5,0,0:0:0:0:
375,265,33660,1,0,0:0:0:0:
413,172,33825,5,0,0:0:0:0:
417,148,33990,1,0,0:0:0:0:
421,123,34155,1,0,0:0:0:0:
426,98,34319,1,0,0:0:0:0:
361,15,34484,5,0,0:0:0:0:
270,229,34649,1,0,0:0:0:0:
230,111,34814,5,0,0:0:0:0:
396,305,34979,1,0,0:0:0:0:
385,106,35144,5,0,0:0:0:0:
401,119,35226,1,0,0:0:0:0:
421,133,35308,1,0,0:0:0:0:
254,137,35473,5,0,0:0:0:0:
300,283,35638,1,0,0:0:0:0:
136,173,35803,5,0,0:0:0:0:
57,57,35968,1,0,0:0:0:0:
206,302,36133,5,0,0:0:0:0:
216,291,36215,1,0,0:0:0:0:
230,273,36297,1,0,0:0:0:0:
327,204,36462,5,0,0:0:0:0:
125,128,36627,1,0,0:0:0:0:
272,60,36792,5,0,0:0:0:0:
219,257,36957,1,0,0:0:0:0:
415,100,37122,1,0,0:0:0:0:
370,331,37451,1,0,0:0:0:0:
246,125,37781,2,0,P|157:111|126:124,1,105.000004005432
54,208,38111,5,0,0:0:0:0:
310,224,38275,1,0,0:0:0:0:
210,113,38440,2,0,P|157:104|67:70,1,105.000004005432
310,224,38770,6,0,P|350:293|345:340,1,105.000004005432
229,145,39100,5,0,0:0:0:0:
110,148,39264,1,0,0:0:0:0:
176,293,39429,1,0,0:0:0:0:
345,160,39594,1,0,0:0:0:0:
302,330,39759,2,0,P|354:318|430:269,1,105.000004005432
148,213,40089,5,0,0:0:0:0:
143,183,40253,1,0,0:0:0:0:
245,307,40418,5,0,0:0:0:0:
245,307,40501,1,0,0:0:0:0:
245,307,40583,1,0,0:0:0:0:
310,194,40748,5,0,0:0:0:0:
377,331,40913,1,0,0:0:0:0:
166,226,41078,5,0,0:0:0:0:
166,226,41160,1,0,0:0:0:0:
166,226,41242,1,0,0:0:0:0:
259,106,41407,1,0,0:0:0:0:
296,214,41572,1,0,0:0:0:0:
222,317,41737,5,0,0:0:0:0:
179,123,41902,1,0,0:0:0:0:
324,238,42067,5,0,0:0:0:0:
73,246,42232,1,0,0:0:0:0:
271,108,42396,5,0,0:0:0:0:
165,289,42561,6,0,P|160:213|173:159,1,105.000004005432
225,114,42891,2,0,P|289:143|295:209,2,105.000004005432
125,174,43385,5,0,0:0:0:0:
203,298,43550,1,0,0:0:0:0:
305,194,43715,2,0,P|236:124|200:112,2,105.000004005432
246,273,44209,5,0,0:0:0:0:
85,225,44374,1,0,0:0:0:0:
206,75,44539,5,0,0:0:0:0:
354,328,44704,1,0,0:0:0:0:
375,89,44869,5,0,0:0:0:0:
172,361,45034,5,0,0:0:0:0:
174,308,45116,1,0,0:0:0:0:
177,256,45198,1,0,0:0:0:0:
180,203,45281,1,0,0:0:0:0:
183,151,45363,1,0,0:0:0:0:
190,57,45528,2,0,P|241:49|317:80,1,105.000004005432
339,168,45858,5,0,0:0:0:0:
427,100,46023,1,0,0:0:0:0:
393,316,46188,1,0,0:0:0:0:
248,276,46352,1,0,0:0:0:0:
229,101,46517,5,0,0:0:0:0:
248,276,46682,1,0,0:0:0:0:
337,176,46847,1,0,0:0:0:0:
128,215,47012,2,0,P|68:218|11:244,1,105.000004005432
241,316,47341,5,0,0:0:0:0:
291,330,47423,1,0,0:0:0:0:
342,323,47505,1,0,0:0:0:0:
387,296,47588,1,0,0:0:0:0:
417,254,47670,1,0,0:0:0:0:
427,202,47753,1,0,0:0:0:0:
415,152,47835,1,0,0:0:0:0:
333,70,48001,5,0,0:0:0:0:
288,71,48083,1,0,0:0:0:0:
250,75,48166,1,0,0:0:0:0:
210,83,48248,1,0,0:0:0:0:
169,86,48330,2,0,P|152:137|245:185,1,157.500006008148
281,115,48660,2,0,P|332:126|345:223,2,157.500006008148
184,171,49319,1,0,0:0:0:0:
239,257,49484,1,0,0:0:0:0:
263,65,49649,5,0,0:0:0:0:
263,65,49731,1,0,0:0:0:0:
263,65,49814,1,0,0:0:0:0:
263,65,49896,1,0,0:0:0:0:
263,65,49979,1,0,0:0:0:0:
366,163,50144,5,0,0:0:0:0:
94,238,50308,1,0,0:0:0:0:
54,109,50473,5,0,0:0:0:0:
467,295,50638,1,0,0:0:0:0:
314,41,50803,5,0,0:0:0:0:
312,93,50885,1,0,0:0:0:0:
310,145,50967,1,0,0:0:0:0:
305,198,51050,1,0,0:0:0:0:
299,250,51132,1,0,0:0:0:0:
195,311,51297,5,0,0:0:0:0:
66,67,51462,1,0,0:0:0:0:
216,112,51627,2,0,P|344:103|416:184,1,210.000008010865
117,225,52122,5,0,0:0:0:0:
85,75,52286,1,0,0:0:0:0:
235,270,52451,5,0,0:0:0:0:
316,76,52616,1,0,0:0:0:0:
366,244,52781,5,0,0:0:0:0:
99,145,52946,1,0,0:0:0:0:
203,336,53111,6,0,L|211:148,1,157.500006008148
306,59,53440,2,0,L|250:234,1,157.500006008148
201,303,53770,2,0,P|292:314|344:284,2,105.000004005432
94,225,54264,5,0,0:0:0:0:
195,100,54429,1,0,0:0:0:0:
211,291,54594,5,0,0:0:0:0:
211,291,54677,1,0,0:0:0:0:
211,291,54759,1,0,0:0:0:0:
313,209,54924,5,0,0:0:0:0:
86,71,55089,1,0,0:0:0:0:
337,231,55253,5,0,0:0:0:0:
65,41,55418,1,0,0:0:0:0:
158,262,55583,5,0,0:0:0:0:
206,137,55748,1,0,0:0:0:0:
314,237,55913,1,0,0:0:0:0:
329,68,56078,1,0,0:0:0:0:
207,328,56242,2,0,P|150:175|125:175,1,210.000008010865
66,243,56737,5,0,0:0:0:0:
190,235,56902,1,0,0:0:0:0:
129,129,57067,5,0,0:0:0:0:
283,162,57231,1,0,0:0:0:0:
261,320,57396,2,0,P|369:269|376:248,1,105.000004005432
137,239,57726,6,0,L|-5:208,1,105.000004005432
233,190,58056,2,0,P|267:139|337:146,1,105.000004005432
139,257,58385,1,0,0:0:0:0:
115,273,58550,5,0,0:0:0:0:
338,264,58715,1,0,0:0:0:0:
234,89,58880,1,0,0:0:0:0:
233,335,59045,1,0,0:0:0:0:
153,215,59209,6,0,B|97:204|99:136|99:136|65:114|110:55|184:47,1,210.000008010865
205,145,59704,1,0,0:0:0:0:
284,60,59869,1,0,0:0:0:0:
278,331,60034,5,0,0:0:0:0:
364,221,60199,5,0,0:0:0:0:
166,224,60363,1,0,0:0:0:0:
284,75,60528,5,0,0:0:0:0:
286,127,60610,1,0,0:0:0:0:
278,179,60692,1,0,0:0:0:0:
260,228,60775,1,0,0:0:0:0:
231,271,60857,1,0,0:0:0:0:
349,288,61023,5,0,0:0:0:0:
75,268,61188,1,0,0:0:0:0:
236,88,61352,5,0,0:0:0:0:
223,138,61434,1,0,0:0:0:0:
213,190,61516,1,0,0:0:0:0:
207,242,61599,1,0,0:0:0:0:
205,295,61681,1,0,0:0:0:0:
321,26,61847,6,0,P|385:52|426:93,1,105.000004005432
473,204,62177,2,0,P|405:222|344:202,1,105.000004005432
282,126,62506,2,0,P|192:126|134:151,2,105.000004005432
358,222,63001,1,0,0:0:0:0:
249,338,63166,1,0,0:0:0:0:
241,159,63330,5,0,0:0:0:0:
401,346,63495,1,0,0:0:0:0:
334,93,63660,6,0,P|386:104|452:205,1,157.500006008148
266,158,63990,2,0,P|186:174|97:139,1,157.500006008148
48,91,64319,1,0,0:0:0:0:
162,70,64484,1,0,0:0:0:0:
214,163,64649,1,0,0:0:0:0:
91,237,64814,5,0,0:0:0:0:
291,91,64979,1,0,0:0:0:0:
209,366,65144,2,0,B|175:278|175:278|230:229|229:228|231:168,1,210.000008010865
136,108,65638,5,0,0:0:0:0:
379,119,65803,1,0,0:0:0:0:
108,108,65968,5,0,0:0:0:0:
408,120,66133,1,0,0:0:0:0:
230,330,66297,5,0,0:0:0:0:
111,108,66462,1,0,0:0:0:0:
406,120,66627,5,0,0:0:0:0:
341,330,66792,1,0,0:0:0:0:
252,46,66957,2,0,B|239:106|208:151|208:151|196:259,1,210.000008010865
115,320,67451,1,0,0:0:0:0:
380,266,67616,1,0,0:0:0:0:
203,106,67781,1,0,0:0:0:0:
263,351,67946,5,0,0:0:0:0:
263,351,68028,1,0,0:0:0:0:
263,351,68111,1,0,0:0:0:0:
191,133,68275,2,0,P|122:139|71:163,1,105.000004005432
334,237,68605,2,0,P|389:218|452:229,1,105.000004005432
197,310,68935,2,0,P|211:237|203:174,1,105.000004005432
121,141,69264,5,0,0:0:0:0:
381,162,69429,1,0,0:0:0:0:
190,297,69594,5,0,0:0:0:0:
190,297,69677,1,0,0:0:0:0:
190,297,69759,1,0,0:0:0:0:
188,109,69924,5,0,0:0:0:0:
324,277,70089,1,0,0:0:0:0:
365,143,70253,1,0,0:0:0:0:
125,258,70418,1,0,0:0:0:0:
292,66,70583,1,0,0:0:0:0:
317,320,70748,1,0,0:0:0:0:
161,122,70913,1,0,0:0:0:0:
437,193,71078,5,0,0:0:0:0:
437,193,71160,1,0,0:0:0:0:
437,193,71242,1,0,0:0:0:0:
110,325,71407,5,0,0:0:0:0:
441,38,71572,1,0,0:0:0:0:
88,349,71737,5,0,0:0:0:0:
463,12,71902,1,0,0:0:0:0:
229,330,72067,6,0,P|281:340|241:297,1,140
154,258,72561,1,0,0:0:0:0:
154,258,72726,1,0,0:0:0:0:
198,142,72891,1,0,0:0:0:0:
294,207,73056,5,0,0:0:0:0:
294,207,73138,1,0,0:0:0:0:
294,207,73220,1,0,0:0:0:0:
198,142,73385,2,0,P|151:168|195:164,1,140
296,134,73880,1,0,0:0:0:0:
296,134,73962,1,0,0:0:0:0:
296,134,74045,1,0,0:0:0:0:
383,216,74209,5,0,0:0:0:0:
235,351,74374,1,0,0:0:0:0:
296,134,74539,5,0,0:0:0:0:
296,134,74622,1,0,0:0:0:0:
296,134,74704,1,0,0:0:0:0:
93,49,74869,5,0,0:0:0:0:
247,313,75034,1,0,0:0:0:0:
278,51,75199,5,0,0:0:0:0:
98,340,75363,1,0,0:0:0:0:
402,39,75528,5,0,0:0:0:0:
446,337,75693,1,0,0:0:0:0:
95,28,75858,5,0,0:0:0:0:
365,362,76023,1,0,0:0:0:0:
95,28,76188,1,0,0:0:0:0:
454,176,76352,5,0,0:0:0:0:
8,324,76517,1,0,0:0:0:0:
451,26,76682,5,0,0:0:0:0:
248,371,76847,1,0,0:0:0:0:
451,26,77012,1,0,0:0:0:0:
248,371,77177,1,0,0:0:0:0:
6,294,77341,5,0,0:0:0:0:
505,115,77506,1,0,0:0:0:0:
4,111,77671,5,0,0:0:0:0:
510,304,77836,1,0,0:0:0:0:
2,11,78001,5,0,0:0:0:0:
503,377,78166,1,0,0:0:0:0:
499,11,78330,5,0,0:0:0:0:
6,375,78495,1,0,0:0:0:0:
194,96,78660,6,0,L|450:155,3,245.000002336502
74,350,79979,5,0,0:0:0:0:
464,38,80144,1,0,0:0:0:0:
418,355,80308,5,0,0:0:0:0:
32,42,80473,1,0,0:0:0:0:
459,194,80638,5,0,0:0:0:0:
13,174,80803,1,0,0:0:0:0:
491,194,80968,5,0,0:0:0:0:
34,174,81133,1,0,0:0:0:0:
48,6,81297,5,0,0:0:0:0:
506,375,81462,1,0,0:0:0:0:
48,6,81627,1,0,0:0:0:0:
506,375,81792,1,0,0:0:0:0:
488,15,81957,5,0,0:0:0:0:
5,371,82122,1,0,0:0:0:0:
488,15,82286,1,0,0:0:0:0:
5,371,82451,1,0,0:0:0:0:
257,189,82616,1,0,0:0:0:0:
257,189,82781,5,0,0:0:0:0:
341,123,82946,1,0,0:0:0:0:
201,85,83111,1,0,0:0:0:0:
357,247,83275,1,0,0:0:0:0:
257,189,83440,1,0,0:0:0:0:
178,275,83605,1,0,0:0:0:0:
257,189,83770,1,0,0:0:0:0:
169,80,83935,5,0,0:0:0:0:
257,189,84100,1,0,0:0:0:0:
347,312,84264,5,0,0:0:0:0:
257,189,84429,1,0,0:0:0:0:
341,73,84594,5,8,0:0:0:0:
257,189,84759,1,8,0:0:0:0:
123,234,84924,1,8,0:0:0:0:
166,56,85089,5,8,0:0:0:0:
256,192,85253,12,0,92671,0:0:0:0:
