osu file format v14

[General]
AudioFilename: audio.mp3
AudioLeadIn: 0
PreviewTime: 148158
Countdown: 1
SampleSet: Normal
StackLeniency: 0.7
Mode: 1
LetterboxInBreaks: 0
WidescreenStoryboard: 1

[Editor]
Bookmarks: 2895,16473,26895,31947,52158,67316,72368,87526,97631,107737,117842,127947,138052,149421,164579,173421,189815,208815,223973,229025,234078,239131,241657
DistanceSpacing: 0.1
BeatDivisor: 4
GridSize: 8
TimelineZoom: 2.9

[Metadata]
Title:Ai no Prison
TitleUnicode:愛のプリズン
Artist:Kangoku Danshi
ArtistUnicode:監獄男子
Creator:Atreevete
Version:Prison
Source:Prison School
Tags:metal anime prison
BeatmapID:1890309
BeatmapSetID:905736

[Difficulty]
HPDrainRate:6
CircleSize:4
OverallDifficulty:6.5
ApproachRate:8
SliderMultiplier:1.4
SliderTickRate:1

[Events]
//Background and Video events
0,0,"Prison.png",0,0
//Break Periods
2,97831,98776
2,239331,240907
//Storyboard Layer 0 (Background)
//Storyboard Layer 1 (Fail)
//Storyboard Layer 2 (Pass)
//Storyboard Layer 3 (Foreground)
//Storyboard Sound Samples

[TimingPoints]
2895,315.789473684211,4,1,0,100,1,0
12289,-100,4,1,0,100,0,0
12487,-102.040816326531,4,1,0,100,0,0
12566,-104.166666666667,4,1,0,100,0,0
12645,-106.382978723404,4,1,0,100,0,0
12723,-108.695652173913,4,1,0,100,0,0
12802,-111.111111111111,4,1,0,100,0,0
12921,-111.111111111111,4,1,0,100,0,0
13079,-109.89010989011,4,1,0,100,0,0
13237,-108.695652173913,4,1,0,100,0,0
13395,-107.52688172043,4,1,0,100,0,0
13552,-106.382978723404,4,1,0,100,0,0
13710,-105.263157894737,4,1,0,100,0,0
13868,-104.166666666667,4,1,0,100,0,0
14026,-103.092783505155,4,1,0,100,0,0
14184,-102.040816326531,4,1,0,100,0,0
14342,-101.010101010101,4,1,0,100,0,0
14500,-100,4,1,0,100,0,0
14658,-99.009900990099,4,1,0,100,0,0
14816,-98.0392156862745,4,1,0,100,0,0
14973,-97.0873786407767,4,1,0,100,0,0
16434,-50,4,1,0,100,0,0
16750,-95.2380952380952,4,1,0,100,0,0
26973,-100,4,1,0,50,0,0
27131,-101.010101010101,4,1,0,50,0,0
27447,-102.040816326531,4,1,0,50,0,0
27763,-103.092783505155,4,1,0,50,0,0
28079,-104.166666666667,4,1,0,50,0,0
28395,-105.263157894737,4,1,0,50,0,0
28710,-106.382978723404,4,1,0,50,0,0
29026,-107.52688172043,4,1,0,50,0,0
29342,-108.695652173913,4,1,0,100,0,0
31868,-95.2380952380952,4,1,0,100,0,0
52118,-90.9090909090909,4,1,0,100,0,0
66763,-90.9090909090909,4,1,0,100,0,0
66802,-91.743119266055,4,1,0,100,0,0
66881,-92.5925925925926,4,1,0,100,0,0
66960,-93.4579439252336,4,1,0,100,0,0
67039,-94.3396226415094,4,1,0,100,0,0
67118,-95.2380952380952,4,1,0,100,0,0
67197,-96.1538461538461,4,1,0,100,0,0
67276,-97.0873786407767,4,1,0,100,0,0
67355,-98.0392156862745,4,1,0,100,0,0
67395,-99.009900990099,4,1,0,100,0,0
67434,-100,4,1,0,100,0,0
72013,-66.6666666666667,4,1,0,100,0,0
72131,-100,4,1,0,100,0,0
72210,-99.009900990099,4,1,0,100,0,0
72289,-97.0873786407767,4,1,0,100,0,0
72329,-95.2380952380952,4,1,0,100,0,0
72368,-95.2380952380952,4,1,0,100,0,1
87526,-100,4,1,0,100,0,0
97789,-100,4,1,0,100,0,0
99447,-95.2380952380952,4,1,0,100,0,0
99763,-90.9090909090909,4,1,0,100,0,0
100079,-86.9565217391304,4,1,0,100,0,0
102763,-100,4,1,0,100,0,0
102921,-101.010101010101,4,1,0,100,0,0
103552,-102.040816326531,4,1,0,100,0,0
104184,-103.092783505155,4,1,0,100,0,0
104816,-104.166666666667,4,1,0,100,0,0
105131,-105.263157894737,4,1,0,100,0,0
105447,-105.263157894737,4,1,0,100,0,0
105645,-106.382978723404,4,1,0,100,0,0
105802,-107.52688172043,4,1,0,100,0,0
105960,-108.695652173913,4,1,0,100,0,0
106118,-109.89010989011,4,1,0,100,0,0
106276,-111.111111111111,4,1,0,100,0,0
106434,-111.111111111111,4,1,0,100,0,0
106513,-109.89010989011,4,1,0,100,0,0
106592,-108.695652173913,4,1,0,100,0,0
106671,-107.52688172043,4,1,0,100,0,0
106750,-106.382978723404,4,1,0,100,0,0
106829,-105.263157894737,4,1,0,100,0,0
106908,-104.166666666667,4,1,0,100,0,0
106987,-103.092783505155,4,1,0,100,0,0
107066,-102.040816326531,4,1,0,100,0,0
107145,-101.010101010101,4,1,0,100,0,0
107223,-100,4,1,0,100,0,0
107263,-92.5925925925926,4,1,0,100,0,0
107658,-111.111111111111,4,1,0,100,0,0
114921,-111.111111111111,4,1,0,100,0,0
114960,-109.89010989011,4,1,0,100,0,0
115039,-108.695652173913,4,1,0,100,0,0
115118,-107.52688172043,4,1,0,100,0,0
115197,-106.382978723404,4,1,0,100,0,0
115276,-105.263157894737,4,1,0,100,0,0
115395,-104.166666666667,4,1,0,100,0,0
115552,-103.092783505155,4,1,0,100,0,0
115710,-102.040816326531,4,1,0,100,0,0
115868,-101.010101010101,4,1,0,100,0,0
116026,-100,4,1,0,100,0,0
116184,-99.009900990099,4,1,0,100,0,0
116342,-98.0392156862745,4,1,0,100,0,0
116500,-97.0873786407767,4,1,0,100,0,0
117447,-133.333333333333,4,1,0,100,0,0
117605,-100,4,1,0,100,0,0
124789,-100,4,1,0,100,0,0
124868,-101.010101010101,4,1,0,100,0,0
125026,-102.040816326531,4,1,0,100,0,0
125184,-103.092783505155,4,1,0,100,0,0
125342,-104.166666666667,4,1,0,100,0,0
125500,-105.263157894737,4,1,0,100,0,0
127868,-100,4,1,0,100,0,0
128105,-111.111111111111,4,1,0,100,0,0
128342,-125,4,1,0,100,0,0
128500,-133.333333333333,4,1,0,100,0,0
128816,-111.111111111111,4,1,0,100,0,0
128973,-109.89010989011,4,1,0,100,0,0
129131,-108.695652173913,4,1,0,100,0,0
129289,-107.52688172043,4,1,0,100,0,0
129447,-106.382978723404,4,1,0,100,0,0
129605,-105.263157894737,4,1,0,100,0,0
129763,-104.166666666667,4,1,0,100,0,0
129921,-103.092783505155,4,1,0,100,0,0
130079,-102.040816326531,4,1,0,100,0,0
130237,-101.010101010101,4,1,0,100,0,0
130395,-100,4,1,0,100,0,0
130631,-111.111111111111,4,1,0,100,0,0
130868,-125,4,1,0,100,0,0
131026,-133.333333333333,4,1,0,100,0,0
131342,-111.111111111111,4,1,0,100,0,0
131500,-109.89010989011,4,1,0,100,0,0
131658,-108.695652173913,4,1,0,100,0,0
131816,-107.52688172043,4,1,0,100,0,0
131973,-106.382978723404,4,1,0,100,0,0
132131,-105.263157894737,4,1,0,100,0,0
132289,-104.166666666667,4,1,0,100,0,0
132447,-103.092783505155,4,1,0,100,0,0
132605,-102.040816326531,4,1,0,100,0,0
132763,-101.010101010101,4,1,0,100,0,0
132921,-100,4,1,0,100,0,0
133158,-111.111111111111,4,1,0,100,0,0
133395,-125,4,1,0,100,0,0
133552,-133.333333333333,4,1,0,100,0,0
133868,-111.111111111111,4,1,0,100,0,0
134026,-109.89010989011,4,1,0,100,0,0
134184,-108.695652173913,4,1,0,100,0,0
134342,-107.52688172043,4,1,0,100,0,0
134500,-106.382978723404,4,1,0,100,0,0
134658,-105.263157894737,4,1,0,100,0,0
134816,-104.166666666667,4,1,0,100,0,0
134973,-103.092783505155,4,1,0,100,0,0
135131,-102.040816326531,4,1,0,100,0,0
135289,-101.010101010101,4,1,0,100,0,0
135447,-100,4,1,0,100,0,0
135684,-111.111111111111,4,1,0,100,0,0
135921,-125,4,1,0,100,0,0
136079,-133.333333333333,4,1,0,100,0,0
136395,-111.111111111111,4,1,0,100,0,0
136552,-109.89010989011,4,1,0,100,0,0
136710,-108.695652173913,4,1,0,100,0,0
136868,-107.52688172043,4,1,0,100,0,0
137026,-106.382978723404,4,1,0,100,0,0
137184,-105.263157894737,4,1,0,100,0,0
137342,-104.166666666667,4,1,0,100,0,0
137500,-103.092783505155,4,1,0,100,0,0
137658,-102.040816326531,4,1,0,100,0,0
137816,-101.010101010101,4,1,0,100,0,0
137973,-100,4,1,0,100,0,0
138052,-95.2380952380952,4,1,0,100,0,0
140500,-66.6666666666667,4,1,0,100,0,0
140658,-95.2380952380952,4,1,0,100,0,0
143184,-90.9090909090909,4,1,0,100,0,0
145395,-90.9090909090909,4,1,0,100,0,0
145552,-90.9090909090909,4,1,0,100,0,0
145710,-91.743119266055,4,1,0,100,0,0
145868,-92.5925925925926,4,1,0,100,0,0
146026,-93.4579439252336,4,1,0,100,0,0
146184,-94.3396226415094,4,1,0,100,0,0
146342,-95.2380952380952,4,1,0,100,0,0
146500,-96.1538461538461,4,1,0,100,0,0
146658,-97.0873786407767,4,1,0,100,0,0
146816,-98.0392156862745,4,1,0,100,0,0
146973,-99.009900990099,4,1,0,100,0,0
147131,-100,4,1,0,100,0,0
148158,-100,4,1,0,100,0,0
148473,-111.111111111111,4,1,0,100,0,0
148789,-125,4,1,0,100,0,0
149026,-50,4,1,0,100,0,0
149184,-100,4,1,0,100,0,0
149421,-95.2380952380952,4,1,0,100,0,1
164579,-100,4,1,0,100,0,0
174684,500,4,1,0,100,1,0
174684,-100,4,1,0,100,0,0
176059,-66.6666666666667,4,1,0,100,0,0
178059,-66.6666666666667,4,1,0,100,0,0
178184,-66.2251655629139,4,1,0,100,0,0
178309,-65.7894736842105,4,1,0,100,0,0
178434,-65.359477124183,4,1,0,100,0,0
178559,-64.9350649350649,4,1,0,100,0,0
178684,-64.5161290322581,4,1,0,100,0,0
178809,-64.1025641025641,4,1,0,100,0,0
179059,-63.2911392405063,4,1,0,100,0,0
179309,-62.5,4,1,0,100,0,0
179559,-61.7283950617284,4,1,0,100,0,0
179809,-60.9756097560976,4,1,0,100,0,0
180059,-60.2409638554217,4,1,0,100,0,0
180309,-59.5238095238095,4,1,0,100,0,0
180559,-58.8235294117647,4,1,0,100,0,0
180621,-58.8235294117647,4,1,0,100,0,0
180746,-57.1428571428571,4,1,0,100,0,0
180871,-55.5555555555556,4,1,0,100,0,0
180996,-54.054054054054,4,1,0,100,0,0
181121,-52.6315789473684,4,1,0,100,0,0
181246,-51.2820512820513,4,1,0,100,0,0
181371,-50,4,1,0,100,0,0
181496,-48.780487804878,4,1,0,100,0,0
181621,-47.6190476190476,4,1,0,100,0,0
182621,-47.6190476190476,4,1,0,100,0,0
182746,-48.0769230769231,4,1,0,100,0,0
182871,-48.5436893203883,4,1,0,100,0,0
182996,-49.0196078431373,4,1,0,100,0,0
183121,-49.5049504950495,4,1,0,100,0,0
183246,-50,4,1,0,100,0,0
183371,-50.5050505050505,4,1,0,100,0,0
183496,-51.0204081632653,4,1,0,100,0,0
183621,-51.5463917525773,4,1,0,100,0,0
183746,-52.0833333333333,4,1,0,100,0,0
183871,-52.6315789473684,4,1,0,100,0,0
183996,-53.1914893617021,4,1,0,100,0,0
184121,-53.763440860215,4,1,0,100,0,0
184246,-54.3478260869565,4,1,0,100,0,0
184371,-54.9450549450549,4,1,0,100,0,0
184496,-55.5555555555556,4,1,0,100,0,0
184621,-47.6190476190476,4,1,0,100,0,0
184746,-48.0769230769231,4,1,0,100,0,0
184871,-48.5436893203883,4,1,0,100,0,0
184996,-49.0196078431373,4,1,0,100,0,0
185121,-49.5049504950495,4,1,0,100,0,0
185246,-50,4,1,0,100,0,0
185371,-50.5050505050505,4,1,0,100,0,0
185496,-51.0204081632653,4,1,0,100,0,0
185621,-51.5463917525773,4,1,0,100,0,0
185746,-52.0833333333333,4,1,0,100,0,0
185871,-52.6315789473684,4,1,0,100,0,0
185996,-53.1914893617021,4,1,0,100,0,0
186121,-53.763440860215,4,1,0,100,0,0
186246,-54.3478260869565,4,1,0,100,0,0
186371,-54.9450549450549,4,1,0,100,0,0
186496,-55.5555555555556,4,1,0,100,0,0
186621,-47.6190476190476,4,1,0,100,0,0
186746,-48.0769230769231,4,1,0,100,0,0
186871,-48.5436893203883,4,1,0,100,0,0
186996,-49.0196078431373,4,1,0,100,0,0
187121,-49.5049504950495,4,1,0,100,0,0
187246,-50,4,1,0,100,0,0
187371,-50.5050505050505,4,1,0,100,0,0
187496,-51.0204081632653,4,1,0,100,0,0
187621,-51.5463917525773,4,1,0,100,0,0
187746,-52.0833333333333,4,1,0,100,0,0
187871,-52.6315789473684,4,1,0,100,0,0
187996,-53.1914893617021,4,1,0,100,0,0
188121,-53.763440860215,4,1,0,100,0,0
188246,-54.3478260869565,4,1,0,100,0,0
188371,-54.9450549450549,4,1,0,100,0,0
188496,-55.5555555555556,4,1,0,100,0,0
188621,-47.6190476190476,4,1,0,100,0,0
188746,-48.0769230769231,4,1,0,100,0,0
188871,-48.5436893203883,4,1,0,100,0,0
188996,-49.0196078431373,4,1,0,100,0,0
189121,-49.5049504950495,4,1,0,100,0,0
189246,-50,4,1,0,100,0,0
189371,-50.5050505050505,4,1,0,100,0,0
189496,-51.0204081632653,4,1,0,100,0,0
189621,-51.5463917525773,4,1,0,100,0,0
189746,-52.0833333333333,4,1,0,100,0,0
189871,-52.6315789473684,4,1,0,100,0,0
189996,-53.1914893617021,4,1,0,100,0,0
190121,-53.763440860215,4,1,0,100,0,0
190246,-54.3478260869565,4,1,0,100,0,0
190371,-54.9450549450549,4,1,0,100,0,0
190496,-55.5555555555556,4,1,0,100,0,0
190621,-56.1797752808989,4,1,0,100,0,0
190746,-56.8181818181818,4,1,0,100,0,0
190871,-57.4712643678161,4,1,0,100,0,0
190996,-58.8235294117647,4,1,0,100,0,0
198710,315.789473684211,4,1,0,100,1,0
198710,-80,4,1,0,100,0,0
198907,-105.263157894737,4,1,0,100,0,0
206525,-105.263157894737,4,1,0,100,0,0
206683,-104.166666666667,4,1,0,100,0,0
206841,-103.092783505155,4,1,0,100,0,0
206999,-102.040816326531,4,1,0,100,0,0
207157,-101.010101010101,4,1,0,100,0,0
207315,-100,4,1,0,100,0,0
207473,-99.009900990099,4,1,0,100,0,0
207631,-98.0392156862745,4,1,0,100,0,0
207788,-96.1538461538461,4,1,0,100,0,0
207946,-97.0873786407767,4,1,0,100,0,0
208104,-96.1538461538461,4,1,0,100,0,0
208262,-95.2380952380952,4,1,0,100,0,0
211341,-95.2380952380952,4,1,0,100,0,1
239131,-100,4,1,0,100,0,0

[HitObjects]
184,178,2895,5,4,0:0:0:0:
184,178,3052,1,4,0:0:0:0:
163,214,3210,1,4,0:0:0:0:
163,214,3368,1,4,0:0:0:0:
163,214,3684,1,4,0:0:0:0:
163,214,4000,1,4,0:0:0:0:
158,199,4789,1,12,0:0:0:0:
134,222,5421,1,4,0:0:0:0:
134,222,5579,1,4,0:0:0:0:
134,222,5737,1,4,0:0:0:0:
134,222,5895,1,4,0:0:0:0:
134,222,6210,1,4,0:0:0:0:
134,222,6526,1,4,0:0:0:0:
134,222,7316,1,12,0:0:0:0:
140,219,7947,1,4,0:0:0:0:
140,220,8105,1,4,0:0:0:0:
140,220,8263,1,4,0:0:0:0:
140,219,8421,1,4,0:0:0:0:
140,219,8737,1,4,0:0:0:0:
149,224,9052,1,4,0:0:0:0:
161,221,9842,1,12,0:0:0:0:
161,221,10158,1,0,0:0:0:0:
161,221,10473,1,4,0:0:0:0:
161,221,10631,1,4,0:0:0:0:
161,221,10789,1,4,0:0:0:0:
161,221,10947,1,4,0:0:0:0:
161,221,11263,1,12,0:0:0:0:
161,221,11579,1,12,0:0:0:0:
161,221,12368,1,12,0:0:0:0:
161,221,12526,1,0,0:0:0:0:
161,221,12605,1,0,0:0:0:0:
161,221,12684,1,8,0:0:0:0:
161,221,12842,1,0,0:0:0:0:
161,221,13000,1,8,0:0:0:0:
151,194,13158,1,0,0:0:0:0:
151,194,13316,1,4,0:0:0:0:
151,194,13473,1,4,0:0:0:0:
151,194,13631,1,4,0:0:0:0:
151,194,13789,1,4,0:0:0:0:
151,194,13947,1,4,0:0:0:0:
151,194,14105,1,4,0:0:0:0:
151,194,14263,1,12,0:0:0:0:
151,194,14421,1,12,0:0:0:0:
151,194,14579,1,12,0:0:0:0:
151,194,14737,1,12,0:0:0:0:
151,194,14895,1,12,0:0:0:0:
73,174,15052,1,8,0:0:0:0:
73,174,15131,1,0,0:0:0:0:
73,174,15210,1,8,0:0:0:0:
73,174,15289,1,8,0:0:0:0:
73,174,15368,1,0,0:0:0:0:
146,241,15447,1,8,0:0:0:0:
146,241,15526,1,0,0:0:0:0:
69,174,16473,1,12,0:0:0:0:
98,197,16789,1,0,0:0:0:0:
132,196,16947,1,8,0:0:0:0:
132,196,17105,1,0,0:0:0:0:
132,196,17184,1,0,0:0:0:0:
132,196,17263,1,8,0:0:0:0:
126,233,17421,1,0,0:0:0:0:
126,233,17579,1,8,0:0:0:0:
126,233,17737,1,0,0:0:0:0:
126,233,17816,1,0,0:0:0:0:
126,233,17895,1,8,0:0:0:0:
112,248,18052,1,0,0:0:0:0:
197,88,18210,1,8,0:0:0:0:
135,229,18289,1,0,0:0:0:0:
135,229,18368,1,0,0:0:0:0:
135,229,18447,1,0,0:0:0:0:
114,224,18526,1,8,0:0:0:0:
134,229,18684,1,0,0:0:0:0:
114,224,18842,1,8,0:0:0:0:
138,217,18921,1,8,0:0:0:0:
138,217,19000,1,8,0:0:0:0:
138,217,19079,1,0,0:0:0:0:
97,233,19158,1,8,0:0:0:0:
138,217,19316,1,12,0:0:0:0:
117,238,19473,1,8,0:0:0:0:
131,217,19631,1,0,0:0:0:0:
131,217,19710,1,0,0:0:0:0:
131,217,19789,1,8,0:0:0:0:
131,217,19947,1,0,0:0:0:0:
131,217,20105,1,8,0:0:0:0:
131,217,20263,1,0,0:0:0:0:
131,217,20342,1,0,0:0:0:0:
131,217,20421,1,8,0:0:0:0:
118,231,20579,1,0,0:0:0:0:
114,232,20737,1,8,0:0:0:0:
114,232,20816,1,0,0:0:0:0:
114,232,20895,1,0,0:0:0:0:
114,232,20973,1,0,0:0:0:0:
114,232,21052,1,8,0:0:0:0:
114,232,21210,1,0,0:0:0:0:
114,232,21368,1,8,0:0:0:0:
106,241,21447,1,8,0:0:0:0:
106,241,21526,1,0,0:0:0:0:
106,241,21605,1,0,0:0:0:0:
106,241,21684,1,8,0:0:0:0:
106,241,21842,1,12,0:0:0:0:
106,241,22000,1,8,0:0:0:0:
141,182,22158,1,0,0:0:0:0:
141,182,22237,1,0,0:0:0:0:
141,182,22316,1,8,0:0:0:0:
141,182,22473,1,0,0:0:0:0:
141,182,22631,1,8,0:0:0:0:
141,182,22789,1,0,0:0:0:0:
141,182,22868,1,0,0:0:0:0:
141,182,22947,1,8,0:0:0:0:
122,199,23105,1,0,0:0:0:0:
122,199,23263,1,8,0:0:0:0:
116,209,23342,1,8,0:0:0:0:
116,209,23421,1,8,0:0:0:0:
114,209,23500,1,8,0:0:0:0:
100,195,23579,1,0,0:0:0:0:
114,209,23658,1,0,0:0:0:0:
116,209,23737,1,0,0:0:0:0:
116,209,23816,1,0,0:0:0:0:
100,195,23895,1,8,0:0:0:0:
114,210,23973,1,8,0:0:0:0:
114,210,24052,1,0,0:0:0:0:
62,176,24131,1,0,0:0:0:0:
100,195,24210,1,8,0:0:0:0:
111,225,24368,1,12,0:0:0:0:
100,195,24526,1,8,0:0:0:0:
120,201,24684,1,0,0:0:0:0:
120,201,24763,1,0,0:0:0:0:
97,213,24842,1,8,0:0:0:0:
120,201,25000,1,0,0:0:0:0:
97,213,25158,1,8,0:0:0:0:
120,201,25316,1,0,0:0:0:0:
120,201,25395,1,0,0:0:0:0:
97,213,25473,1,8,0:0:0:0:
120,201,25631,1,0,0:0:0:0:
97,213,25789,1,8,0:0:0:0:
115,179,25868,1,0,0:0:0:0:
120,201,25947,1,8,0:0:0:0:
137,182,26105,1,12,0:0:0:0:
144,230,26263,1,0,0:0:0:0:
148,179,26421,1,8,0:0:0:0:
148,179,26500,1,8,0:0:0:0:
148,179,26579,1,8,0:0:0:0:
148,179,26658,1,0,0:0:0:0:
148,179,26737,1,0,0:0:0:0:
148,179,26816,1,0,0:0:0:0:
148,179,26895,1,8,0:0:0:0:
148,179,27210,1,8,0:0:0:0:
148,179,27526,1,8,0:0:0:0:
148,179,27842,1,8,0:0:0:0:
148,179,28158,1,8,0:0:0:0:
148,179,28473,1,8,0:0:0:0:
148,179,28789,1,8,0:0:0:0:
167,172,29105,1,0,0:0:0:0:
148,179,29421,1,12,0:0:0:0:
135,188,29737,1,0,0:0:0:0:
149,193,29895,1,0,0:0:0:0:
149,193,30052,1,0,0:0:0:0:
149,193,30210,1,0,0:0:0:0:
149,193,30368,1,0,0:0:0:0:
149,193,30526,1,0,0:0:0:0:
149,193,30605,1,0,0:0:0:0:
176,202,30684,1,8,0:0:0:0:
176,202,30921,1,8,0:0:0:0:
176,202,31158,1,0,0:0:0:0:
176,202,31316,1,8,0:0:0:0:
176,202,31552,1,0,0:0:0:0:
176,202,31789,1,8,0:0:0:0:
180,195,31947,1,12,0:0:0:0:
106,177,32105,1,8,0:0:0:0:
146,175,32263,1,0,0:0:0:0:
139,136,32342,1,0,0:0:0:0:
92,180,32421,1,8,0:0:0:0:
84,196,32579,1,0,0:0:0:0:
92,188,32737,1,8,0:0:0:0:
84,196,32895,1,0,0:0:0:0:
84,196,32973,1,0,0:0:0:0:
84,196,33052,1,8,0:0:0:0:
108,167,33210,1,8,0:0:0:0:
108,167,33289,1,8,0:0:0:0:
108,167,33368,1,0,0:0:0:0:
108,167,33526,1,0,0:0:0:0:
108,167,33684,1,8,0:0:0:0:
108,167,33763,1,8,0:0:0:0:
173,191,33842,1,0,0:0:0:0:
108,167,34000,1,8,0:0:0:0:
211,194,34079,1,8,0:0:0:0:
211,194,34158,1,0,0:0:0:0:
82,167,34237,1,0,0:0:0:0:
104,212,34316,1,8,0:0:0:0:
199,220,34395,1,0,0:0:0:0:
104,212,34473,1,8,0:0:0:0:
104,212,34631,1,8,0:0:0:0:
127,175,34789,1,0,0:0:0:0:
104,212,34868,1,0,0:0:0:0:
104,212,34947,1,8,0:0:0:0:
80,194,35105,1,0,0:0:0:0:
80,194,35263,1,8,0:0:0:0:
91,196,35421,1,0,0:0:0:0:
80,194,35500,1,0,0:0:0:0:
104,212,35579,1,8,0:0:0:0:
104,212,35737,1,8,0:0:0:0:
104,212,35816,1,8,0:0:0:0:
104,212,35895,1,0,0:0:0:0:
104,212,35973,1,0,0:0:0:0:
99,213,36052,1,8,0:0:0:0:
99,213,36210,1,8,0:0:0:0:
99,213,36368,1,0,0:0:0:0:
104,212,36526,1,0,0:0:0:0:
183,216,36605,1,0,0:0:0:0:
104,212,36684,1,8,0:0:0:0:
88,168,36763,1,8,0:0:0:0:
88,168,36842,1,0,0:0:0:0:
88,168,36921,1,8,0:0:0:0:
88,168,37000,1,0,0:0:0:0:
83,187,37158,1,8,0:0:0:0:
83,187,37316,1,0,0:0:0:0:
83,187,37395,1,0,0:0:0:0:
83,187,37473,1,8,0:0:0:0:
79,189,37631,1,0,0:0:0:0:
79,189,37789,1,8,0:0:0:0:
79,189,37947,1,0,0:0:0:0:
79,189,38026,1,0,0:0:0:0:
83,187,38105,1,8,0:0:0:0:
65,182,38263,1,8,0:0:0:0:
113,175,38342,1,0,0:0:0:0:
100,155,38421,1,8,0:0:0:0:
65,182,38500,1,8,0:0:0:0:
65,182,38579,1,0,0:0:0:0:
149,142,38658,1,0,0:0:0:0:
102,176,38737,1,8,0:0:0:0:
102,176,38816,1,0,0:0:0:0:
102,176,38895,1,8,0:0:0:0:
102,176,39052,1,0,0:0:0:0:
167,211,39210,1,8,0:0:0:0:
160,199,39289,1,0,0:0:0:0:
160,199,39368,1,8,0:0:0:0:
160,199,39447,1,0,0:0:0:0:
72,196,39526,1,8,0:0:0:0:
63,201,39684,1,0,0:0:0:0:
72,195,39842,1,8,0:0:0:0:
72,195,39921,1,8,0:0:0:0:
72,195,40000,1,8,0:0:0:0:
129,185,40158,1,0,0:0:0:0:
121,189,40316,1,8,0:0:0:0:
114,187,40395,1,8,0:0:0:0:
114,187,40473,1,0,0:0:0:0:
98,175,40631,1,0,0:0:0:0:
114,187,40789,1,8,0:0:0:0:
114,187,40868,1,8,0:0:0:0:
114,187,40947,1,8,0:0:0:0:
114,187,41026,1,8,0:0:0:0:
114,187,41105,1,0,0:0:0:0:
114,187,41184,1,0,0:0:0:0:
114,187,41263,1,0,0:0:0:0:
114,187,41342,1,0,0:0:0:0:
114,187,41421,1,8,0:0:0:0:
114,187,41500,1,8,0:0:0:0:
114,187,41579,1,0,0:0:0:0:
114,187,41658,1,0,0:0:0:0:
114,187,41737,1,8,0:0:0:0:
114,187,41816,1,8,0:0:0:0:
114,187,41895,1,0,0:0:0:0:
114,187,41973,1,0,0:0:0:0:
114,187,42052,1,8,0:0:0:0:
134,195,42210,1,8,0:0:0:0:
108,209,42368,1,0,0:0:0:0:
108,209,42447,1,0,0:0:0:0:
108,209,42526,1,8,0:0:0:0:
97,214,42684,1,0,0:0:0:0:
97,214,42842,1,8,0:0:0:0:
97,214,43000,1,0,0:0:0:0:
97,214,43079,1,0,0:0:0:0:
97,214,43158,1,8,0:0:0:0:
90,193,43316,1,8,0:0:0:0:
90,193,43395,1,8,0:0:0:0:
90,193,43473,1,8,0:0:0:0:
90,193,43631,1,0,0:0:0:0:
90,193,43789,1,8,0:0:0:0:
90,193,43868,1,8,0:0:0:0:
90,193,43947,1,0,0:0:0:0:
90,193,44105,1,0,0:0:0:0:
90,193,44184,1,0,0:0:0:0:
90,193,44263,1,8,0:0:0:0:
90,193,44342,1,8,0:0:0:0:
90,193,44421,1,0,0:0:0:0:
90,193,44500,1,0,0:0:0:0:
90,193,44579,1,8,0:0:0:0:
90,193,44737,1,8,0:0:0:0:
90,193,44895,1,0,0:0:0:0:
90,193,44973,1,0,0:0:0:0:
90,193,45052,1,8,0:0:0:0:
90,193,45210,1,0,0:0:0:0:
90,193,45368,1,8,0:0:0:0:
90,193,45526,1,0,0:0:0:0:
90,193,45605,1,0,0:0:0:0:
90,193,45684,1,8,0:0:0:0:
74,169,45842,1,8,0:0:0:0:
74,169,45921,1,8,0:0:0:0:
74,169,46000,1,0,0:0:0:0:
74,169,46158,1,0,0:0:0:0:
106,189,46315,1,8,0:0:0:0:
106,189,46394,1,0,0:0:0:0:
106,189,46473,1,0,0:0:0:0:
106,189,46552,1,0,0:0:0:0:
106,189,46631,1,8,0:0:0:0:
106,189,46710,1,0,0:0:0:0:
106,189,46789,1,8,0:0:0:0:
106,189,46868,1,8,0:0:0:0:
106,189,46946,1,0,0:0:0:0:
122,147,47026,1,0,0:0:0:0:
74,164,47105,1,8,0:0:0:0:
90,193,47263,1,8,0:0:0:0:
90,193,47421,1,0,0:0:0:0:
90,193,47500,1,0,0:0:0:0:
90,193,47579,1,8,0:0:0:0:
90,193,47737,1,0,0:0:0:0:
90,193,47895,1,8,0:0:0:0:
129,183,48052,1,0,0:0:0:0:
129,183,48131,1,0,0:0:0:0:
129,183,48210,1,8,0:0:0:0:
106,197,48368,1,8,0:0:0:0:
106,197,48447,1,0,0:0:0:0:
106,197,48526,1,8,0:0:0:0:
183,154,48605,1,8,0:0:0:0:
106,197,48684,1,0,0:0:0:0:
183,154,48763,1,0,0:0:0:0:
106,197,48842,1,8,0:0:0:0:
106,197,48921,1,0,0:0:0:0:
106,197,49000,1,8,0:0:0:0:
106,197,49158,1,8,0:0:0:0:
106,197,49237,1,8,0:0:0:0:
106,197,49316,1,0,0:0:0:0:
106,197,49395,1,8,0:0:0:0:
106,197,49473,1,8,0:0:0:0:
106,197,49552,1,0,0:0:0:0:
129,189,49631,1,8,0:0:0:0:
117,177,49789,1,8,0:0:0:0:
116,179,49947,1,0,0:0:0:0:
116,179,50026,1,0,0:0:0:0:
116,179,50105,1,8,0:0:0:0:
112,180,50263,1,0,0:0:0:0:
112,180,50421,1,8,0:0:0:0:
134,191,50500,1,8,0:0:0:0:
134,191,50579,1,0,0:0:0:0:
134,191,50658,1,0,0:0:0:0:
134,191,50737,1,8,0:0:0:0:
128,213,50895,1,0,0:0:0:0:
115,192,51052,1,8,0:0:0:0:
56,174,51210,1,8,0:0:0:0:
56,174,51289,1,8,0:0:0:0:
56,174,51368,1,8,0:0:0:0:
89,186,51526,1,0,0:0:0:0:
76,213,51605,1,0,0:0:0:0:
76,213,51684,1,0,0:0:0:0:
76,213,51763,1,0,0:0:0:0:
76,213,51842,1,8,0:0:0:0:
76,213,51921,1,8,0:0:0:0:
76,213,52000,1,0,0:0:0:0:
76,213,52079,1,0,0:0:0:0:
150,251,52158,1,12,0:0:0:0:
120,221,52316,1,8,0:0:0:0:
99,224,52473,1,0,0:0:0:0:
99,224,52552,1,0,0:0:0:0:
120,221,52631,1,8,0:0:0:0:
126,236,52789,1,0,0:0:0:0:
120,221,52947,1,8,0:0:0:0:
134,223,53026,1,0,0:0:0:0:
120,221,53105,1,0,0:0:0:0:
120,221,53184,1,0,0:0:0:0:
120,221,53263,1,8,0:0:0:0:
123,218,53421,1,0,0:0:0:0:
123,218,53579,1,8,0:0:0:0:
120,221,53658,1,0,0:0:0:0:
123,218,53737,1,0,0:0:0:0:
113,208,53895,1,8,0:0:0:0:
161,206,54052,1,0,0:0:0:0:
161,206,54131,1,0,0:0:0:0:
113,208,54210,1,8,0:0:0:0:
138,197,54289,1,0,0:0:0:0:
138,197,54368,1,0,0:0:0:0:
126,205,54447,1,0,0:0:0:0:
113,208,54526,1,8,0:0:0:0:
113,208,54684,1,12,0:0:0:0:
113,208,54842,1,8,0:0:0:0:
41,181,54921,1,0,0:0:0:0:
63,179,55079,1,0,0:0:0:0:
107,193,55158,1,8,0:0:0:0:
131,207,55316,1,0,0:0:0:0:
107,193,55395,1,0,0:0:0:0:
113,208,55473,1,8,0:0:0:0:
130,146,55631,1,0,0:0:0:0:
113,208,55789,1,8,0:0:0:0:
74,186,55947,1,0,0:0:0:0:
36,169,56026,1,0,0:0:0:0:
113,208,56105,1,8,0:0:0:0:
74,186,56184,1,0,0:0:0:0:
74,186,56263,1,0,0:0:0:0:
74,186,56342,1,0,0:0:0:0:
113,208,56421,1,8,0:0:0:0:
74,186,56579,1,0,0:0:0:0:
113,208,56737,1,8,0:0:0:0:
74,186,56816,1,8,0:0:0:0:
152,153,56895,1,0,0:0:0:0:
74,186,56973,1,0,0:0:0:0:
113,208,57052,1,8,0:0:0:0:
113,208,57210,1,12,0:0:0:0:
135,207,57368,1,0,0:0:0:0:
154,174,57526,1,0,0:0:0:0:
154,174,57605,1,0,0:0:0:0:
113,208,57684,1,8,0:0:0:0:
154,174,57842,1,0,0:0:0:0:
113,208,58000,1,8,0:0:0:0:
154,174,58079,1,8,0:0:0:0:
154,174,58158,1,0,0:0:0:0:
113,208,58316,1,8,0:0:0:0:
154,174,58473,1,0,0:0:0:0:
113,208,58631,1,8,0:0:0:0:
154,174,58789,1,0,0:0:0:0:
154,174,58868,1,0,0:0:0:0:
113,208,58947,1,8,0:0:0:0:
154,174,59026,1,0,0:0:0:0:
154,174,59105,1,0,0:0:0:0:
154,174,59184,1,0,0:0:0:0:
113,208,59263,1,8,0:0:0:0:
154,174,59342,1,0,0:0:0:0:
154,174,59421,1,0,0:0:0:0:
154,174,59500,1,0,0:0:0:0:
113,208,59579,1,8,0:0:0:0:
113,208,59737,1,12,0:0:0:0:
113,208,59895,1,8,0:0:0:0:
154,174,60052,1,0,0:0:0:0:
154,174,60131,1,0,0:0:0:0:
113,208,60210,1,8,0:0:0:0:
154,174,60368,1,0,0:0:0:0:
113,208,60526,1,8,0:0:0:0:
154,174,60605,1,0,0:0:0:0:
154,174,60763,1,0,0:0:0:0:
113,208,60842,1,8,0:0:0:0:
154,174,61000,1,0,0:0:0:0:
154,174,61079,1,0,0:0:0:0:
113,208,61158,1,8,0:0:0:0:
154,174,61316,1,8,0:0:0:0:
154,174,61395,1,8,0:0:0:0:
136,192,61473,1,0,0:0:0:0:
136,192,61552,1,0,0:0:0:0:
136,192,61631,1,8,0:0:0:0:
154,174,61710,1,0,0:0:0:0:
113,208,61789,1,8,0:0:0:0:
154,174,61868,1,8,0:0:0:0:
154,174,61947,1,0,0:0:0:0:
154,174,62026,1,0,0:0:0:0:
113,208,62105,1,8,0:0:0:0:
113,208,62263,1,12,0:0:0:0:
113,208,62421,1,8,0:0:0:0:
154,174,62579,1,0,0:0:0:0:
154,174,62658,1,0,0:0:0:0:
113,208,62737,1,8,0:0:0:0:
109,177,62895,1,0,0:0:0:0:
113,208,63052,1,8,0:0:0:0:
109,177,63131,1,0,0:0:0:0:
109,177,63289,1,0,0:0:0:0:
113,208,63368,1,8,0:0:0:0:
109,177,63526,1,0,0:0:0:0:
109,177,63605,1,0,0:0:0:0:
109,177,63684,1,0,0:0:0:0:
109,177,63842,1,0,0:0:0:0:
113,208,64000,1,8,0:0:0:0:
109,177,64158,1,0,0:0:0:0:
109,177,64237,1,0,0:0:0:0:
113,208,64316,1,8,0:0:0:0:
109,177,64395,1,0,0:0:0:0:
109,177,64473,1,0,0:0:0:0:
109,177,64552,1,0,0:0:0:0:
113,208,64631,1,8,0:0:0:0:
113,208,64789,1,12,0:0:0:0:
113,208,64947,1,8,0:0:0:0:
108,219,65026,1,0,0:0:0:0:
108,219,65184,1,0,0:0:0:0:
113,208,65263,1,8,0:0:0:0:
108,226,65421,1,0,0:0:0:0:
108,226,65500,1,0,0:0:0:0:
113,208,65579,1,8,0:0:0:0:
110,200,65658,1,0,0:0:0:0:
110,200,65737,1,0,0:0:0:0:
113,208,65895,1,8,0:0:0:0:
110,200,66052,1,0,0:0:0:0:
113,208,66210,1,8,0:0:0:0:
110,201,66289,1,0,0:0:0:0:
75,211,66447,1,0,0:0:0:0:
113,208,66526,1,8,0:0:0:0:
94,225,66684,1,8,0:0:0:0:
94,225,66842,1,0,0:0:0:0:
94,225,66921,1,0,0:0:0:0:
94,225,67000,1,8,0:0:0:0:
94,225,67079,1,8,0:0:0:0:
94,225,67158,1,0,0:0:0:0:
94,225,67237,1,8,0:0:0:0:
94,225,67316,1,8,0:0:0:0:
98,217,67473,1,8,0:0:0:0:
154,199,67552,1,0,0:0:0:0:
154,199,67631,1,0,0:0:0:0:
154,199,67789,1,0,0:0:0:0:
154,199,67947,1,0,0:0:0:0:
149,191,68026,1,0,0:0:0:0:
171,195,68105,1,0,0:0:0:0:
154,199,68263,1,0,0:0:0:0:
162,216,68421,1,8,0:0:0:0:
154,199,68500,1,0,0:0:0:0:
50,185,68579,1,0,0:0:0:0:
162,216,68737,1,8,0:0:0:0:
121,210,68816,1,0,0:0:0:0:
150,217,68895,1,8,0:0:0:0:
162,216,69052,1,8,0:0:0:0:
121,210,69210,1,0,0:0:0:0:
150,218,69289,1,0,0:0:0:0:
162,216,69368,1,0,0:0:0:0:
162,216,69526,1,8,0:0:0:0:
162,216,69684,1,0,0:0:0:0:
132,197,69842,1,0,0:0:0:0:
133,197,69921,1,0,0:0:0:0:
162,216,70000,1,8,0:0:0:0:
170,207,70079,1,8,0:0:0:0:
133,197,70158,1,0,0:0:0:0:
133,197,70237,1,0,0:0:0:0:
162,216,70316,1,8,0:0:0:0:
170,207,70395,1,8,0:0:0:0:
132,197,70473,1,0,0:0:0:0:
150,228,70552,1,0,0:0:0:0:
150,228,70631,1,8,0:0:0:0:
150,228,70710,1,0,0:0:0:0:
150,228,70789,1,8,0:0:0:0:
132,197,70868,1,8,0:0:0:0:
162,216,70947,1,0,0:0:0:0:
160,212,71105,1,12,0:0:0:0:
160,212,71421,1,12,0:0:0:0:
160,212,71737,1,8,0:0:0:0:
123,183,71816,1,0,0:0:0:0:
123,183,71895,1,0,0:0:0:0:
160,212,72052,1,12,0:0:0:0:
170,241,72368,1,12,0:0:0:0:
127,238,72526,1,8,0:0:0:0:
140,229,72684,1,0,0:0:0:0:
140,229,72763,1,0,0:0:0:0:
140,229,72842,1,8,0:0:0:0:
86,157,73000,1,0,0:0:0:0:
86,157,73158,1,8,0:0:0:0:
86,157,73316,1,0,0:0:0:0:
86,157,73395,1,0,0:0:0:0:
86,157,73473,1,8,0:0:0:0:
128,205,73631,1,0,0:0:0:0:
65,182,73789,1,8,0:0:0:0:
113,175,73868,1,0,0:0:0:0:
100,155,73947,1,8,0:0:0:0:
65,182,74105,1,8,0:0:0:0:
102,176,74263,1,8,0:0:0:0:
102,176,74342,1,8,0:0:0:0:
144,178,74421,1,8,0:0:0:0:
144,178,74500,1,8,0:0:0:0:
144,178,74579,1,0,0:0:0:0:
144,178,74658,1,0,0:0:0:0:
144,178,74737,1,0,0:0:0:0:
144,178,74816,1,0,0:0:0:0:
144,178,74895,1,8,0:0:0:0:
122,208,75052,1,8,0:0:0:0:
153,181,75131,1,0,0:0:0:0:
153,181,75210,1,0,0:0:0:0:
153,181,75368,1,8,0:0:0:0:
153,181,75526,1,0,0:0:0:0:
123,175,75684,1,0,0:0:0:0:
123,175,75763,1,0,0:0:0:0:
123,175,75842,1,8,0:0:0:0:
136,206,76000,1,8,0:0:0:0:
118,213,76158,1,0,0:0:0:0:
136,206,76316,1,8,0:0:0:0:
118,213,76473,1,0,0:0:0:0:
136,206,76631,1,8,0:0:0:0:
118,213,76789,1,0,0:0:0:0:
118,213,76868,1,0,0:0:0:0:
136,206,76947,1,8,0:0:0:0:
118,213,77026,1,0,0:0:0:0:
118,213,77105,1,0,0:0:0:0:
118,213,77184,1,0,0:0:0:0:
136,206,77263,1,8,0:0:0:0:
118,213,77342,1,0,0:0:0:0:
118,213,77421,1,8,0:0:0:0:
119,213,77579,1,8,0:0:0:0:
118,213,77737,1,0,0:0:0:0:
118,213,77816,1,0,0:0:0:0:
118,213,77895,1,8,0:0:0:0:
118,213,78052,1,0,0:0:0:0:
118,213,78210,1,8,0:0:0:0:
118,213,78368,1,0,0:0:0:0:
1,164,78447,1,0,0:0:0:0:
136,206,78526,1,8,0:0:0:0:
93,169,78684,1,0,0:0:0:0:
107,177,78842,1,8,0:0:0:0:
107,177,78921,1,0,0:0:0:0:
107,177,79000,1,8,0:0:0:0:
136,206,79158,1,8,0:0:0:0:
107,177,79316,1,8,0:0:0:0:
132,179,79395,1,8,0:0:0:0:
132,179,79473,1,0,0:0:0:0:
136,153,79552,1,0,0:0:0:0:
107,177,79631,1,8,0:0:0:0:
107,177,79789,1,0,0:0:0:0:
119,197,79947,1,8,0:0:0:0:
119,197,80026,1,0,0:0:0:0:
119,197,80105,1,0,0:0:0:0:
119,197,80184,1,0,0:0:0:0:
119,197,80263,1,8,0:0:0:0:
119,197,80342,1,8,0:0:0:0:
119,197,80421,1,8,0:0:0:0:
119,197,80500,1,8,0:0:0:0:
119,197,80579,1,0,0:0:0:0:
119,197,80658,1,0,0:0:0:0:
119,197,80737,1,8,0:0:0:0:
119,197,80816,1,8,0:0:0:0:
119,197,80895,1,0,0:0:0:0:
119,197,80973,1,0,0:0:0:0:
119,197,81052,1,0,0:0:0:0:
119,197,81131,1,0,0:0:0:0:
120,210,81210,1,8,0:0:0:0:
119,197,81289,1,8,0:0:0:0:
119,197,81368,1,0,0:0:0:0:
119,197,81447,1,0,0:0:0:0:
119,197,81526,1,8,0:0:0:0:
119,197,81605,1,0,0:0:0:0:
119,197,81684,1,8,0:0:0:0:
119,197,81763,1,0,0:0:0:0:
120,210,81842,1,8,0:0:0:0:
38,161,81921,1,8,0:0:0:0:
38,161,82000,1,0,0:0:0:0:
38,161,82079,1,0,0:0:0:0:
119,197,82158,1,8,0:0:0:0:
119,197,82237,1,8,0:0:0:0:
119,197,82316,1,0,0:0:0:0:
120,210,82473,1,12,0:0:0:0:
119,197,82631,1,8,0:0:0:0:
175,199,82789,1,0,0:0:0:0:
175,199,82868,1,0,0:0:0:0:
188,221,82947,1,8,0:0:0:0:
168,202,83105,1,0,0:0:0:0:
192,187,83263,1,8,0:0:0:0:
192,187,83421,1,0,0:0:0:0:
122,180,83500,1,0,0:0:0:0:
119,197,83579,1,8,0:0:0:0:
92,166,83737,1,0,0:0:0:0:
92,166,83816,1,0,0:0:0:0:
192,187,83894,1,8,0:0:0:0:
192,187,83973,1,8,0:0:0:0:
192,187,84052,1,0,0:0:0:0:
192,187,84209,1,8,0:0:0:0:
192,187,84288,1,0,0:0:0:0:
192,187,84367,1,8,0:0:0:0:
97,176,84526,1,8,0:0:0:0:
135,211,84684,1,0,0:0:0:0:
135,211,84842,1,8,0:0:0:0:
153,201,85000,1,0,0:0:0:0:
154,200,85158,1,8,0:0:0:0:
153,201,85237,1,8,0:0:0:0:
153,201,85316,1,8,0:0:0:0:
86,177,85473,1,0,0:0:0:0:
86,177,85631,1,8,0:0:0:0:
86,177,85710,1,8,0:0:0:0:
86,177,85789,1,0,0:0:0:0:
91,184,85947,1,8,0:0:0:0:
90,184,86105,1,8,0:0:0:0:
110,145,86263,1,0,0:0:0:0:
139,211,86342,1,0,0:0:0:0:
139,211,86421,1,8,0:0:0:0:
110,145,86500,1,8,0:0:0:0:
139,211,86579,1,0,0:0:0:0:
139,211,86737,1,8,0:0:0:0:
139,211,86895,1,8,0:0:0:0:
139,211,86973,1,0,0:0:0:0:
139,211,87052,1,0,0:0:0:0:
139,211,87131,1,0,0:0:0:0:
139,211,87210,1,8,0:0:0:0:
139,211,87289,1,8,0:0:0:0:
139,211,87368,1,0,0:0:0:0:
173,203,87526,1,8,0:0:0:0:
142,170,87684,1,8,0:0:0:0:
142,170,87763,1,8,0:0:0:0:
142,170,87842,1,0,0:0:0:0:
142,170,88000,1,8,0:0:0:0:
142,170,88158,1,8,0:0:0:0:
160,196,88237,1,8,0:0:0:0:
140,176,88316,1,8,0:0:0:0:
140,176,88473,1,12,0:0:0:0:
159,198,88631,1,0,0:0:0:0:
159,198,88789,1,8,0:0:0:0:
160,196,88947,1,8,0:0:0:0:
160,196,89026,1,0,0:0:0:0:
160,196,89105,1,0,0:0:0:0:
160,196,89263,1,8,0:0:0:0:
160,196,89421,1,8,0:0:0:0:
160,196,89500,1,8,0:0:0:0:
159,198,89579,1,0,0:0:0:0:
159,198,89737,1,12,0:0:0:0:
160,196,89895,1,0,0:0:0:0:
160,196,89973,1,0,0:0:0:0:
160,196,90052,1,8,0:0:0:0:
131,221,90210,1,8,0:0:0:0:
131,221,90368,1,0,0:0:0:0:
131,221,90526,1,8,0:0:0:0:
127,216,90684,1,8,0:0:0:0:
127,216,90763,1,0,0:0:0:0:
127,216,90842,1,8,0:0:0:0:
134,209,91000,1,0,0:0:0:0:
133,207,91158,1,8,0:0:0:0:
127,216,91316,1,0,0:0:0:0:
141,206,91395,1,0,0:0:0:0:
141,206,91473,1,8,0:0:0:0:
141,206,91552,1,8,0:0:0:0:
141,206,91631,1,0,0:0:0:0:
141,206,91710,1,0,0:0:0:0:
141,206,91789,1,8,0:0:0:0:
141,206,91868,1,8,0:0:0:0:
141,206,91947,1,0,0:0:0:0:
141,206,92026,1,0,0:0:0:0:
141,206,92105,1,8,0:0:0:0:
141,206,92184,1,8,0:0:0:0:
141,206,92263,1,0,0:0:0:0:
141,206,92342,1,0,0:0:0:0:
141,206,92421,1,8,0:0:0:0:
141,206,92500,1,8,0:0:0:0:
141,206,92579,1,0,0:0:0:0:
141,206,92737,1,8,0:0:0:0:
141,206,92816,1,0,0:0:0:0:
141,206,92895,1,8,0:0:0:0:
118,203,93052,1,8,0:0:0:0:
118,203,93210,1,8,0:0:0:0:
118,203,93289,1,8,0:0:0:0:
118,203,93368,1,0,0:0:0:0:
105,206,93526,1,12,0:0:0:0:
118,203,93684,1,0,0:0:0:0:
118,203,93842,1,8,0:0:0:0:
118,203,94000,1,8,0:0:0:0:
118,203,94079,1,8,0:0:0:0:
118,203,94158,1,0,0:0:0:0:
118,203,94316,1,8,0:0:0:0:
118,203,94473,1,0,0:0:0:0:
118,203,94552,1,0,0:0:0:0:
118,203,94631,1,8,0:0:0:0:
118,203,94789,1,12,0:0:0:0:
118,203,94947,1,0,0:0:0:0:
109,217,95105,1,8,0:0:0:0:
109,217,95184,1,0,0:0:0:0:
109,217,95263,1,0,0:0:0:0:
109,217,95342,1,0,0:0:0:0:
109,217,95421,1,8,0:0:0:0:
109,217,95500,1,8,0:0:0:0:
109,217,95579,1,0,0:0:0:0:
109,217,95658,1,0,0:0:0:0:
109,217,95737,1,8,0:0:0:0:
109,217,95816,1,0,0:0:0:0:
109,217,95895,1,8,0:0:0:0:
109,217,95973,1,0,0:0:0:0:
109,217,96052,1,8,0:0:0:0:
109,217,96131,1,8,0:0:0:0:
109,217,96210,1,0,0:0:0:0:
109,217,96289,1,0,0:0:0:0:
109,217,96368,1,8,0:0:0:0:
147,210,97631,1,12,0:0:0:0:
157,222,99526,5,12,0:0:0:0:
157,222,99842,1,12,0:0:0:0:
157,222,100158,1,12,0:0:0:0:
131,226,101263,1,0,0:0:0:0:
66,167,101342,1,0,0:0:0:0:
131,226,101421,1,8,0:0:0:0:
131,226,101658,1,0,0:0:0:0:
131,226,101895,1,0,0:0:0:0:
131,226,102052,1,8,0:0:0:0:
131,226,102289,1,0,0:0:0:0:
131,226,102526,1,0,0:0:0:0:
63,215,102684,1,12,0:0:0:0:
63,215,103000,1,4,0:0:0:0:
63,215,103631,1,4,0:0:0:0:
63,215,104263,1,4,0:0:0:0:
63,215,104895,1,4,0:0:0:0:
63,215,105210,1,4,0:0:0:0:
63,215,105526,1,0,0:0:0:0:
63,215,105684,1,0,0:0:0:0:
63,215,105842,1,0,0:0:0:0:
63,215,106000,1,0,0:0:0:0:
63,215,106158,1,0,0:0:0:0:
106,220,106316,1,0,0:0:0:0:
106,220,106473,1,0,0:0:0:0:
114,192,106552,1,0,0:0:0:0:
125,193,106631,1,0,0:0:0:0:
125,193,106710,1,0,0:0:0:0:
125,193,106789,1,8,0:0:0:0:
125,193,106868,1,8,0:0:0:0:
125,193,106947,1,8,0:0:0:0:
125,193,107026,1,8,0:0:0:0:
125,193,107105,1,8,0:0:0:0:
125,193,107184,1,8,0:0:0:0:
125,193,107263,1,0,0:0:0:0:
108,219,107737,1,12,0:0:0:0:
82,209,108052,1,8,0:0:0:0:
105,173,108289,1,8,0:0:0:0:
191,196,108368,1,0,0:0:0:0:
105,173,108526,1,0,0:0:0:0:
82,209,108842,1,8,0:0:0:0:
101,242,109158,1,0,0:0:0:0:
101,242,109316,1,8,0:0:0:0:
101,242,109552,1,8,0:0:0:0:
101,242,109631,1,0,0:0:0:0:
153,193,109789,1,0,0:0:0:0:
60,167,109947,1,8,0:0:0:0:
166,203,110105,1,0,0:0:0:0:
166,203,110184,1,0,0:0:0:0:
166,203,110263,1,0,0:0:0:0:
193,179,110421,1,0,0:0:0:0:
193,179,110579,1,8,0:0:0:0:
193,179,110737,1,8,0:0:0:0:
166,228,110816,1,0,0:0:0:0:
190,185,110895,1,8,0:0:0:0:
162,224,111052,1,0,0:0:0:0:
166,228,111368,1,8,0:0:0:0:
166,228,111684,1,0,0:0:0:0:
166,228,111842,1,8,0:0:0:0:
162,224,112000,1,8,0:0:0:0:
162,224,112079,1,8,0:0:0:0:
178,249,112158,1,0,0:0:0:0:
178,249,112316,1,0,0:0:0:0:
186,226,112395,1,0,0:0:0:0:
186,226,112473,1,8,0:0:0:0:
186,226,112552,1,0,0:0:0:0:
175,244,112631,1,8,0:0:0:0:
186,226,112789,1,0,0:0:0:0:
186,226,112947,1,8,0:0:0:0:
175,244,113105,1,8,0:0:0:0:
178,249,113263,1,8,0:0:0:0:
178,249,113342,1,0,0:0:0:0:
178,243,113421,1,0,0:0:0:0:
175,244,113579,1,0,0:0:0:0:
175,244,113895,1,8,0:0:0:0:
178,249,114210,1,0,0:0:0:0:
200,244,114368,1,8,0:0:0:0:
191,237,114605,1,8,0:0:0:0:
191,237,114684,1,0,0:0:0:0:
188,232,114842,1,0,0:0:0:0:
188,232,115000,1,8,0:0:0:0:
188,232,115079,1,8,0:0:0:0:
188,232,115158,1,0,0:0:0:0:
188,232,115237,1,0,0:0:0:0:
188,232,115316,1,8,0:0:0:0:
191,237,115473,1,0,0:0:0:0:
188,230,115552,1,0,0:0:0:0:
188,230,115631,1,8,0:0:0:0:
188,232,115789,1,0,0:0:0:0:
188,232,115868,1,0,0:0:0:0:
188,232,115947,1,8,0:0:0:0:
188,232,116026,1,8,0:0:0:0:
188,232,116105,1,0,0:0:0:0:
188,232,116184,1,0,0:0:0:0:
188,232,116263,1,0,0:0:0:0:
188,232,116342,1,0,0:0:0:0:
200,224,116421,1,8,0:0:0:0:
204,235,117526,1,4,0:0:0:0:
204,235,117842,1,12,0:0:0:0:
194,229,118000,1,8,0:0:0:0:
184,217,118158,1,0,0:0:0:0:
184,217,118237,1,0,0:0:0:0:
189,230,118316,1,8,0:0:0:0:
183,218,118473,1,0,0:0:0:0:
188,231,118631,1,8,0:0:0:0:
89,218,118789,1,0,0:0:0:0:
89,218,118868,1,0,0:0:0:0:
89,218,118947,1,8,0:0:0:0:
171,218,119105,1,8,0:0:0:0:
171,218,119263,1,8,0:0:0:0:
69,203,119421,1,0,0:0:0:0:
152,219,119500,1,0,0:0:0:0:
171,218,119579,1,8,0:0:0:0:
171,218,119737,1,8,0:0:0:0:
104,212,119895,1,8,0:0:0:0:
104,212,119973,1,8,0:0:0:0:
12,198,120052,1,0,0:0:0:0:
150,212,120131,1,0,0:0:0:0:
104,212,120210,1,8,0:0:0:0:
104,212,120289,1,0,0:0:0:0:
121,252,120368,1,8,0:0:0:0:
91,161,120526,1,8,0:0:0:0:
77,169,120684,1,0,0:0:0:0:
119,205,120763,1,0,0:0:0:0:
119,205,120842,1,8,0:0:0:0:
41,157,121000,1,0,0:0:0:0:
110,154,121158,1,8,0:0:0:0:
110,154,121316,1,0,0:0:0:0:
110,154,121395,1,0,0:0:0:0:
110,154,121473,1,8,0:0:0:0:
110,154,121631,1,8,0:0:0:0:
110,154,121710,1,8,0:0:0:0:
110,154,121789,1,0,0:0:0:0:
110,154,121868,1,0,0:0:0:0:
110,154,121947,1,8,0:0:0:0:
110,154,122026,1,8,0:0:0:0:
110,154,122105,1,0,0:0:0:0:
110,154,122184,1,8,0:0:0:0:
110,154,122263,1,0,0:0:0:0:
110,154,122342,1,8,0:0:0:0:
110,154,122421,1,0,0:0:0:0:
110,154,122500,1,0,0:0:0:0:
110,154,122579,1,8,0:0:0:0:
110,154,122658,1,0,0:0:0:0:
110,154,122737,1,0,0:0:0:0:
110,154,122816,1,0,0:0:0:0:
110,154,122895,1,8,0:0:0:0:
110,154,123052,1,8,0:0:0:0:
110,154,123210,1,0,0:0:0:0:
110,154,123289,1,0,0:0:0:0:
110,154,123368,1,8,0:0:0:0:
144,183,123526,1,0,0:0:0:0:
144,183,123684,1,8,0:0:0:0:
144,183,123842,1,0,0:0:0:0:
144,183,123921,1,0,0:0:0:0:
144,183,124000,1,8,0:0:0:0:
144,183,124158,1,8,0:0:0:0:
74,179,124316,1,8,0:0:0:0:
84,200,124473,1,0,0:0:0:0:
48,217,124552,1,0,0:0:0:0:
48,217,124631,1,8,0:0:0:0:
48,217,124789,1,8,0:0:0:0:
58,230,124947,1,8,0:0:0:0:
68,220,125026,1,0,0:0:0:0:
68,220,125105,1,0,0:0:0:0:
68,220,125184,1,0,0:0:0:0:
68,220,125263,1,0,0:0:0:0:
68,220,125421,1,0,0:0:0:0:
84,200,125500,1,0,0:0:0:0:
68,220,125579,1,8,0:0:0:0:
90,209,125737,1,0,0:0:0:0:
90,209,125895,1,8,0:0:0:0:
11,192,126052,1,0,0:0:0:0:
11,192,126131,1,0,0:0:0:0:
11,192,126210,1,0,0:0:0:0:
11,192,126368,1,0,0:0:0:0:
11,192,126526,1,8,0:0:0:0:
90,209,126605,1,0,0:0:0:0:
11,192,126684,1,0,0:0:0:0:
11,192,126842,1,0,0:0:0:0:
11,192,127000,1,8,0:0:0:0:
11,192,127158,1,0,0:0:0:0:
90,209,127316,1,8,0:0:0:0:
90,209,127395,1,8,0:0:0:0:
90,209,127473,1,0,0:0:0:0:
90,209,127552,1,0,0:0:0:0:
90,209,127631,1,8,0:0:0:0:
90,209,127710,1,0,0:0:0:0:
90,209,127789,1,0,0:0:0:0:
203,236,127947,1,12,0:0:0:0:
162,191,128184,1,4,0:0:0:0:
162,191,128421,1,4,0:0:0:0:
128,233,128579,1,12,0:0:0:0:
163,211,128895,1,0,0:0:0:0:
163,211,129052,1,0,0:0:0:0:
154,196,129368,1,8,0:0:0:0:
138,212,129526,1,0,0:0:0:0:
138,212,129684,1,0,0:0:0:0:
138,212,129842,1,8,0:0:0:0:
138,212,130000,1,0,0:0:0:0:
149,189,130079,1,0,0:0:0:0:
138,212,130158,1,0,0:0:0:0:
138,212,130316,1,0,0:0:0:0:
196,237,130473,1,12,0:0:0:0:
138,212,130710,1,4,0:0:0:0:
146,242,130947,1,4,0:0:0:0:
146,242,131105,1,12,0:0:0:0:
161,226,131421,1,0,0:0:0:0:
162,226,131579,1,0,0:0:0:0:
150,224,131895,1,8,0:0:0:0:
150,224,132052,1,0,0:0:0:0:
150,224,132210,1,0,0:0:0:0:
150,224,132368,1,8,0:0:0:0:
150,224,132526,1,8,0:0:0:0:
150,224,132605,1,8,0:0:0:0:
150,224,132684,1,8,0:0:0:0:
150,224,132763,1,0,0:0:0:0:
150,224,132842,1,0,0:0:0:0:
150,224,132921,1,0,0:0:0:0:
196,236,133000,1,12,0:0:0:0:
214,279,133237,1,12,0:0:0:0:
214,279,133473,1,4,0:0:0:0:
214,279,133631,1,12,0:0:0:0:
186,227,133947,1,0,0:0:0:0:
184,227,134105,1,0,0:0:0:0:
182,256,134263,1,8,0:0:0:0:
184,245,134421,1,0,0:0:0:0:
184,245,134500,1,0,0:0:0:0:
190,218,134579,1,0,0:0:0:0:
186,227,134737,1,0,0:0:0:0:
186,227,134895,1,8,0:0:0:0:
184,227,135052,1,0,0:0:0:0:
184,227,135131,1,8,0:0:0:0:
186,231,135210,1,8,0:0:0:0:
186,231,135289,1,8,0:0:0:0:
186,231,135368,1,0,0:0:0:0:
186,231,135447,1,8,0:0:0:0:
188,225,135526,1,4,0:0:0:0:
188,225,135763,1,4,0:0:0:0:
188,225,136000,1,4,0:0:0:0:
188,225,136158,1,12,0:0:0:0:
236,223,136473,1,0,0:0:0:0:
236,223,136631,1,0,0:0:0:0:
202,221,136947,1,8,0:0:0:0:
201,221,137105,1,0,0:0:0:0:
201,221,137263,1,0,0:0:0:0:
202,221,137421,1,8,0:0:0:0:
220,116,137579,1,8,0:0:0:0:
220,116,137658,1,8,0:0:0:0:
220,116,137737,1,0,0:0:0:0:
220,116,137816,1,0,0:0:0:0:
220,116,137895,1,0,0:0:0:0:
220,116,137973,1,0,0:0:0:0:
196,236,138052,1,12,0:0:0:0:
158,190,138210,1,0,0:0:0:0:
199,169,138368,1,8,0:0:0:0:
158,190,138526,1,0,0:0:0:0:
158,190,138605,1,0,0:0:0:0:
158,190,138684,1,0,0:0:0:0:
158,190,138842,1,0,0:0:0:0:
199,169,139000,1,8,0:0:0:0:
113,211,139158,1,0,0:0:0:0:
113,211,139237,1,0,0:0:0:0:
113,211,139316,1,0,0:0:0:0:
113,211,139473,1,0,0:0:0:0:
113,211,139631,1,8,0:0:0:0:
113,211,139789,1,0,0:0:0:0:
113,211,139868,1,8,0:0:0:0:
113,211,139947,1,0,0:0:0:0:
113,211,140026,1,8,0:0:0:0:
113,211,140105,1,0,0:0:0:0:
113,211,140263,1,8,0:0:0:0:
102,205,140342,1,0,0:0:0:0:
26,176,140421,1,0,0:0:0:0:
113,186,140579,1,12,0:0:0:0:
113,211,140737,1,0,0:0:0:0:
129,180,140895,1,8,0:0:0:0:
43,158,141052,1,0,0:0:0:0:
43,158,141131,1,0,0:0:0:0:
43,158,141210,1,0,0:0:0:0:
43,158,141368,1,0,0:0:0:0:
43,158,141526,1,8,0:0:0:0:
59,177,141684,1,0,0:0:0:0:
59,177,141763,1,0,0:0:0:0:
59,177,141842,1,0,0:0:0:0:
59,177,142000,1,0,0:0:0:0:
59,177,142158,1,8,0:0:0:0:
59,177,142316,1,0,0:0:0:0:
59,177,142473,1,8,0:0:0:0:
59,177,142631,1,8,0:0:0:0:
59,177,142710,1,8,0:0:0:0:
59,177,142789,1,0,0:0:0:0:
59,177,142868,1,0,0:0:0:0:
59,177,142947,1,0,0:0:0:0:
59,177,143026,1,0,0:0:0:0:
59,177,143105,1,8,0:0:0:0:
121,197,143263,1,0,0:0:0:0:
121,197,143342,1,0,0:0:0:0:
151,196,143421,1,8,0:0:0:0:
121,197,143579,1,0,0:0:0:0:
121,197,143658,1,0,0:0:0:0:
151,196,143737,1,8,0:0:0:0:
121,197,143895,1,0,0:0:0:0:
151,196,144052,1,8,0:0:0:0:
124,188,144131,1,8,0:0:0:0:
149,172,144210,1,0,0:0:0:0:
124,188,144289,1,0,0:0:0:0:
151,196,144368,1,8,0:0:0:0:
121,197,144526,1,0,0:0:0:0:
151,196,144684,1,8,0:0:0:0:
138,202,144763,1,0,0:0:0:0:
121,197,144842,1,0,0:0:0:0:
151,196,145000,1,8,0:0:0:0:
121,197,145158,1,0,0:0:0:0:
151,196,145316,1,8,0:0:0:0:
121,197,145473,1,0,0:0:0:0:
125,219,145552,1,0,0:0:0:0:
151,196,145631,1,8,0:0:0:0:
154,222,145710,1,0,0:0:0:0:
154,222,145789,1,0,0:0:0:0:
154,222,145868,1,0,0:0:0:0:
155,222,145947,1,8,0:0:0:0:
155,222,146026,1,8,0:0:0:0:
155,222,146105,1,0,0:0:0:0:
155,222,146184,1,0,0:0:0:0:
155,222,146263,1,8,0:0:0:0:
155,222,146342,1,8,0:0:0:0:
155,222,146421,1,0,0:0:0:0:
155,222,146500,1,0,0:0:0:0:
155,222,146579,1,8,0:0:0:0:
155,222,146658,1,8,0:0:0:0:
154,222,146737,1,0,0:0:0:0:
154,222,146816,1,0,0:0:0:0:
151,196,146895,1,8,0:0:0:0:
121,197,146973,1,0,0:0:0:0:
121,197,147052,1,0,0:0:0:0:
121,197,147131,1,0,0:0:0:0:
121,197,147210,1,8,0:0:0:0:
121,197,147289,1,0,0:0:0:0:
121,197,147368,1,0,0:0:0:0:
121,197,147447,1,0,0:0:0:0:
121,197,147526,1,8,0:0:0:0:
121,197,147605,1,0,0:0:0:0:
121,197,147684,1,0,0:0:0:0:
121,197,147763,1,0,0:0:0:0:
121,197,147842,1,8,0:0:0:0:
121,197,147921,1,0,0:0:0:0:
121,197,148000,1,0,0:0:0:0:
121,197,148079,1,0,0:0:0:0:
198,190,148158,5,8,0:0:0:0:
198,190,148210,1,8,0:0:0:0:
198,190,148473,1,8,0:0:0:0:
116,198,148526,1,8,0:0:0:0:
148,214,148789,1,8,0:0:0:0:
148,214,148842,1,8,0:0:0:0:
148,214,149105,1,12,0:0:0:0:
144,236,149421,1,12,0:0:0:0:
144,151,149579,1,8,0:0:0:0:
144,163,149737,1,0,0:0:0:0:
144,163,149816,1,0,0:0:0:0:
144,163,149895,1,8,0:0:0:0:
143,163,150052,1,0,0:0:0:0:
143,163,150210,1,8,0:0:0:0:
143,163,150368,1,0,0:0:0:0:
143,163,150447,1,0,0:0:0:0:
143,163,150526,1,8,0:0:0:0:
170,217,150684,1,0,0:0:0:0:
170,217,150842,1,8,0:0:0:0:
109,207,150921,1,0,0:0:0:0:
109,207,151000,1,8,0:0:0:0:
109,207,151158,1,0,0:0:0:0:
109,207,151316,1,8,0:0:0:0:
109,207,151395,1,8,0:0:0:0:
109,207,151473,1,8,0:0:0:0:
109,207,151552,1,8,0:0:0:0:
109,207,151631,1,0,0:0:0:0:
109,207,151710,1,0,0:0:0:0:
109,207,151789,1,8,0:0:0:0:
81,244,151868,1,0,0:0:0:0:
109,207,151947,1,8,0:0:0:0:
109,207,152105,1,8,0:0:0:0:
109,207,152263,1,0,0:0:0:0:
109,207,152342,1,0,0:0:0:0:
68,210,152421,1,8,0:0:0:0:
68,210,152579,1,0,0:0:0:0:
68,210,152737,1,8,0:0:0:0:
68,210,152895,1,0,0:0:0:0:
68,210,152973,1,0,0:0:0:0:
68,210,153052,1,8,0:0:0:0:
68,210,153210,1,0,0:0:0:0:
84,161,153368,1,8,0:0:0:0:
84,161,153526,1,8,0:0:0:0:
84,161,153605,1,8,0:0:0:0:
84,161,153684,1,0,0:0:0:0:
84,161,153763,1,0,0:0:0:0:
84,161,153842,1,8,0:0:0:0:
84,161,153921,1,8,0:0:0:0:
84,161,154000,1,0,0:0:0:0:
84,161,154079,1,0,0:0:0:0:
84,161,154158,1,8,0:0:0:0:
84,161,154237,1,0,0:0:0:0:
84,161,154316,1,0,0:0:0:0:
24,161,154395,1,0,0:0:0:0:
63,165,154473,1,8,0:0:0:0:
44,166,154631,1,8,0:0:0:0:
63,165,154789,1,0,0:0:0:0:
63,165,154868,1,0,0:0:0:0:
63,165,154947,1,8,0:0:0:0:
101,173,155105,1,0,0:0:0:0:
101,174,155263,1,8,0:0:0:0:
101,173,155421,1,0,0:0:0:0:
101,173,155500,1,0,0:0:0:0:
101,173,155579,1,8,0:0:0:0:
101,173,155737,1,0,0:0:0:0:
102,181,155895,1,8,0:0:0:0:
102,181,155973,1,8,0:0:0:0:
102,181,156052,1,8,0:0:0:0:
102,181,156210,1,0,0:0:0:0:
102,181,156368,1,8,0:0:0:0:
102,181,156447,1,8,0:0:0:0:
102,181,156526,1,0,0:0:0:0:
102,181,156605,1,0,0:0:0:0:
102,181,156684,1,8,0:0:0:0:
102,181,156842,1,8,0:0:0:0:
100,161,157000,1,8,0:0:0:0:
102,181,157079,1,8,0:0:0:0:
102,181,157158,1,8,0:0:0:0:
102,181,157237,1,8,0:0:0:0:
102,181,157316,1,0,0:0:0:0:
102,181,157395,1,0,0:0:0:0:
102,181,157473,1,0,0:0:0:0:
102,181,157552,1,0,0:0:0:0:
102,181,157631,1,8,0:0:0:0:
102,181,157710,1,8,0:0:0:0:
102,181,157789,1,8,0:0:0:0:
102,181,157868,1,8,0:0:0:0:
102,181,157947,1,0,0:0:0:0:
56,187,158026,1,0,0:0:0:0:
102,181,158105,1,0,0:0:0:0:
56,187,158184,1,0,0:0:0:0:
102,181,158263,1,8,0:0:0:0:
56,187,158342,1,8,0:0:0:0:
102,181,158421,1,0,0:0:0:0:
102,181,158500,1,0,0:0:0:0:
114,146,158579,1,8,0:0:0:0:
56,187,158658,1,8,0:0:0:0:
102,181,158737,1,0,0:0:0:0:
54,175,158816,1,0,0:0:0:0:
98,164,158895,1,8,0:0:0:0:
66,143,158973,1,0,0:0:0:0:
66,143,159052,1,0,0:0:0:0:
66,143,159131,1,0,0:0:0:0:
98,164,159210,1,8,0:0:0:0:
56,187,159289,1,0,0:0:0:0:
71,172,159368,1,0,0:0:0:0:
56,187,159447,1,0,0:0:0:0:
85,161,159526,1,8,0:0:0:0:
85,162,159684,1,8,0:0:0:0:
85,162,159842,1,0,0:0:0:0:
85,162,159921,1,0,0:0:0:0:
86,163,160000,1,8,0:0:0:0:
84,167,160158,1,0,0:0:0:0:
84,167,160316,1,8,0:0:0:0:
84,167,160473,1,0,0:0:0:0:
84,167,160552,1,0,0:0:0:0:
84,167,160631,1,8,0:0:0:0:
58,177,160789,1,0,0:0:0:0:
157,160,160868,1,0,0:0:0:0:
105,194,160947,1,8,0:0:0:0:
157,160,161026,1,8,0:0:0:0:
105,194,161105,1,0,0:0:0:0:
105,194,161264,1,0,0:0:0:0:
105,194,161422,1,8,0:0:0:0:
105,194,161500,1,0,0:0:0:0:
105,194,161579,1,8,0:0:0:0:
105,194,161737,1,0,0:0:0:0:
125,180,161895,1,8,0:0:0:0:
124,180,162052,1,8,0:0:0:0:
108,188,162210,1,0,0:0:0:0:
105,194,162289,1,0,0:0:0:0:
48,209,162368,1,8,0:0:0:0:
37,153,162447,1,8,0:0:0:0:
48,209,162526,1,8,0:0:0:0:
48,209,162605,1,0,0:0:0:0:
48,209,162684,1,8,0:0:0:0:
66,181,162842,1,0,0:0:0:0:
66,181,163000,1,8,0:0:0:0:
66,181,163158,1,8,0:0:0:0:
66,181,163237,1,8,0:0:0:0:
66,181,163316,1,8,0:0:0:0:
66,181,163473,1,8,0:0:0:0:
66,181,163631,1,0,0:0:0:0:
66,181,163789,1,8,0:0:0:0:
66,181,163868,1,0,0:0:0:0:
66,181,163947,1,0,0:0:0:0:
66,181,164105,1,0,0:0:0:0:
104,197,164184,1,0,0:0:0:0:
66,181,164263,1,8,0:0:0:0:
66,181,164342,1,0,0:0:0:0:
66,181,164421,1,0,0:0:0:0:
88,166,164579,1,12,0:0:0:0:
113,190,164737,1,8,0:0:0:0:
113,190,164816,1,8,0:0:0:0:
79,205,164895,1,0,0:0:0:0:
104,197,165052,1,8,0:0:0:0:
89,209,165210,1,8,0:0:0:0:
89,209,165289,1,0,0:0:0:0:
89,209,165368,1,0,0:0:0:0:
135,168,165526,1,12,0:0:0:0:
89,209,165684,1,0,0:0:0:0:
89,209,165763,1,0,0:0:0:0:
117,166,165842,1,8,0:0:0:0:
89,209,166000,1,8,0:0:0:0:
89,209,166158,1,0,0:0:0:0:
152,179,166316,1,8,0:0:0:0:
84,185,166395,1,0,0:0:0:0:
93,206,166473,1,8,0:0:0:0:
85,187,166631,1,0,0:0:0:0:
93,206,166789,1,12,0:0:0:0:
85,187,166947,1,0,0:0:0:0:
85,187,167026,1,0,0:0:0:0:
93,206,167105,1,8,0:0:0:0:
93,206,167263,1,8,0:0:0:0:
84,185,167421,1,0,0:0:0:0:
93,206,167579,1,8,0:0:0:0:
85,187,167658,1,0,0:0:0:0:
93,206,167737,1,8,0:0:0:0:
85,187,167816,1,0,0:0:0:0:
93,206,167895,1,8,0:0:0:0:
85,187,168052,1,0,0:0:0:0:
93,206,168210,1,8,0:0:0:0:
93,206,168368,1,8,0:0:0:0:
85,187,168447,1,0,0:0:0:0:
135,228,168526,1,0,0:0:0:0:
85,187,168605,1,0,0:0:0:0:
85,187,168684,1,8,0:0:0:0:
85,187,168763,1,0,0:0:0:0:
135,228,168842,1,0,0:0:0:0:
85,187,168921,1,0,0:0:0:0:
85,187,169000,1,8,0:0:0:0:
85,187,169079,1,0,0:0:0:0:
85,187,169158,1,0,0:0:0:0:
85,187,169237,1,0,0:0:0:0:
85,187,169316,1,8,0:0:0:0:
85,187,169395,1,0,0:0:0:0:
85,187,169473,1,0,0:0:0:0:
85,187,169552,1,0,0:0:0:0:
93,206,169631,1,8,0:0:0:0:
93,206,169789,1,8,0:0:0:0:
111,199,169868,1,8,0:0:0:0:
76,186,169947,1,8,0:0:0:0:
93,206,170105,1,8,0:0:0:0:
93,206,170263,1,8,0:0:0:0:
113,174,170342,1,0,0:0:0:0:
113,174,170421,1,0,0:0:0:0:
93,206,170579,1,12,0:0:0:0:
153,175,170737,1,0,0:0:0:0:
153,175,170816,1,0,0:0:0:0:
93,206,170895,1,8,0:0:0:0:
93,206,171052,1,8,0:0:0:0:
142,184,171210,1,0,0:0:0:0:
93,206,171368,1,8,0:0:0:0:
142,184,171447,1,0,0:0:0:0:
93,206,171526,1,8,0:0:0:0:
142,184,171684,1,0,0:0:0:0:
88,183,171842,1,12,0:0:0:0:
142,184,172000,1,0,0:0:0:0:
142,184,172079,1,0,0:0:0:0:
93,206,172158,1,8,0:0:0:0:
93,206,172316,1,8,0:0:0:0:
142,184,172473,1,0,0:0:0:0:
144,125,172552,1,0,0:0:0:0:
93,206,172631,1,8,0:0:0:0:
148,128,172710,1,8,0:0:0:0:
129,230,172789,1,8,0:0:0:0:
148,128,172868,1,8,0:0:0:0:
148,128,172947,1,0,0:0:0:0:
148,128,173026,1,0,0:0:0:0:
148,128,173105,1,8,0:0:0:0:
31,165,173184,1,8,0:0:0:0:
31,165,173263,1,0,0:0:0:0:
83,187,173342,1,0,0:0:0:0:
214,220,173421,1,12,0:0:0:0:
256,192,174684,12,0,175934,0:0:0:0:
194,265,176184,5,4,0:0:0:0:
177,228,176434,1,4,0:0:0:0:
181,256,176684,1,12,0:0:0:0:
165,195,178059,1,0,0:0:0:0:
165,246,178184,1,0,0:0:0:0:
165,246,178309,1,8,0:0:0:0:
179,161,178434,1,0,0:0:0:0:
172,221,178559,1,8,0:0:0:0:
172,220,178684,1,0,0:0:0:0:
156,214,179184,1,0,0:0:0:0:
165,183,179934,1,0,0:0:0:0:
165,183,180059,1,0,0:0:0:0:
89,192,180121,1,0,0:0:0:0:
165,183,180184,1,8,0:0:0:0:
126,208,180309,1,0,0:0:0:0:
150,204,180434,1,0,0:0:0:0:
150,204,180684,1,8,0:0:0:0:
84,158,180809,1,0,0:0:0:0:
84,158,180934,1,0,0:0:0:0:
116,174,181059,1,8,0:0:0:0:
116,174,181184,1,0,0:0:0:0:
69,158,181309,1,0,0:0:0:0:
114,181,181434,1,0,0:0:0:0:
69,157,181559,1,8,0:0:0:0:
256,192,182059,12,0,182434,0:0:0:0:
150,207,182684,5,0,0:0:0:0:
150,207,182809,1,8,0:0:0:0:
158,195,182934,1,0,0:0:0:0:
183,213,183059,1,0,0:0:0:0:
183,213,183184,1,8,0:0:0:0:
175,197,183309,1,8,0:0:0:0:
165,209,183434,1,0,0:0:0:0:
165,209,183559,1,0,0:0:0:0:
176,198,183684,1,0,0:0:0:0:
176,198,183809,1,8,0:0:0:0:
176,198,183934,1,0,0:0:0:0:
168,208,184059,1,0,0:0:0:0:
168,208,184184,1,8,0:0:0:0:
175,197,184309,1,0,0:0:0:0:
165,209,184434,1,8,0:0:0:0:
176,198,184559,1,8,0:0:0:0:
168,208,184684,1,0,0:0:0:0:
168,208,184809,1,8,0:0:0:0:
168,208,184934,1,0,0:0:0:0:
168,208,185059,1,0,0:0:0:0:
168,208,185184,1,8,0:0:0:0:
175,197,185309,1,8,0:0:0:0:
165,209,185434,1,0,0:0:0:0:
168,208,185559,1,0,0:0:0:0:
176,198,185684,1,0,0:0:0:0:
168,208,185809,1,8,0:0:0:0:
176,198,185934,1,0,0:0:0:0:
168,208,186059,1,0,0:0:0:0:
168,208,186184,1,8,0:0:0:0:
175,197,186309,1,8,0:0:0:0:
165,209,186434,1,0,0:0:0:0:
176,198,186559,1,8,0:0:0:0:
168,208,186684,1,0,0:0:0:0:
168,208,186809,1,8,0:0:0:0:
168,208,186934,1,8,0:0:0:0:
168,208,187059,1,0,0:0:0:0:
187,233,187184,1,8,0:0:0:0:
175,197,187309,1,8,0:0:0:0:
165,209,187434,1,8,0:0:0:0:
174,215,187559,1,0,0:0:0:0:
160,200,187684,1,0,0:0:0:0:
159,199,187809,1,8,0:0:0:0:
176,198,187934,1,0,0:0:0:0:
168,208,188059,1,0,0:0:0:0:
165,209,188184,1,8,0:0:0:0:
175,197,188309,1,8,0:0:0:0:
168,208,188434,1,0,0:0:0:0:
176,198,188559,1,0,0:0:0:0:
122,178,188684,1,8,0:0:0:0:
146,180,188809,1,0,0:0:0:0:
146,180,188934,1,0,0:0:0:0:
146,180,189059,1,8,0:0:0:0:
146,180,189184,1,0,0:0:0:0:
146,180,189309,1,0,0:0:0:0:
146,180,189434,1,8,0:0:0:0:
146,180,189559,1,0,0:0:0:0:
146,180,189809,1,8,0:0:0:0:
151,113,189871,1,0,0:0:0:0:
151,113,189934,1,0,0:0:0:0:
151,113,190059,1,0,0:0:0:0:
149,134,190184,1,8,0:0:0:0:
149,134,190309,1,8,0:0:0:0:
159,191,190371,1,8,0:0:0:0:
176,222,190434,1,8,0:0:0:0:
176,222,190559,1,0,0:0:0:0:
201,192,190684,1,8,0:0:0:0:
192,195,190809,1,0,0:0:0:0:
201,192,191059,1,8,0:0:0:0:
131,205,191184,1,0,0:0:0:0:
201,192,191434,1,8,0:0:0:0:
192,195,191559,1,0,0:0:0:0:
192,195,191809,1,0,0:0:0:0:
192,195,192059,1,0,0:0:0:0:
192,195,192184,1,0,0:0:0:0:
201,192,192434,1,8,0:0:0:0:
192,195,192684,1,0,0:0:0:0:
201,192,192809,1,8,0:0:0:0:
192,195,193059,1,0,0:0:0:0:
261,33,193121,1,0,0:0:0:0:
201,192,193184,1,8,0:0:0:0:
201,192,193309,1,8,0:0:0:0:
123,221,193434,1,0,0:0:0:0:
97,210,193559,1,0,0:0:0:0:
201,192,193809,1,8,0:0:0:0:
171,204,193934,1,0,0:0:0:0:
195,211,194059,1,8,0:0:0:0:
195,211,194184,1,0,0:0:0:0:
28,165,194309,1,0,0:0:0:0:
134,190,194371,1,0,0:0:0:0:
192,195,194434,1,8,0:0:0:0:
192,195,194684,1,8,0:0:0:0:
198,154,194809,1,8,0:0:0:0:
198,154,195059,1,0,0:0:0:0:
192,195,195184,1,8,0:0:0:0:
198,154,195434,1,0,0:0:0:0:
198,154,195559,1,0,0:0:0:0:
192,195,195934,1,8,0:0:0:0:
192,195,196184,1,0,0:0:0:0:
192,195,196434,1,8,0:0:0:0:
192,195,196684,1,8,0:0:0:0:
250,96,196746,1,8,0:0:0:0:
250,96,196809,1,8,0:0:0:0:
192,195,196934,1,8,0:0:0:0:
204,143,197059,1,0,0:0:0:0:
204,143,197121,1,0,0:0:0:0:
237,133,197184,1,0,0:0:0:0:
220,163,197309,1,0,0:0:0:0:
192,195,197434,1,8,0:0:0:0:
192,195,197684,1,8,0:0:0:0:
203,154,197746,1,8,0:0:0:0:
192,195,197809,1,8,0:0:0:0:
192,195,197934,1,8,0:0:0:0:
192,195,198059,1,0,0:0:0:0:
192,195,198184,1,8,0:0:0:0:
192,195,198710,1,12,0:0:0:0:
228,152,199025,1,8,0:0:0:0:
50,167,199183,1,0,0:0:0:0:
228,152,199341,1,8,0:0:0:0:
50,167,199499,1,0,0:0:0:0:
228,152,199657,1,8,0:0:0:0:
232,204,199815,1,0,0:0:0:0:
228,152,199973,1,8,0:0:0:0:
228,152,200288,1,8,0:0:0:0:
228,152,200604,1,8,0:0:0:0:
232,204,200762,1,0,0:0:0:0:
232,204,200841,1,0,0:0:0:0:
228,152,200920,1,8,0:0:0:0:
232,204,201078,1,0,0:0:0:0:
228,152,201236,1,8,0:0:0:0:
50,167,201552,1,8,0:0:0:0:
50,167,201710,1,0,0:0:0:0:
223,181,201867,1,8,0:0:0:0:
50,167,202025,1,0,0:0:0:0:
61,190,202183,1,8,0:0:0:0:
135,227,202262,1,0,0:0:0:0:
232,204,202341,1,0,0:0:0:0:
135,227,202420,1,0,0:0:0:0:
223,181,202499,1,8,0:0:0:0:
223,181,202815,1,8,0:0:0:0:
135,227,202973,1,0,0:0:0:0:
223,181,203131,1,8,0:0:0:0:
232,204,203288,1,0,0:0:0:0:
71,172,203367,1,0,0:0:0:0:
223,181,203446,1,8,0:0:0:0:
106,207,203604,1,0,0:0:0:0:
223,181,203762,1,8,0:0:0:0:
88,176,204078,1,8,0:0:0:0:
106,207,204236,1,0,0:0:0:0:
88,176,204394,1,8,0:0:0:0:
190,216,204552,1,0,0:0:0:0:
88,176,204710,1,8,0:0:0:0:
134,227,204788,1,8,0:0:0:0:
190,216,204867,1,0,0:0:0:0:
134,227,204946,1,0,0:0:0:0:
88,176,205025,1,8,0:0:0:0:
88,176,205341,1,8,0:0:0:0:
190,216,205499,1,0,0:0:0:0:
88,176,205657,1,8,0:0:0:0:
190,216,205815,1,0,0:0:0:0:
136,163,205894,1,0,0:0:0:0:
136,163,205973,1,8,0:0:0:0:
136,163,206131,1,0,0:0:0:0:
88,176,206288,1,12,0:0:0:0:
177,204,206604,1,8,0:0:0:0:
139,201,206683,1,8,0:0:0:0:
176,204,206762,1,0,0:0:0:0:
176,204,206841,1,0,0:0:0:0:
177,204,206920,1,0,0:0:0:0:
177,204,206999,1,0,0:0:0:0:
177,204,207078,1,0,0:0:0:0:
177,204,207157,1,0,0:0:0:0:
177,204,207236,1,8,0:0:0:0:
177,204,207315,1,0,0:0:0:0:
177,204,207394,1,0,0:0:0:0:
177,204,207473,1,0,0:0:0:0:
177,204,207552,1,8,0:0:0:0:
176,204,207867,1,0,0:0:0:0:
177,204,207946,1,0,0:0:0:0:
177,204,208025,1,0,0:0:0:0:
177,204,208104,1,0,0:0:0:0:
177,204,208183,1,8,0:0:0:0:
177,204,208499,1,8,0:0:0:0:
177,204,208578,1,8,0:0:0:0:
177,204,208657,1,8,0:0:0:0:
177,204,208736,1,8,0:0:0:0:
10,137,211341,1,12,0:0:0:0:
10,137,211499,1,8,0:0:0:0:
146,211,211657,1,0,0:0:0:0:
146,211,211736,1,0,0:0:0:0:
146,211,211815,1,8,0:0:0:0:
146,211,211973,1,0,0:0:0:0:
146,211,212131,1,8,0:0:0:0:
146,211,212288,1,0,0:0:0:0:
146,211,212367,1,0,0:0:0:0:
146,210,212446,1,8,0:0:0:0:
137,212,212604,1,0,0:0:0:0:
137,212,212762,1,8,0:0:0:0:
137,212,212841,1,8,0:0:0:0:
137,212,212920,1,0,0:0:0:0:
137,213,212999,1,0,0:0:0:0:
137,213,213078,1,8,0:0:0:0:
137,213,213236,1,8,0:0:0:0:
131,188,213315,1,0,0:0:0:0:
137,213,213394,1,8,0:0:0:0:
137,212,213552,1,8,0:0:0:0:
137,212,213631,1,8,0:0:0:0:
137,212,213710,1,0,0:0:0:0:
137,212,213867,1,12,0:0:0:0:
137,213,214025,1,8,0:0:0:0:
137,213,214183,1,0,0:0:0:0:
137,213,214262,1,0,0:0:0:0:
137,213,214341,1,8,0:0:0:0:
137,212,214499,1,0,0:0:0:0:
137,212,214657,1,8,0:0:0:0:
137,212,214815,1,0,0:0:0:0:
137,212,214894,1,0,0:0:0:0:
137,213,214973,1,8,0:0:0:0:
98,163,215131,1,0,0:0:0:0:
98,163,215288,1,8,0:0:0:0:
98,163,215367,1,0,0:0:0:0:
98,163,215446,1,8,0:0:0:0:
98,163,215604,1,0,0:0:0:0:
98,163,215683,1,0,0:0:0:0:
98,163,215762,1,8,0:0:0:0:
98,163,215841,1,8,0:0:0:0:
98,163,215920,1,0,0:0:0:0:
98,163,216078,1,0,0:0:0:0:
98,163,216157,1,0,0:0:0:0:
98,163,216236,1,8,0:0:0:0:
98,163,216394,1,0,0:0:0:0:
98,163,216473,1,0,0:0:0:0:
98,163,216552,1,8,0:0:0:0:
98,163,216631,1,8,0:0:0:0:
98,163,216710,1,0,0:0:0:0:
98,163,216788,1,0,0:0:0:0:
98,163,216867,1,8,0:0:0:0:
98,163,216946,1,8,0:0:0:0:
98,163,217025,1,0,0:0:0:0:
91,198,217104,1,0,0:0:0:0:
98,163,217183,1,8,0:0:0:0:
116,193,217262,1,0,0:0:0:0:
103,170,217341,1,0,0:0:0:0:
103,170,217420,1,0,0:0:0:0:
103,170,217499,1,8,0:0:0:0:
116,193,217578,1,0,0:0:0:0:
120,210,217656,1,8,0:0:0:0:
119,197,217735,1,8,0:0:0:0:
119,197,217814,1,0,0:0:0:0:
119,197,217893,1,0,0:0:0:0:
119,197,217972,1,8,0:0:0:0:
119,197,218051,1,0,0:0:0:0:
119,197,218130,1,8,0:0:0:0:
119,197,218209,1,0,0:0:0:0:
120,210,218288,1,8,0:0:0:0:
38,161,218367,1,8,0:0:0:0:
38,161,218446,1,0,0:0:0:0:
38,161,218525,1,0,0:0:0:0:
119,197,218604,1,8,0:0:0:0:
119,197,218683,1,8,0:0:0:0:
119,197,218762,1,0,0:0:0:0:
83,171,218841,1,0,0:0:0:0:
83,171,218920,1,8,0:0:0:0:
76,174,219078,1,8,0:0:0:0:
83,171,219236,1,0,0:0:0:0:
83,171,219315,1,0,0:0:0:0:
83,176,219394,1,8,0:0:0:0:
83,186,219552,1,0,0:0:0:0:
82,184,219710,1,8,0:0:0:0:
108,149,219867,1,0,0:0:0:0:
108,149,219946,1,0,0:0:0:0:
108,149,220025,1,8,0:0:0:0:
160,210,220183,1,0,0:0:0:0:
160,210,220341,1,8,0:0:0:0:
160,210,220420,1,8,0:0:0:0:
160,210,220499,1,0,0:0:0:0:
160,210,220657,1,0,0:0:0:0:
160,210,220736,1,0,0:0:0:0:
160,210,220815,1,8,0:0:0:0:
70,186,220973,1,8,0:0:0:0:
70,186,221052,1,8,0:0:0:0:
70,186,221131,1,8,0:0:0:0:
70,186,221210,1,8,0:0:0:0:
70,186,221288,1,0,0:0:0:0:
70,186,221367,1,0,0:0:0:0:
70,186,221446,1,8,0:0:0:0:
166,203,221604,1,8,0:0:0:0:
56,186,221683,1,8,0:0:0:0:
39,173,221762,1,8,0:0:0:0:
166,203,221920,1,8,0:0:0:0:
166,203,222078,1,0,0:0:0:0:
124,184,222236,1,8,0:0:0:0:
124,184,222394,1,0,0:0:0:0:
124,184,222473,1,0,0:0:0:0:
124,184,222552,1,8,0:0:0:0:
146,198,222710,1,8,0:0:0:0:
146,198,222867,1,0,0:0:0:0:
146,198,223025,1,0,0:0:0:0:
146,198,223183,1,0,0:0:0:0:
146,198,223341,1,8,0:0:0:0:
146,198,223420,1,8,0:0:0:0:
146,198,223499,1,0,0:0:0:0:
146,198,223578,1,0,0:0:0:0:
146,198,223657,1,8,0:0:0:0:
146,198,223736,1,8,0:0:0:0:
146,198,223815,1,0,0:0:0:0:
146,198,223894,1,0,0:0:0:0:
146,198,223973,1,8,0:0:0:0:
146,198,224131,1,8,0:0:0:0:
146,198,224210,1,0,0:0:0:0:
146,198,224288,1,0,0:0:0:0:
146,198,224446,1,8,0:0:0:0:
146,198,224604,1,8,0:0:0:0:
146,198,224683,1,8,0:0:0:0:
146,198,224762,1,0,0:0:0:0:
85,187,224920,1,12,0:0:0:0:
148,189,225078,1,0,0:0:0:0:
148,189,225157,1,0,0:0:0:0:
158,181,225236,1,8,0:0:0:0:
158,181,225394,1,8,0:0:0:0:
134,181,225473,1,0,0:0:0:0:
128,177,225552,1,0,0:0:0:0:
134,181,225710,1,8,0:0:0:0:
117,211,225867,1,8,0:0:0:0:
135,194,225946,1,8,0:0:0:0:
158,181,226025,1,0,0:0:0:0:
161,190,226183,1,12,0:0:0:0:
139,196,226341,1,0,0:0:0:0:
158,181,226499,1,8,0:0:0:0:
139,196,226578,1,0,0:0:0:0:
158,181,226657,1,8,0:0:0:0:
139,196,226815,1,0,0:0:0:0:
88,175,226973,1,8,0:0:0:0:
88,175,227052,1,0,0:0:0:0:
158,182,227131,1,8,0:0:0:0:
88,175,227210,1,0,0:0:0:0:
158,182,227288,1,8,0:0:0:0:
88,175,227446,1,0,0:0:0:0:
158,181,227604,1,8,0:0:0:0:
132,202,227762,1,0,0:0:0:0:
129,190,227841,1,0,0:0:0:0:
156,200,227920,1,8,0:0:0:0:
132,202,227999,1,0,0:0:0:0:
132,202,228078,1,0,0:0:0:0:
132,202,228157,1,0,0:0:0:0:
149,200,228236,1,8,0:0:0:0:
132,202,228315,1,0,0:0:0:0:
132,202,228394,1,0,0:0:0:0:
132,202,228473,1,0,0:0:0:0:
149,200,228552,1,8,0:0:0:0:
132,202,228631,1,0,0:0:0:0:
132,202,228710,1,0,0:0:0:0:
132,202,228788,1,0,0:0:0:0:
64,187,228867,1,8,0:0:0:0:
127,211,229025,1,12,0:0:0:0:
127,211,229183,1,8,0:0:0:0:
156,197,229262,1,8,0:0:0:0:
156,197,229341,1,0,0:0:0:0:
148,193,229499,1,8,0:0:0:0:
156,197,229578,1,8,0:0:0:0:
156,197,229657,1,0,0:0:0:0:
156,197,229736,1,0,0:0:0:0:
148,193,229815,1,8,0:0:0:0:
131,195,229973,1,12,0:0:0:0:
148,193,230131,1,0,0:0:0:0:
131,195,230288,1,8,0:0:0:0:
131,195,230367,1,0,0:0:0:0:
148,193,230446,1,8,0:0:0:0:
139,185,230604,1,0,0:0:0:0:
148,193,230762,1,8,0:0:0:0:
151,174,230920,1,8,0:0:0:0:
93,172,230999,1,8,0:0:0:0:
151,174,231078,1,0,0:0:0:0:
139,185,231236,1,12,0:0:0:0:
148,193,231394,1,0,0:0:0:0:
108,181,231552,1,8,0:0:0:0:
148,193,231710,1,8,0:0:0:0:
108,181,231788,1,8,0:0:0:0:
69,171,231867,1,8,0:0:0:0:
129,187,231946,1,8,0:0:0:0:
148,193,232025,1,0,0:0:0:0:
132,175,232104,1,0,0:0:0:0:
116,189,232183,1,8,0:0:0:0:
116,189,232262,1,0,0:0:0:0:
148,193,232341,1,8,0:0:0:0:
132,175,232499,1,0,0:0:0:0:
132,175,232578,1,0,0:0:0:0:
148,193,232657,1,8,0:0:0:0:
148,193,232815,1,8,0:0:0:0:
180,186,232894,1,0,0:0:0:0:
168,192,232973,1,0,0:0:0:0:
132,175,233052,1,0,0:0:0:0:
160,191,233131,1,8,0:0:0:0:
168,192,233210,1,0,0:0:0:0:
132,175,233288,1,0,0:0:0:0:
168,192,233367,1,0,0:0:0:0:
146,166,233446,1,8,0:0:0:0:
132,175,233525,1,8,0:0:0:0:
168,192,233604,1,0,0:0:0:0:
132,172,233683,1,0,0:0:0:0:
148,193,233762,1,8,0:0:0:0:
168,192,233841,1,8,0:0:0:0:
132,175,233920,1,0,0:0:0:0:
188,173,234078,1,8,0:0:0:0:
141,188,234157,1,0,0:0:0:0:
188,173,234236,1,8,0:0:0:0:
141,188,234315,1,0,0:0:0:0:
188,173,234394,1,8,0:0:0:0:
141,188,234473,1,0,0:0:0:0:
188,173,234552,1,8,0:0:0:0:
141,188,234631,1,0,0:0:0:0:
188,173,234710,1,8,0:0:0:0:
141,188,234788,1,8,0:0:0:0:
188,173,234867,1,0,0:0:0:0:
141,188,234946,1,0,0:0:0:0:
188,173,235025,1,8,0:0:0:0:
141,188,235104,1,8,0:0:0:0:
188,173,235183,1,0,0:0:0:0:
141,188,235262,1,0,0:0:0:0:
188,173,235341,1,8,0:0:0:0:
141,188,235420,1,0,0:0:0:0:
188,173,235499,1,8,0:0:0:0:
141,188,235578,1,0,0:0:0:0:
188,173,235657,1,8,0:0:0:0:
141,188,235736,1,0,0:0:0:0:
188,173,235815,1,8,0:0:0:0:
141,188,235894,1,0,0:0:0:0:
188,173,235973,1,8,0:0:0:0:
141,188,236052,1,0,0:0:0:0:
188,173,236131,1,0,0:0:0:0:
141,188,236210,1,0,0:0:0:0:
188,173,236288,1,8,0:0:0:0:
141,188,236367,1,0,0:0:0:0:
188,173,236446,1,0,0:0:0:0:
141,188,236525,1,0,0:0:0:0:
188,173,236604,1,8,0:0:0:0:
141,188,236683,1,0,0:0:0:0:
141,188,236762,1,8,0:0:0:0:
141,188,236841,1,0,0:0:0:0:
188,173,236920,1,8,0:0:0:0:
141,188,236999,1,0,0:0:0:0:
188,173,237078,1,8,0:0:0:0:
141,188,237157,1,0,0:0:0:0:
188,173,237236,1,8,0:0:0:0:
141,188,237315,1,8,0:0:0:0:
188,173,237394,1,8,0:0:0:0:
141,188,237473,1,0,0:0:0:0:
188,173,237552,1,8,0:0:0:0:
141,188,237631,1,8,0:0:0:0:
188,173,237710,1,8,0:0:0:0:
141,188,237788,1,0,0:0:0:0:
188,173,237867,1,8,0:0:0:0:
185,175,239131,1,12,0:0:0:0:
165,219,241657,5,4,0:0:0:0:
173,229,241815,5,4,0:0:0:0:
180,228,241973,1,4,0:0:0:0:
180,228,242131,1,4,0:0:0:0:
180,228,242446,1,4,0:0:0:0:
180,228,242762,1,4,0:0:0:0:
180,228,243552,1,12,0:0:0:0:
180,228,244183,1,4,0:0:0:0:
180,228,244341,1,4,0:0:0:0:
180,228,244499,1,4,0:0:0:0:
180,228,244657,1,4,0:0:0:0:
180,228,244973,1,4,0:0:0:0:
180,228,245288,1,4,0:0:0:0:
180,228,246078,1,12,0:0:0:0:
180,228,246710,1,12,0:0:0:0:
180,228,246867,1,4,0:0:0:0:
180,228,247025,1,4,0:0:0:0:
180,228,247183,1,12,0:0:0:0:
180,228,247499,1,12,0:0:0:0:
180,228,247815,1,12,0:0:0:0:
180,228,248604,1,4,0:0:0:0:
180,228,249236,1,12,0:0:0:0:
180,228,249394,1,12,0:0:0:0:
180,228,249552,1,12,0:0:0:0:
180,228,249710,1,12,0:0:0:0:
180,228,250025,1,12,0:0:0:0:
180,228,250341,1,12,0:0:0:0:
