osu file format v14

[General]
AudioFilename: getsomeair.mp3
AudioLeadIn: 0
PreviewTime: 17890
Countdown: 0
SampleSet: Soft
StackLeniency: 0.7
Mode: 0
LetterboxInBreaks: 1
WidescreenStoryboard: 1

[Editor]
Bookmarks: 15490,18690,31490,44290,63490,82690,95490,108290,133890,146690,153090,159490,172290,185090,197890,210690
DistanceSpacing: 1.6
BeatDivisor: 8
GridSize: 4
TimelineZoom: 1.499999

[Metadata]
Title:GET SOME AIR (ft. MIWOO)
TitleUnicode:바람이나 좀 쐐 (ft. 미우)
Artist:Kang Gary
ArtistUnicode:강개리
Creator:paydayzcool
Version:Insane
Source:
Tags:kpop hip hop squid kang hee gun square face halyang leessang 1thek
BeatmapID:1351798
BeatmapSetID:637171

[Difficulty]
HPDrainRate:6
CircleSize:5
OverallDifficulty:7
ApproachRate:8
SliderMultiplier:2.4
SliderTickRate:2

[Events]
//Background and Video events
0,0,"Gary.jpg",0,0
Video,0,"getsomeair.avi"
//Break Periods
2,159496,170740
//Storyboard Layer 0 (Background)
//Storyboard Layer 1 (Fail)
//Storyboard Layer 2 (Pass)
//Storyboard Layer 3 (Foreground)
//Storyboard Sound Samples

[TimingPoints]
15490,800,4,2,0,50,1,0
18690,-100,4,2,0,50,0,1
44290,-100,4,2,0,50,0,0
82690,-100,4,2,0,50,0,1
108290,-100,4,2,0,50,0,0
172290,-100,4,2,0,50,0,1
185090,-100,4,2,0,50,0,0

[Colours]
Combo1 : 74,134,255
Combo2 : 230,230,230
Combo3 : 128,128,128
Combo4 : 106,234,124
SliderBorder : 120,120,120
SliderTrackOverride : 0,0,0

[HitObjects]
256,192,15490,12,0,17890,0:0:0:0:
242,213,18090,37,2,0:0:0:0:
421,278,18290,1,2,0:0:0:0:
387,91,18490,1,2,0:0:0:0:
351,195,18690,6,0,L|287:189,1,60,4|0,0:0|0:0,0:0:0:0:
164,48,19090,2,0,L|227:53,1,60,0|2,0:0|0:0,0:0:0:0:
404,116,19490,2,0,L|398:56,1,60,8|2,0:0|0:0,0:0:0:0:
476,232,19890,2,0,L|481:291,1,60
386,247,20290,38,0,P|325:241|256:253,1,120,2|0,0:0|0:0,0:0:0:0:
202,318,20890,1,0,0:0:0:0:
202,318,21090,1,0,0:0:0:0:
234,130,21290,1,2,0:0:0:0:
385,248,21490,1,2,0:0:0:0:
202,318,21690,1,2,0:0:0:0:
84,176,21890,6,0,P|91:147|91:117,1,60,2|0,0:0|0:0,0:0:0:0:
56,28,22290,1,0,0:0:0:0:
234,130,22490,1,2,0:0:0:0:
84,176,22690,2,0,P|55:177|26:170,1,60,8|2,0:0|0:0,0:0:0:0:
217,35,23090,2,0,P|247:36|276:44,1,60
234,130,23490,38,0,L|245:259,1,120,2|2,0:0|0:0,0:0:0:0:
249,279,23990,1,2,0:0:0:0:
253,308,24090,1,2,0:0:0:0:
257,337,24190,1,2,0:0:0:0:
262,366,24290,1,8,0:0:0:0:
415,251,24490,1,2,0:0:0:0:
238,176,24690,1,2,0:0:0:0:
262,366,24890,1,2,0:0:0:0:
415,251,25090,6,0,L|409:186,1,60,2|0,0:0|0:0,0:0:0:0:
298,34,25490,2,0,L|292:99,1,60,0|2,0:0|0:0,0:0:0:0:
168,240,25890,2,0,L|162:175,1,60,10|2,0:0|0:0,0:0:0:0:
51,23,26290,2,0,L|45:88,1,60
59,274,26690,38,0,P|115:254|172:271,1,120,2|0,0:0|0:0,0:0:0:0:
229,347,27290,1,0,0:0:0:0:
229,347,27490,1,8,2:0:0:0:
405,375,27690,1,2,2:0:0:0:
342,208,27890,1,2,2:0:0:0:
229,347,28090,1,2,0:0:0:0:
166,179,28290,6,0,P|168:150|179:121,1,60,2|0,0:0|0:0,0:0:0:0:
299,49,28690,1,2,0:0:0:0:
108,70,28890,2,0,P|129:50|156:38,1,60,2|8,0:0|0:0,0:0:0:0:
299,49,29290,1,2,0:2:0:0:
288,188,29490,2,0,L|281:266,1,60,2|0,0:0|0:0,0:0:0:0:
446,348,29890,38,0,L|434:219,1,120,2|2,0:0|0:0,0:0:0:0:
433,198,30390,1,2,0:0:0:0:
430,168,30490,1,2,0:0:0:0:
427,138,30590,1,2,0:0:0:0:
425,108,30690,2,0,P|404:88|377:76,1,60,8|0,0:0|0:0,0:0:0:0:
308,144,31090,1,0,0:0:0:0:
444,277,31290,1,2,0:0:0:0:
500,197,31490,6,0,L|494:137,1,60,4|0,0:0|0:0,0:0:0:0:
327,46,31890,1,0,0:0:0:0:
495,138,32090,1,2,0:0:0:0:
328,232,32290,2,0,P|299:232|269:223,1,60,8|2,0:0|0:0,0:0:0:0:
139,48,32690,2,0,P|168:48|197:56,1,60
167,262,33090,38,0,L|156:143,1,120,2|0,0:0|0:0,0:0:0:0:
128,350,33690,1,2,0:0:0:0:
223,340,33890,2,0,P|252:340|281:348,1,60,8|2,0:0|0:0,0:0:0:0:
373,376,34290,1,0,0:0:0:0:
511,243,34490,1,2,0:0:0:0:
423,290,34690,6,0,P|423:260|415:232,1,60
260,345,35090,1,0,0:0:0:0:
175,172,35290,1,2,0:0:0:0:
175,172,35490,2,0,P|166:201|166:231,1,60,8|2,0:0|0:0,0:0:0:0:
350,281,35890,2,0,P|348:251|341:223,1,60
268,263,36290,38,0,L|148:252,1,120,2|2,0:0|0:0,0:0:0:0:
118,249,36790,1,2,0:0:0:0:
88,246,36890,1,2,0:0:0:0:
58,243,36990,1,2,0:0:0:0:
28,241,37090,1,10,0:0:0:0:
199,154,37290,1,2,0:0:0:0:
108,323,37490,1,2,0:0:0:0:
3,161,37690,1,2,0:0:0:0:
199,154,37890,6,0,P|228:154|257:146,1,60,2|0,0:0|0:0,0:0:0:0:
412,31,38290,2,0,P|397:56|389:85,1,60,0|2,0:0|0:0,0:0:0:0:
374,277,38690,2,0,L|368:210,1,60,8|2,0:0|0:0,0:0:0:0:
507,84,39090,2,0,L|512:150,1,60
436,320,39490,38,0,P|378:305|318:305,1,120,2|0,0:0|0:0,0:0:0:0:
221,326,40090,1,0,0:0:0:0:
221,326,40290,1,8,0:0:0:0:
193,232,40490,1,2,0:0:0:0:
248,48,40690,1,2,0:0:0:0:
380,187,40890,1,2,0:0:0:0:
193,232,41090,22,0,P|163:229|134:219,1,60,2|0,0:0|0:0,0:0:0:0:
78,35,41490,1,2,0:0:0:0:
81,290,41690,2,0,P|60:266|48:239,1,60,2|8,0:0|0:0,0:0:0:0:
140,70,42090,1,2,0:0:0:0:
150,165,42290,2,0,L|223:158,1,60,2|0,0:0|0:0,0:0:0:0:
361,65,42690,6,0,L|241:54,1,120,2|2,0:0|0:0,0:0:0:0:
211,50,43190,1,2,0:0:0:0:
181,47,43290,1,2,0:0:0:0:
151,44,43390,1,2,0:0:0:0:
121,42,43490,1,10,0:0:0:0:
198,217,43690,1,8,0:0:0:0:
311,62,43890,1,0,0:0:0:0:
121,42,44090,1,8,0:0:0:0:
271,160,44290,38,0,L|276:221,1,60,4|2,0:0|0:0,0:0:0:0:
279,249,44590,1,0,0:0:0:0:
282,278,44690,1,0,0:0:0:0:
356,341,44890,1,2,0:0:0:0:
420,268,45090,1,8,0:0:0:0:
192,104,45290,1,2,0:0:0:0:
280,64,45490,1,0,0:0:0:0:
271,160,45690,1,2,0:0:0:0:
264,256,45890,6,0,P|234:264|204:264,1,60,2|0,0:0|0:0,0:0:0:0:
112,244,46290,1,0,0:0:0:0:
29,70,46690,2,0,P|58:61|88:61,1,60,2|2,0:0|0:0,0:0:0:0:
162,121,47090,1,0,0:0:0:0:
230,53,47290,1,2,0:0:0:0:
320,85,47490,38,0,L|403:77,1,60,2|0,0:0|0:0,0:0:0:0:
444,152,47890,1,0,0:0:0:0:
414,154,47990,1,0,0:0:0:0:
384,157,48090,1,2,0:0:0:0:
256,300,48290,1,8,0:0:0:0:
351,308,48490,1,2,0:0:0:0:
220,168,48690,1,0,0:0:0:0:
125,176,48890,1,2,0:0:0:0:
35,345,49090,6,0,P|64:354|94:354,1,60,2|0,0:0|0:0,0:0:0:0:
180,312,49490,1,0,0:0:0:0:
364,360,49890,2,0,P|373:331|373:301,1,60,8|2,0:0|0:0,0:0:0:0:
368,272,50190,2,0,L|374:211,1,60
380,184,50490,1,2,0:0:0:0:
365,89,50690,37,0,0:0:0:0:
292,152,50890,1,2,0:0:0:0:
262,154,50990,1,0,0:0:0:0:
232,158,51090,1,0,0:0:0:0:
143,196,51290,1,2,0:0:0:0:
271,338,51490,1,8,0:0:0:0:
271,338,51590,2,0,P|279:309|279:279,1,60,2|0,0:0|0:0,0:0:0:0:
276,249,51890,1,0,0:0:0:0:
205,184,52090,1,2,0:0:0:0:
297,158,52290,5,0,0:0:0:0:
128,65,52490,1,2,0:0:0:0:
44,109,52690,2,0,L|38:170,1,60,2|2,0:0|0:0,0:0:0:0:
29,264,53090,1,8,0:0:0:0:
186,311,53290,1,0,0:0:0:0:
215,312,53390,1,0,0:0:0:0:
244,314,53490,1,0,0:0:0:0:
332,361,53690,1,2,0:0:0:0:
313,200,53890,37,0,0:0:0:0:
186,311,54090,1,2,0:0:0:0:
245,127,54290,1,0,0:0:0:0:
375,270,54490,1,2,0:0:0:0:
216,216,54690,1,10,0:0:0:0:
342,104,54890,1,0,0:0:0:0:
277,282,55090,1,0,0:0:0:0:
148,150,55290,1,2,0:0:0:0:
313,200,55490,5,0,0:0:0:0:
176,54,55690,1,2,0:0:0:0:
313,200,55890,2,0,P|342:208|372:208,1,60,0|2,0:0|0:0,0:0:0:0:
465,183,56290,1,10,0:0:0:0:
437,274,56490,1,0,0:0:0:0:
348,310,56690,1,0,0:0:0:0:
253,291,56890,1,2,0:0:0:0:
167,334,57090,38,0,P|138:326|108:326,1,60,0|2,0:0|0:0,0:0:0:0:
52,121,57690,1,2,0:0:0:0:
122,185,57890,2,0,P|151:193|181:193,1,60,10|0,0:0|0:0,0:0:0:0:
332,74,58290,2,0,P|303:66|273:66,1,60,0|2,0:0|0:0,0:0:0:0:
444,153,58890,5,2,0:0:0:0:
421,246,59090,1,0,0:0:0:0:
353,178,59290,1,2,0:0:0:0:
323,181,59390,1,0,0:0:0:0:
293,183,59490,1,10,0:0:0:0:
206,141,59690,1,0,0:0:0:0:
309,302,59890,1,0,0:0:0:0:
118,311,60090,1,2,0:0:0:0:
293,183,60290,37,0,0:0:0:0:
245,368,60490,1,2,0:0:0:0:
150,200,60690,2,0,P|142:171|142:141,1,60,0|2,0:0|0:0,0:0:0:0:
312,65,61090,1,10,0:0:0:0:
226,236,61290,1,0,0:0:0:0:
161,53,61490,1,0,0:0:0:0:
131,49,61590,1,0,0:0:0:0:
102,59,61690,1,2,0:0:0:0:
118,274,61890,5,2,0:0:0:0:
207,135,62090,1,2,0:0:0:0:
36,222,62290,1,2,0:0:0:0:
121,179,62490,1,0,0:0:0:0:
201,231,62690,1,10,0:0:0:0:
231,233,62790,1,0,0:0:0:0:
261,236,62890,1,0,0:0:0:0:
457,254,63090,1,0,0:0:0:0:
295,357,63290,1,2,0:0:0:0:
332,168,63490,38,0,L|335:128,2,40
258,93,63890,2,0,L|254:132,2,40
210,21,64290,2,0,P|149:25|91:46,1,120,8|0,0:0|0:0,0:0:0:0:
42,124,64890,1,2,0:0:0:0:
50,152,64990,1,0,0:0:0:0:
50,182,65090,5,0,0:0:0:0:
23,372,65290,1,2,0:0:0:0:
201,301,65490,1,0,0:0:0:0:
50,182,65690,1,2,0:0:0:0:
78,174,65790,1,0,0:0:0:0:
108,174,65890,1,10,0:0:0:0:
297,202,66090,1,0,0:0:0:0:
124,286,66290,2,0,L|56:291,1,60,0|2,0:0|0:0,0:0:0:0:
204,160,66690,37,0,0:0:0:0:
165,348,66890,1,2,0:0:0:0:
235,169,67090,1,0,0:0:0:0:
246,361,67290,1,2,0:0:0:0:
267,170,67490,1,10,0:0:0:0:
327,353,67690,1,0,0:0:0:0:
356,350,67790,1,0,0:0:0:0:
386,347,67890,1,0,0:0:0:0:
482,336,68090,1,2,0:0:0:0:
396,164,68490,5,2,0:0:0:0:
367,161,68590,1,0,0:0:0:0:
337,158,68690,1,0,0:0:0:0:
178,265,68890,1,2,0:0:0:0:
244,83,69090,1,10,0:0:0:0:
211,174,69290,1,8,0:0:0:0:
178,265,69490,1,0,0:0:0:0:
149,100,69690,1,10,0:0:0:0:
84,280,69890,37,4,0:0:0:0:
273,248,70090,1,2,0:0:0:0:
149,100,70290,1,0,0:0:0:0:
339,66,70490,1,2,0:0:0:0:
273,248,70690,1,10,0:0:0:0:
240,58,70890,1,0,0:0:0:0:
269,61,70990,1,0,0:0:0:0:
298,63,71090,1,0,0:0:0:0:
468,124,71290,1,2,0:0:0:0:
372,292,71490,5,0,0:0:0:0:
268,132,71690,1,2,0:0:0:0:
440,220,71890,1,0,0:0:0:0:
256,160,72090,1,2,0:0:0:0:
360,320,72290,1,10,0:0:0:0:
304,240,72490,1,0,0:0:0:0:
255,160,72690,2,0,L|262:88,1,60,0|2,0:0|0:0,0:0:0:0:
180,47,73090,37,2,0:0:0:0:
180,47,73190,2,0,P|149:45|120:34,1,60,2|0,0:0|0:0,0:0:0:0:
77,52,73490,1,2,0:0:0:0:
77,52,73590,2,0,P|75:82|64:111,1,60,2|0,0:0|0:0,0:0:0:0:
43,152,73890,1,10,0:0:0:0:
96,340,74090,1,0,0:0:0:0:
220,196,74290,1,0,0:0:0:0:
40,260,74490,1,2,0:0:0:0:
96,340,74690,5,0,0:0:0:0:
132,251,74890,1,2,0:0:0:0:
189,327,75090,2,0,P|217:317|247:315,1,60,0|2,0:0|0:0,0:0:0:0:
403,204,75490,2,0,P|372:202|343:191,1,60,10|0,0:0|0:0,0:0:0:0:
275,124,75890,1,0,0:0:0:0:
96,192,76090,1,2,0:0:0:0:
98,221,76190,1,0,0:0:0:0:
101,251,76290,37,0,0:0:0:0:
276,308,76490,1,2,0:0:0:0:
87,346,76690,1,0,0:0:0:0:
188,184,76890,1,2,0:0:0:0:
372,232,77090,1,10,0:0:0:0:
312,48,77290,1,0,0:0:0:0:
272,236,77490,1,0,0:0:0:0:
444,164,77690,1,2,0:0:0:0:
272,236,77890,5,0,0:0:0:0:
317,107,78090,1,2,0:0:0:0:
315,79,78190,1,0,0:0:0:0:
312,48,78290,1,0,0:0:0:0:
404,74,78490,1,2,0:0:0:0:
217,28,78690,2,0,P|186:30|157:41,1,60,10|0,0:0|0:0,0:0:0:0:
108,121,79090,1,0,0:0:0:0:
232,274,79290,1,2,0:0:0:0:
260,272,79390,1,0,0:0:0:0:
287,269,79490,37,0,0:0:0:0:
384,256,79690,1,2,0:0:0:0:
220,156,79890,1,0,0:0:0:0:
192,153,79990,1,0,0:0:0:0:
164,151,80090,1,2,0:0:0:0:
68,140,80290,1,10,0:0:0:0:
120,60,80490,1,0,0:0:0:0:
120,60,80590,2,0,P|151:58|180:47,1,60
204,36,80890,1,2,0:0:0:0:
292,76,81090,6,0,P|320:86|349:87,1,60,0|2,0:0|0:0,0:0:0:0:
472,320,81890,1,8,0:0:0:0:
280,344,82090,1,10,0:0:0:0:
360,168,82290,1,2,0:0:0:0:
380,356,82490,1,10,0:0:0:0:
200,284,82690,38,0,L|136:289,1,60,4|0,0:0|0:0,0:0:0:0:
8,148,83090,2,0,L|71:142,1,60,0|2,0:0|0:0,0:0:0:0:
259,147,83490,2,0,L|253:210,1,60,8|2,0:0|0:0,0:0:0:0:
392,74,83890,2,0,L|397:11,1,60
478,64,84290,6,0,B|474:103|474:103|455:138|455:138|451:182,1,120,2|0,0:0|0:0,0:0:0:0:
443,274,84890,1,2,0:0:0:0:
443,274,85090,1,8,0:0:0:0:
269,342,85290,1,2,0:0:0:0:
298,157,85490,1,2,0:0:0:0:
443,274,85690,1,2,0:0:0:0:
252,247,85890,38,0,L|189:242,1,60,2|0,0:0|0:0,0:0:0:0:
109,192,86290,1,0,0:0:0:0:
173,11,86490,1,2,0:0:0:0:
298,157,86690,2,0,P|326:167|355:168,1,60,8|2,0:0|0:0,0:0:0:0:
231,21,87090,2,0,P|203:11|174:10,1,60
88,32,87490,6,0,L|98:151,1,120,2|2,0:0|0:0,0:0:0:0:
102,181,87990,1,2,0:0:0:0:
106,209,88090,1,2,0:0:0:0:
110,239,88190,1,2,0:0:0:0:
114,269,88290,1,10,0:0:0:0:
291,343,88490,1,2,0:0:0:0:
187,181,88690,1,2,0:0:0:0:
109,356,88890,1,2,0:0:0:0:
267,247,89090,38,0,L|261:182,1,60,2|0,0:0|0:0,0:0:0:0:
412,67,89490,2,0,L|417:131,1,60,0|2,0:0|0:0,0:0:0:0:
353,308,89890,2,0,L|347:243,1,60,8|2,0:0|0:0,0:0:0:0:
499,129,90290,2,0,L|504:193,1,60
405,353,90690,6,0,P|348:332|289:330,1,120,2|0,0:0|0:0,0:0:0:0:
197,358,91290,1,2,0:0:0:0:
197,358,91490,1,8,0:0:0:0:
18,287,91690,1,2,0:0:0:0:
171,171,91890,1,2,0:0:0:0:
197,358,92090,1,2,0:0:0:0:
77,207,92290,22,0,P|87:178|88:149,1,60,2|0,0:0|0:0,0:0:0:0:
39,65,92690,1,2,0:0:0:0:
301,149,92890,2,0,P|272:139|243:137,1,60,2|0,0:0|0:0,0:0:0:0:
159,187,93290,1,2,0:0:0:0:
249,340,93490,2,0,L|254:280,1,60,2|0,0:0|0:0,0:0:0:0:
388,142,93890,38,0,L|398:261,1,120,2|2,0:0|0:0,0:0:0:0:
403,291,94390,1,2,0:0:0:0:
407,321,94490,1,2,0:0:0:0:
411,350,94590,1,2,0:0:0:0:
415,380,94690,1,10,0:0:0:0:
497,330,94890,1,0,0:0:0:0:
310,284,95090,1,0,0:0:0:0:
443,145,95290,1,2,0:0:0:0:
268,103,95490,6,0,P|240:113|211:114,1,60,4|0,0:0|0:0,0:0:0:0:
32,39,95890,1,0,0:0:0:0:
221,19,96090,1,2,0:0:0:0:
142,197,96290,2,0,L|147:256,1,60,8|2,0:0|0:0,0:0:0:0:
328,356,96690,2,0,L|333:296,1,60
432,132,97090,38,0,P|371:136|313:123,1,120,2|0,0:0|0:0,0:0:0:0:
228,80,97690,1,2,0:0:0:0:
228,80,97890,2,0,P|200:70|171:69,1,60,8|2,0:0|0:0,0:0:0:0:
47,217,98290,1,0,0:0:0:0:
232,168,98490,1,2,0:0:0:0:
47,217,98690,6,0,P|47:187|57:158,1,60,0|2,0:0|0:0,0:0:0:0:
234,87,99090,1,0,0:0:0:0:
201,276,99290,1,2,0:0:0:0:
381,209,99490,2,0,L|322:204,1,60,8|2,0:0|0:0,0:0:0:0:
174,81,99890,2,0,L|233:86,1,60
417,149,100290,22,0,P|447:193|431:259,1,120,2|2,0:0|0:0,0:0:0:0:
409,273,100790,1,2,0:0:0:0:
378,278,100890,1,2,0:0:0:0:
349,272,100990,1,2,0:0:0:0:
326,254,101090,1,10,0:0:0:0:
278,68,101290,1,2,0:0:0:0:
463,118,101490,1,2,0:0:0:0:
326,254,101690,1,2,0:0:0:0:
187,168,101890,38,0,L|180:96,1,60,2|0,0:0|0:0,0:0:0:0:
361,38,102290,2,0,L|367:109,1,60,0|2,0:0|0:0,0:0:0:0:
405,285,102690,2,0,L|345:279,1,60,8|2,0:0|0:0,0:0:0:0:
163,216,103090,2,0,L|222:221,1,60
359,355,103490,6,0,L|238:345,1,120,2|0,0:0|0:0,0:0:0:0:
143,334,104090,1,0,0:0:0:0:
143,334,104290,1,8,0:0:0:0:
263,184,104490,1,2,0:0:0:0:
73,155,104690,1,2,0:0:0:0:
143,334,104890,1,2,0:0:0:0:
247,99,105090,38,0,P|277:99|306:109,1,60,2|0,0:0|0:0,0:0:0:0:
387,159,105490,1,2,0:0:0:0:
209,233,105690,2,0,P|179:233|150:223,1,60,2|8,0:0|0:0,0:0:0:0:
103,140,106090,1,2,0:0:0:0:
289,184,106290,2,0,P|300:211|302:242,1,60,2|0,0:0|0:0,0:0:0:0:
266,330,106690,6,0,L|144:319,1,120,2|2,0:0|0:0,0:0:0:0:
116,318,107190,1,2,0:0:0:0:
86,315,107290,1,2,0:0:0:0:
56,313,107390,1,2,0:0:0:0:
26,310,107490,1,10,0:0:0:0:
80,196,107690,1,8,0:0:0:0:
202,250,107890,1,0,0:0:0:0:
199,279,107990,1,0,0:0:0:0:
197,307,108090,1,8,0:0:0:0:
280,356,108290,38,4,L|285:296,1,60,4|0,0:0|0:0,0:0:0:0:
332,112,108890,1,2,0:0:0:0:
416,156,109090,1,10,0:0:0:0:
416,156,109190,2,0,P|405:183|403:214,1,60,0|2,0:0|0:0,0:0:0:0:
436,248,109490,2,0,P|437:277|428:306,1,60,0|2,0:0|0:0,0:0:0:0:
344,356,109890,5,0,0:0:0:0:
256,320,110090,1,2,0:0:0:0:
306,238,110290,2,0,P|279:227|248:225,1,60,0|2,0:0|0:0,0:0:0:0:
157,254,110690,1,10,0:0:0:0:
68,84,111090,1,0,0:0:0:0:
65,111,111190,1,0,0:0:0:0:
63,139,111290,1,2,0:0:0:0:
16,220,111490,38,0,P|43:231|74:233,1,60,0|2,0:0|0:0,0:0:0:0:
104,232,111790,1,0,0:0:0:0:
132,224,111890,1,0,0:0:0:0:
312,160,112090,1,2,0:0:0:0:
312,160,112190,1,0,0:0:0:0:
312,160,112290,2,0,L|306:223,1,60,10|0,0:0|0:0,0:0:0:0:
449,347,112690,1,0,0:0:0:0:
429,251,112890,1,2,0:0:0:0:
413,155,113090,6,0,L|407:95,2,60,0|2|0,0:0|0:0|0:0,0:0:0:0:
272,328,113890,1,10,0:0:0:0:
272,328,113990,2,0,P|245:317|214:315,1,60
168,308,114290,2,0,L|171:278,1,30,2|0,0:0|0:0,0:0:0:0:
88,224,114490,2,0,L|85:254,1,30,2|0,0:0|0:0,0:0:0:0:
72,348,114690,37,2,0:0:0:0:
169,200,114890,1,0,0:0:0:0:
24,72,115090,1,0,0:0:0:0:
85,253,115290,1,2,0:0:0:0:
204,103,115490,2,0,L|267:108,1,60,10|0,0:0|0:0,0:0:0:0:
359,99,115890,1,0,0:0:0:0:
416,176,116090,1,2,0:0:0:0:
413,205,116190,1,0,0:0:0:0:
410,235,116290,5,0,0:0:0:0:
348,308,116490,1,2,0:0:0:0:
180,216,116690,1,0,0:0:0:0:
348,124,116890,1,2,0:0:0:0:
248,288,117090,1,10,0:0:0:0:
144,128,117290,1,0,0:0:0:0:
316,216,117490,1,0,0:0:0:0:
144,304,117690,1,2,0:0:0:0:
248,140,117890,37,0,0:0:0:0:
248,140,117990,1,0,0:0:0:0:
248,140,118090,2,0,L|252:105,1,30,2|0,0:0|0:0,0:0:0:0:
325,93,118290,2,0,L|329:128,1,30,2|0,0:0|0:0,0:0:0:0:
388,167,118490,1,2,0:0:0:0:
388,167,118590,1,2,0:0:0:0:
388,167,118690,2,2,L|417:171,1,30,10|0,0:0|0:0,0:0:0:0:
445,241,118890,2,0,P|431:246|416:246,1,30,2|0,0:0|0:0,0:0:0:0:
350,282,119090,2,0,P|335:279|322:272,1,30,2|0,0:0|0:0,0:0:0:0:
247,267,119290,2,0,P|235:257|227:245,1,30,2|0,0:0|0:0,0:0:0:0:
160,210,119490,5,2,0:0:0:0:
266,81,119690,1,2,0:0:0:0:
324,238,119890,1,2,0:0:0:0:
250,176,120090,1,0,0:0:0:0:
405,116,120290,2,0,L|398:188,1,60,10|0,0:0|0:3,0:3:0:0:
324,238,120690,2,0,L|315:150,1,80,0|0,0:3|0:3,0:3:0:0:
308,118,121090,38,2,P|268:126|228:118,1,80,2|0,0:0|0:0,0:0:0:0:
192,102,121490,1,0,0:0:0:0:
160,194,121690,1,2,0:0:0:0:
60,30,121890,1,10,0:0:0:0:
92,122,122090,1,0,0:0:0:0:
160,194,122290,2,0,P|187:205|218:207,1,60,0|2,0:0|0:0,0:0:0:0:
312,186,122690,5,0,0:0:0:0:
214,351,122890,1,2,0:0:0:0:
456,199,123290,1,2,0:0:0:0:
447,170,123390,1,0,0:0:0:0:
438,141,123490,1,10,0:0:0:0:
425,45,123690,1,0,0:0:0:0:
349,104,123890,2,0,L|319:106,1,30
291,120,124090,1,2,0:0:0:0:
231,336,124290,37,0,0:0:0:0:
94,191,124490,1,2,0:0:0:0:
291,229,124690,1,0,0:0:0:0:
110,313,124890,1,2,0:0:0:0:
208,139,125090,1,10,0:0:0:0:
186,243,125290,1,0,0:0:0:0:
309,106,125490,1,0,0:0:0:0:
128,68,125690,1,2,0:0:0:0:
290,210,125890,5,0,0:0:0:0:
471,172,126090,1,2,0:0:0:0:
154,351,126490,1,2,0:0:0:0:
154,351,126590,1,0,0:0:0:0:
154,351,126690,2,0,P|143:324|141:293,1,60,10|0,0:0|0:0,0:0:0:0:
146,263,126990,1,0,0:0:0:0:
158,235,127090,1,0,0:0:0:0:
232,296,127290,1,2,0:0:0:0:
32,276,127490,37,0,0:0:0:0:
32,276,127590,2,0,P|43:249|45:218,1,60,2|2,0:0|0:0,0:0:0:0:
86,194,127890,2,0,P|103:201|123:202,2,40,2|2|2,0:0|0:0|0:0,0:0:0:0:
118,138,128290,6,0,L|112:78,1,60,10|0,0:0|0:3,0:3:0:0:
300,38,128690,1,0,0:0:0:0:
302,67,128790,1,0,0:0:0:0:
304,96,128890,1,2,0:0:0:0:
335,187,129090,37,0,0:0:0:0:
252,306,129290,1,2,0:0:0:0:
173,186,129490,2,0,P|162:159|160:128,1,60,0|2,0:0|0:0,0:0:0:0:
255,135,129890,1,10,0:0:0:0:
335,187,130090,1,0,0:0:0:0:
252,236,130290,1,0,0:0:0:0:
240,263,130390,1,0,0:0:0:0:
238,293,130490,1,2,0:0:0:0:
179,369,130690,5,0,0:0:0:0:
179,369,130790,2,0,P|151:377|120:376,1,60,2|0,0:0|0:0,0:0:0:0:
90,375,131090,1,2,0:0:0:0:
16,312,131290,1,2,0:0:0:0:
72,234,131490,2,0,P|85:170|72:118,1,120,10|0,0:0|0:0,0:0:0:0:
23,34,132090,1,2,0:0:0:0:
214,19,132290,37,2,0:0:0:0:
165,204,132490,1,2,0:0:0:0:
98,134,132690,1,2,0:0:0:0:
284,89,132890,1,2,0:0:0:0:
119,40,133090,1,10,0:0:0:0:
255,183,133290,1,10,0:0:0:0:
409,69,133490,1,2,0:0:0:0:
414,98,133590,1,0,0:0:0:0:
420,127,133690,1,10,0:0:0:0:
416,222,133890,5,4,0:0:0:0:
416,222,133990,2,0,P|388:214|357:215,1,60,2|0,0:0|0:0,0:0:0:0:
330,228,134290,2,0,P|302:236|271:235,1,60,2|2,0:0|0:0,0:0:0:0:
178,208,134690,1,8,0:0:0:0:
249,143,134890,1,0,0:0:0:0:
196,327,135090,1,0,0:0:0:0:
86,169,135290,1,2,0:0:0:0:
191,42,135490,38,0,P|202:58|206:77,1,40
170,7,135756,2,0,L|262:14,1,80,2|0,0:0|0:0,0:0:0:0:
282,25,136090,1,2,0:0:0:0:
430,147,136290,1,0,0:0:0:0:
251,214,136490,1,0,0:0:0:0:
322,128,136690,1,0,0:0:0:0:
468,252,136890,1,2,0:0:0:0:
296,325,137090,5,0,0:0:0:0:
200,335,137290,1,2,0:0:0:0:
109,302,137490,1,0,0:0:0:0:
53,223,137690,1,2,0:0:0:0:
193,91,137890,1,10,0:0:0:0:
180,187,138090,1,0,0:0:0:0:
361,114,138290,1,0,0:0:0:0:
283,54,138490,1,2,0:0:0:0:
257,248,138690,37,0,0:0:0:0:
270,150,138890,1,0,0:0:0:0:
348,211,139090,2,0,L|353:269,1,60,0|2,0:0|0:0,0:0:0:0:
168,232,139490,2,0,L|173:172,1,60,10|0,0:0|0:0,0:0:0:0:
176,142,139790,1,0,0:0:0:0:
178,112,139890,1,0,0:0:0:0:
263,67,140090,1,2,0:0:0:0:
282,162,140290,5,0,0:0:0:0:
481,253,140490,1,2,0:0:0:0:
371,98,140690,1,0,0:0:0:0:
393,318,140890,1,2,0:0:0:0:
282,162,141090,1,10,0:0:0:0:
473,145,141290,1,0,0:0:0:0:
291,272,141490,2,0,P|263:280|232:279,1,60,0|2,0:0|0:0,0:0:0:0:
139,253,141890,37,0,0:0:0:0:
72,183,142090,1,2,0:0:0:0:
165,162,142290,1,0,0:0:0:0:
139,253,142490,1,2,0:0:0:0:
5,113,142690,1,8,0:0:0:0:
82,55,142890,2,0,P|110:63|141:62,1,60
218,6,143290,1,2,0:0:0:0:
227,101,143490,5,0,0:0:0:0:
308,275,143690,1,2,0:0:0:0:
417,118,143890,1,0,0:0:0:0:
318,165,144090,1,2,0:0:0:0:
250,348,144290,2,0,P|287:366|336:362,1,90,10|0,0:0|0:0,0:0:0:0:
361,349,144690,1,0,0:0:0:0:
489,205,144890,1,2,0:0:0:0:
300,166,145090,37,0,0:0:0:0:
443,293,145290,1,0,0:0:0:0:
252,273,145490,1,0,0:0:0:0:
365,118,145690,1,2,0:0:0:0:
338,308,145890,2,0,P|292:354|210:357,1,150,8|0,0:0|0:0,0:0:0:0:
137,295,146590,1,0,0:0:0:0:
137,295,146690,6,0,L|142:234,1,60,2|2,0:0|0:0,0:0:0:0:
332,212,147090,1,0,0:0:0:0:
338,308,147290,1,2,0:0:0:0:
246,170,147490,1,10,0:0:0:0:
241,74,147690,2,0,P|274:36|316:22,1,90
383,124,148190,1,0,0:0:0:0:
383,124,148290,38,2,P|353:124|324:115,1,60,2|0,0:0|0:0,0:0:0:0:
310,22,148690,1,0,0:0:0:0:
489,89,148890,1,2,0:0:0:0:
342,210,149090,2,0,P|340:239|349:268,1,60,10|0,0:0|0:0,0:0:0:0:
436,226,149490,1,0,0:0:0:0:
267,290,149690,1,2,0:0:0:0:
364,137,149890,5,0,0:0:0:0:
376,318,150090,1,2,0:0:0:0:
260,179,150290,1,0,0:0:0:0:
436,226,150490,1,2,0:0:0:0:
396,54,150690,1,10,0:0:0:0:
348,202,150890,1,0,0:0:0:0:
329,113,151090,1,0,0:0:0:0:
416,140,151290,1,2,0:0:0:0:
321,300,151490,6,0,P|259:287|200:300,1,120,2|0,0:0|0:0,0:0:0:0:
31,213,152290,2,0,P|105:228|176:213,1,150,8|0,0:0|0:0,0:0:0:0:
266,179,152990,1,0,0:0:0:0:
266,179,153090,6,0,P|295:177|324:186,1,60,0|2,0:0|0:0,0:0:0:0:
283,272,153490,1,0,0:0:0:0:
243,359,153690,1,2,0:0:0:0:
97,182,153890,1,8,0:0:0:0:
192,173,154090,2,0,P|234:187|278:183,1,90
364,141,154590,1,0,0:0:0:0:
364,141,154690,38,0,P|392:144|419:157,1,60,0|2,0:0|0:0,0:0:0:0:
388,334,155090,1,0,0:0:0:0:
364,240,155290,1,2,0:0:0:0:
113,339,155490,1,10,0:0:0:0:
137,245,155690,1,0,0:0:0:0:
204,311,155890,2,0,L|263:316,1,60,0|2,0:0|0:0,0:0:0:0:
395,153,156290,6,0,L|335:158,1,60,0|2,0:0|0:0,0:0:0:0:
354,349,156690,1,0,0:0:0:0:
343,253,156890,1,2,0:0:0:0:
253,83,157090,1,10,0:0:0:0:
264,179,157290,1,0,0:0:0:0:
428,80,157490,1,0,0:0:0:0:
417,176,157690,1,2,0:0:0:0:
253,83,157890,37,2,0:0:0:0:
195,156,158090,1,2,0:0:0:0:
160,66,158290,1,2,0:0:0:0:
160,68,171490,53,0,0:0:0:0:
104,144,171690,1,0,0:0:0:0:
198,158,171890,2,0,L|203:217,1,60,0|2,0:0|0:0,0:0:0:0:
147,296,172290,6,0,P|205:316|263:293,1,120,4|0,0:0|0:0,0:0:0:0:
299,209,172890,1,2,0:0:0:0:
393,190,173090,2,0,P|395:219|386:248,1,60,8|2,0:0|0:0,0:0:0:0:
261,102,173490,2,0,P|259:73|268:44,1,60
315,179,173890,38,0,P|255:194|195:168,1,120,2|0,0:0|0:0,0:0:0:0:
125,116,174490,1,2,0:0:0:0:
57,184,174690,2,0,L|62:244,1,60,8|2,0:0|0:0,0:0:0:0:
121,319,175090,1,0,0:0:0:0:
216,291,175290,1,0,0:0:0:0:
311,318,175490,6,0,L|371:312,1,60,2|0,0:0|0:0,0:0:0:0:
462,260,175890,1,0,0:0:0:0:
271,233,176090,1,2,0:0:0:0:
390,81,176290,2,0,L|384:141,1,60,8|2,0:0|0:0,0:0:0:0:
311,318,176690,2,0,L|306:258,1,60
467,117,177090,6,0,P|463:175|481:233,1,120,2|2,0:0|0:0,0:0:0:0:
493,260,177590,1,2,0:0:0:0:
496,290,177690,1,2,0:0:0:0:
493,319,177790,1,2,0:0:0:0:
482,347,177890,1,10,0:0:0:0:
294,306,178090,1,2,0:0:0:0:
424,164,178290,1,2,0:0:0:0:
382,351,178490,1,2,0:0:0:0:
216,253,178690,6,0,P|187:251|158:260,1,60,2|0,0:0|0:0,0:0:0:0:
0,149,179090,2,0,P|29:151|58:142,1,60,0|2,0:0|0:0,0:0:0:0:
224,46,179490,2,0,L|164:41,1,60,8|2,0:0|0:0,0:0:0:0:
318,156,179890,2,0,L|378:151,1,60
234,132,180290,38,0,B|214:192|254:192|234:252,1,120,2|0,0:0|0:0,0:0:0:0:
193,336,180890,1,2,0:0:0:0:
288,332,181090,2,0,P|317:334|346:325,1,60,8|2,0:0|0:0,0:0:0:0:
460,217,181490,1,0,0:0:0:0:
311,172,181690,1,0,0:0:0:0:
346,324,181890,6,0,P|344:353|353:382,1,60,2|0,0:0|0:0,0:0:0:0:
440,339,182290,1,0,0:0:0:0:
423,147,182490,2,0,P|425:118|416:89,1,60,2|8,0:0|0:0,0:0:0:0:
337,32,182890,1,2,0:0:0:0:
204,168,183090,2,0,L|210:230,1,60
372,330,183490,38,0,L|382:210,1,120,2|2,0:0|0:0,0:0:0:0:
385,180,183990,1,2,0:0:0:0:
387,150,184090,1,2,0:0:0:0:
390,120,184190,1,2,0:0:0:0:
392,91,184290,1,10,0:0:0:0:
216,172,184490,1,8,0:0:0:0:
377,275,184690,1,0,0:0:0:0:
392,91,184890,1,8,0:0:0:0:
281,248,185090,6,0,P|240:289|178:299,1,120,4|0,0:0|0:0,0:0:0:0:
94,257,185690,1,2,0:0:0:0:
174,204,185890,2,0,B|189:145|189:145|177:83,1,120,8|0,0:0|0:0,0:0:0:0:
246,18,186490,1,0,0:0:0:0:
339,44,186690,38,0,B|327:102|327:102|342:161,1,120
380,248,187290,1,2,0:0:0:0:
380,248,187490,2,0,B|345:267|304:254|304:254|260:258,1,120,8|0,0:0|0:0,0:0:0:0:
124,124,188290,6,0,B|161:111|199:130|199:130|243:134,1,120
336,108,188890,1,2,0:0:0:0:
408,168,189090,2,0,B|400:200|400:200|408:232,1,60,8|2,0:0|0:0,0:0:0:0:
477,350,189490,2,0,B|484:324|484:324|476:292,1,60
384,320,189890,38,0,L|260:330,1,120,2|2,0:0|0:0,0:0:0:0:
234,334,190390,1,2,0:0:0:0:
204,333,190490,1,2,0:0:0:0:
175,325,190590,1,2,0:0:0:0:
149,310,190690,1,10,0:0:0:0:
120,219,190890,1,2,0:0:0:0:
214,240,191090,1,0,0:0:0:0:
149,310,191290,1,2,0:0:0:0:
197,124,191490,6,0,B|255:112|255:112|314:127,1,120
385,192,192090,1,2,0:0:0:0:
471,149,192290,2,0,L|464:80,1,60,8|0,0:0|0:0,0:0:0:0:
393,25,192690,2,0,L|386:93,1,60,0|2,0:0|0:0,0:0:0:0:
316,152,193090,38,0,B|257:137|257:137|199:149,1,120
108,183,193690,1,2,0:0:0:0:
108,183,193890,2,0,P|101:154|106:124,1,60,8|0,0:0|0:0,0:0:0:0:
32,252,194290,2,0,P|38:280|33:310,1,60,0|2,0:0|0:0,0:0:0:0:
120,352,194690,6,0,B|179:367|179:367|237:355,1,120
328,328,195290,1,2,0:0:0:0:
328,328,195490,2,0,L|396:335,1,60,8|2,0:0|0:0,0:0:0:0:
436,252,195890,2,0,L|368:259,1,60
420,172,196290,38,0,L|352:179,1,60,2|0,0:0|0:0,0:0:0:0:
248,88,196690,1,2,0:0:0:0:
277,90,196790,1,2,0:0:0:0:
307,93,196890,1,2,0:0:0:0:
337,95,196990,1,2,0:0:0:0:
367,98,197090,1,10,0:0:0:0:
486,248,197290,1,2,0:0:0:0:
295,273,197490,1,0,0:0:0:0:
367,98,197690,1,2,0:0:0:0:
395,287,197890,6,0,L|389:347,1,60,4|0,0:0|0:0,0:0:0:0:
302,305,198290,2,0,L|307:244,1,60,0|2,0:0|0:0,0:0:0:0:
325,221,198590,1,0,0:0:0:0:
345,199,198690,2,0,L|339:138,1,60,8|2,0:0|0:0,0:0:0:0:
276,67,199090,2,0,P|248:73|218:68,1,60,0|2,0:0|0:0,0:0:0:0:
188,58,199390,1,0,0:0:0:0:
159,50,199490,38,0,P|131:44|101:49,1,60
134,139,199890,1,0,0:0:0:0:
134,139,200090,2,0,L|128:205,1,60,2|8,0:0|0:0,0:0:0:0:
213,245,200490,2,0,L|224:117,1,120,2|0,0:0|0:0,0:0:0:0:
191,34,201090,6,0,P|219:28|249:33,1,60,0|2,0:0|0:0,0:0:0:0:
337,70,201490,2,0,P|365:76|395:71,1,60,0|2,0:0|0:0,0:0:0:0:
424,62,201790,1,0,0:0:0:0:
453,55,201890,2,0,L|447:119,1,60,8|2,0:0|0:0,0:0:0:0:
417,205,202290,2,0,L|356:199,1,60,0|2,0:0|0:0,0:0:0:0:
334,183,202590,1,0,0:0:0:0:
312,163,202690,38,0,L|251:168,1,60,0|2,0:0|0:0,0:0:0:0:
156,174,203090,1,0,0:0:0:0:
64,203,203290,2,0,P|58:175|63:145,1,60,2|8,0:0|0:0,0:0:0:0:
133,269,203690,2,0,B|191:257|191:257|250:272,1,120,0|2,0:0|0:0,0:0:0:0:
340,302,204290,6,0,P|346:274|341:244,1,60,0|2,0:0|0:0,0:0:0:0:
400,176,204690,2,0,P|394:148|399:118,1,60,0|2,0:0|0:0,0:0:0:0:
412,88,204990,1,0,0:0:0:0:
424,60,205090,2,0,P|396:66|366:61,1,60,8|2,0:0|0:0,0:0:0:0:
272,40,205490,2,0,P|244:34|214:39,1,60,0|2,0:0|0:0,0:0:0:0:
184,52,205790,1,0,0:0:0:0:
156,64,205890,38,0,L|92:69,1,60,0|2,0:0|0:0,0:0:0:0:
20,120,206290,1,0,0:0:0:0:
80,188,206490,2,0,P|85:217|79:246,1,60,2|8,0:0|0:0,0:0:0:0:
196,352,206890,2,0,B|181:293|181:293|193:235,1,120,0|2,0:0|0:0,0:0:0:0:
240,152,207490,6,0,L|363:162,1,120
448,200,208090,1,2,0:0:0:0:
371,258,208290,2,0,L|376:317,1,60,8|2,0:0|0:0,0:0:0:0:
290,360,208690,2,0,L|295:300,1,60
244,218,209090,38,0,P|185:231|126:220,1,120,2|2,0:0|0:0,0:0:0:0:
99,208,209590,1,2,0:0:0:0:
70,199,209690,1,2,0:0:0:0:
40,199,209790,1,2,0:0:0:0:
11,206,209890,1,10,0:0:0:0:
54,291,210090,1,8,0:0:0:0:
214,185,210290,1,0,0:0:0:0:
42,99,210490,1,8,0:0:0:0:
146,260,210690,5,4,0:0:0:0:
