osu file format v14

[General]
AudioFilename: getsomeair.mp3
AudioLeadIn: 0
PreviewTime: 17890
Countdown: 0
SampleSet: Soft
StackLeniency: 0.7
Mode: 0
LetterboxInBreaks: 1
WidescreenStoryboard: 1

[Editor]
Bookmarks: 15490,18690,31490,44290,63490,82690,95490,108290,133890,146690,153090,159490,172290,185090,197890,210690
DistanceSpacing: 1.6
BeatDivisor: 8
GridSize: 4
TimelineZoom: 1.4

[Metadata]
Title:GET SOME AIR (ft. MIWOO)
TitleUnicode:바람이나 좀 쐐 (ft. 미우)
Artist:Kang Gary
ArtistUnicode:강개리
Creator:paydayzcool
Version:Hard
Source:
Tags:kpop hip hop squid kang hee gun square face halyang leessang 1thek
BeatmapID:1351797
BeatmapSetID:637171

[Difficulty]
HPDrainRate:5
CircleSize:4.2
OverallDifficulty:5
ApproachRate:7
SliderMultiplier:2.2
SliderTickRate:2

[Events]
//Background and Video events
Video,0,"getsomeair.avi"
0,0,"Gary.jpg",0,0
//Break Periods
2,159490,170190
//Storyboard Layer 0 (Background)
//Storyboard Layer 1 (Fail)
//Storyboard Layer 2 (Pass)
//Storyboard Layer 3 (Foreground)
//Storyboard Sound Samples

[TimingPoints]
15490,800,4,2,0,50,1,0
18690,-100,4,2,0,50,0,1
44290,-100,4,2,0,50,0,0
82690,-100,4,2,0,50,0,1
108290,-100,4,2,0,50,0,0
172290,-100,4,2,0,50,0,1
185090,-100,4,2,0,50,0,0

[Colours]
Combo1 : 74,134,255
Combo2 : 230,230,230
Combo3 : 128,128,128
Combo4 : 106,234,124
SliderBorder : 120,120,120
SliderTrackOverride : 0,0,0

[HitObjects]
256,192,15490,12,0,17890,0:0:0:0:
68,208,18290,37,2,0:0:0:0:
142,48,18690,6,0,P|117:36|90:32,2,55,4|0|0,0:0|0:0|0:0,0:0:0:0:
202,112,19290,1,2,0:0:0:0:
269,55,19490,2,0,L|323:51,1,55,8|2,0:0|0:0,0:0:0:0:
383,115,19890,2,0,L|437:119,1,55
460,204,20290,38,0,P|476:256|460:312,1,110,2|0,0:0|0:0,0:0:0:0:
388,259,20890,1,0,0:0:0:0:
317,311,21090,1,8,0:0:0:0:
306,223,21290,2,0,L|300:163,2,55,2|2|2,0:0|0:0|0:0,0:0:0:0:
238,279,21890,6,0,L|181:274,1,55,2|0,0:0|0:0,0:0:0:0:
128,342,22290,2,0,L|73:346,1,55,0|2,0:0|0:0,0:0:0:0:
0,296,22690,2,0,L|4:241,1,55,8|2,0:0|0:0,0:0:0:0:
79,194,23090,2,0,L|74:139,1,55
15,72,23490,38,0,P|63:52|132:71,1,110,2|0,0:0|0:0,0:0:0:0:
192,106,24090,1,2,0:0:0:0:
273,71,24290,1,8,0:0:0:0:
264,159,24490,2,0,L|258:219,2,55,2|2|2,0:0|0:0|0:0,0:0:0:0:
344,123,25090,6,0,P|373:126|399:121,1,55,2|0,0:0|0:0,0:0:0:0:
482,95,25490,2,0,P|485:124|480:150,1,55,0|2,0:0|0:0,0:0:0:0:
447,230,25890,2,0,P|444:259|449:285,1,55,8|2,0:0|0:0,0:0:0:0:
479,366,26290,2,0,P|452:370|424:367,1,55
347,324,26690,38,0,P|290:313|234:321,1,110,2|0,0:0|0:0,0:0:0:0:
158,354,27290,1,0,0:0:0:0:
170,266,27490,1,8,0:0:0:0:
88,299,27690,2,0,L|31:294,2,55,2|2|2,0:0|0:0|0:0,0:0:0:0:
170,266,28290,6,0,P|181:209|173:153,1,110,2|2,0:0|0:0,0:0:0:0:
141,76,28890,2,0,P|198:87|254:79,1,110,2|2,0:0|0:0,0:0:0:0:
334,60,29490,2,0,L|339:2,1,55,2|0,0:0|0:0,0:0:0:0:
402,120,29890,38,0,L|391:245,1,110,2|0,0:0|0:0,0:0:0:0:
384,316,30490,1,2,0:0:0:0:
312,266,30690,2,0,L|187:255,1,110,8|0,0:0|0:0,0:0:0:0:
146,324,31290,6,0,P|116:278|125:213,1,110,2|2,0:0|0:0,0:0:0:0:
202,256,31890,1,0,0:0:0:0:
189,168,32090,1,2,0:0:0:0:
107,135,32290,2,0,L|112:80,1,55,8|2,0:0|0:0,0:0:0:0:
179,23,32690,2,0,P|208:26|234:21,1,55
298,79,33090,38,0,P|351:69|406:75,1,110,2|0,0:0|0:0,0:0:0:0:
487,110,33690,1,2,0:0:0:0:
417,163,33890,2,0,L|427:281,1,110,8|0,0:0|0:0,0:0:0:0:
391,353,34490,6,0,P|345:306|342:250,1,110,2|2,0:0|0:0,0:0:0:0:
303,183,35090,1,0,0:0:0:0:
249,252,35290,1,2,0:0:0:0:
216,170,35490,2,0,P|187:167|161:172,1,55,8|2,0:0|0:0,0:0:0:0:
100,235,35890,2,0,P|71:238|45:233,1,55
77,150,36290,38,0,P|54:105|63:48,1,110,2|0,0:0|0:0,0:0:0:0:
140,89,36890,1,2,0:0:0:0:
218,48,37090,1,8,0:0:0:0:
290,98,37290,2,0,L|351:103,2,55,2|2|2,0:0|0:0|0:0,0:0:0:0:
228,161,37890,6,0,L|173:166,2,55,2|0|0,0:0|0:0|0:0,0:0:0:0:
290,223,38490,1,2,0:0:0:0:
361,274,38690,2,0,L|366:338,1,55,8|2,0:0|0:0,0:0:0:0:
446,295,39090,2,0,L|440:232,1,55
370,185,39490,38,0,L|360:72,1,110,2|0,0:0|0:0,0:0:0:0:
274,95,40090,1,2,0:0:0:0:
196,54,40290,1,8,0:0:0:0:
114,86,40490,2,0,P|108:57|111:31,2,55,2|2|0,0:0|0:0|0:0,0:0:0:0:
42,137,41090,22,0,B|52:194|52:194|29:243,1,110,2|2,0:0|0:0,0:0:0:0:
90,305,41690,2,0,B|147:295|147:295|196:318,1,110,2|2,0:0|0:0,0:0:0:0:
282,320,42290,2,0,L|275:395,1,55,2|0,0:0|0:0,0:0:0:0:
362,354,42690,6,0,L|351:238,1,110,2|0,0:0|0:0,0:0:0:0:
332,158,43290,1,2,0:0:0:0:
268,218,43490,2,0,L|196:224,1,55,8|10,0:0|0:0,0:0:0:0:
125,229,43890,1,0,0:0:0:0:
163,150,44090,1,10,0:0:0:0:
75,156,44290,38,0,P|39:214|43:258,1,110,4|0,0:0|0:0,0:0:0:0:
105,314,44890,1,2,0:0:0:0:
189,289,45090,1,10,0:0:0:0:
274,308,45290,2,0,L|333:313,2,55,0|0|2,0:0|0:0|0:0,0:0:0:0:
249,223,45890,6,0,P|253:196|250:168,1,55,0|2,0:0|0:0,0:0:0:0:
123,43,46490,1,2,0:0:0:0:
58,102,46690,2,0,L|52:161,2,55,10|0|0,0:0|0:0|0:0,0:0:0:0:
141,128,47290,1,2,0:0:0:0:
206,69,47490,38,0,P|236:72|263:67,1,55,0|2,0:0|0:0,0:0:0:0:
335,21,47890,1,0,0:0:0:0:
337,108,48090,1,2,0:0:0:0:
401,167,48290,2,0,P|397:194|402:221,1,55,10|0,0:0|0:0,0:0:0:0:
462,285,48690,2,0,P|465:312|460:339,1,55,0|2,0:0|0:0,0:0:0:0:
377,307,49090,5,0,0:0:0:0:
294,336,49290,1,2,0:0:0:0:
104,276,49690,1,2,0:0:0:0:
104,276,49890,2,0,L|111:188,2,82.5,10|0|2,0:0|0:0|0:0,0:0:0:0:
188,252,50690,38,0,L|198:132,1,110
183,55,51290,1,2,0:0:0:0:
265,86,51490,2,0,L|352:78,2,82.5,10|0|2,0:0|0:0|0:0,0:0:0:0:
197,142,52290,5,0,0:0:0:0:
114,171,52490,2,0,L|50:165,2,55,2|0|2,0:0|0:0|0:0,0:0:0:0:
182,225,53090,1,10,0:0:0:0:
265,198,53290,2,0,P|292:194|319:199,1,55
400,234,53690,1,2,0:0:0:0:
330,288,53890,38,0,L|325:343,1,55,0|2,0:0|0:0,0:0:0:0:
242,373,54290,2,0,L|237:317,1,55,0|2,0:0|0:0,0:0:0:0:
157,280,54690,2,0,L|152:334,1,55,10|0,0:0|0:0,0:0:0:0:
71,369,55090,2,0,L|66:314,1,55,0|2,0:0|0:0,0:0:0:0:
77,226,55490,5,0,0:0:0:0:
40,148,55690,1,2,0:0:0:0:
88,76,55890,2,0,P|115:72|142:77,1,55,0|2,0:0|0:0,0:0:0:0:
224,112,56290,1,10,0:0:0:0:
296,164,56490,2,0,L|355:158,2,55,0|0|2,0:0|0:0|0:0,0:0:0:0:
244,236,57090,38,0,L|184:230,1,55,0|2,0:0|0:0,0:0:0:0:
96,80,57690,1,2,0:0:0:0:
176,44,57890,2,0,P|203:40|230:45,1,55,10|0,0:0|0:0,0:0:0:0:
300,100,58290,2,0,P|327:104|354:99,1,55,0|2,0:0|0:0,0:0:0:0:
480,220,58890,5,2,0:0:0:0:
396,192,59090,1,0,0:0:0:0:
332,252,59290,1,2,0:0:0:0:
358,336,59490,2,0,P|331:340|304:335,1,55,10|0,0:0|0:0,0:0:0:0:
220,361,59890,2,0,P|216:334|221:307,1,55,0|2,0:0|0:0,0:0:0:0:
246,222,60290,37,0,0:0:0:0:
160,243,60490,1,2,0:0:0:0:
93,185,60690,2,0,L|98:126,1,55,0|2,0:0|0:0,0:0:0:0:
181,155,61090,2,0,L|187:95,1,55,10|0,0:0|0:0,0:0:0:0:
231,25,61490,2,0,P|258:29|285:24,1,55,0|2,0:0|0:0,0:0:0:0:
367,55,61890,5,0,0:0:0:0:
449,23,62090,1,2,0:0:0:0:
436,109,62290,2,0,L|444:169,1,55,0|2,0:0|0:0,0:0:0:0:
370,212,62690,2,0,L|362:152,1,55,10|0,0:0|0:0,0:0:0:0:
278,125,63090,2,0,L|286:185,1,55,0|2,0:0|0:0,0:0:0:0:
301,267,63490,38,0,P|259:303|203:307,1,110
226,222,64090,1,2,0:0:0:0:
140,243,64290,2,0,P|113:239|86:244,1,55,10|0,0:0|0:0,0:0:0:0:
8,287,64690,1,0,0:0:0:0:
11,199,64890,1,2,0:0:0:0:
54,122,65090,6,0,P|81:126|108:121,1,55,0|2,0:0|0:0,0:0:0:0:
133,36,65490,2,0,P|106:32|79:37,1,55,0|2,0:0|0:0,0:0:0:0:
194,100,65890,2,0,P|221:104|248:99,1,55,10|0,0:0|0:0,0:0:0:0:
332,76,66290,2,0,L|326:133,1,55,0|2,0:0|0:0,0:0:0:0:
404,171,66690,38,0,L|413:61,1,110
485,10,67290,1,2,0:0:0:0:
493,97,67490,2,0,L|484:207,1,110,10|0,0:0|0:0,0:0:0:0:
412,259,68090,1,2,0:0:0:0:
412,259,68490,5,2,0:0:0:0:
334,218,68690,2,0,P|307:214|280:219,1,55,0|2,0:0|0:0,0:0:0:0:
224,287,69090,2,0,P|194:228|206:171,1,110,10|0,0:0|0:0,0:0:0:0:
232,104,69690,1,2,0:0:0:0:
144,116,69890,38,0,L|78:121,1,55,4|2,0:0|0:0,0:0:0:0:
123,37,70290,2,0,L|188:31,1,55,0|2,0:0|0:0,0:0:0:0:
265,21,70690,2,0,P|307:54|321:106,1,110,10|0,0:0|0:0,0:0:0:0:
371,179,71290,1,2,0:0:0:0:
295,224,71490,6,0,L|230:218,1,55,0|2,0:0|0:0,0:0:0:0:
187,289,71890,2,0,L|122:294,1,55,0|2,0:0|0:0,0:0:0:0:
55,250,72290,1,10,0:0:0:0:
131,205,72490,2,0,L|136:140,2,55,0|0|2,0:0|0:0|0:0,0:0:0:0:
54,162,73090,38,0,B|59:97|59:97|105:75,1,110
182,48,73690,1,2,0:0:0:0:
255,97,73890,2,0,L|250:151,1,55,10|0,0:0|0:0,0:0:0:0:
336,131,74290,2,0,L|340:76,1,55,0|2,0:0|0:0,0:0:0:0:
417,34,74690,5,0,0:0:0:0:
491,80,74890,2,0,L|486:134,2,55,2|0|2,0:0|0:0|0:0,0:0:0:0:
413,122,75490,2,0,L|401:248,1,110,10|0,0:0|0:0,0:0:0:0:
440,311,76090,1,2,0:0:0:0:
352,302,76290,38,0,P|323:305|297:300,2,55,0|2|0,0:0|0:0|0:0,0:0:0:0:
328,217,76890,1,2,0:0:0:0:
240,231,77090,2,0,P|211:228|185:233,1,55,10|0,0:0|0:0,0:0:0:0:
130,301,77490,1,0,0:0:0:0:
218,316,77690,1,2,0:0:0:0:
185,232,77890,6,0,B|178:178|178:178|189:121,1,110
223,42,78490,1,2,0:0:0:0:
135,53,78690,2,0,B|108:56|108:56|79:51,2,55,10|0|0,0:0|0:0|0:0,0:0:0:0:
223,42,79290,1,2,0:0:0:0:
276,113,79490,38,0,L|336:107,1,55,0|2,0:0|0:0,0:0:0:0:
396,162,79890,2,0,L|401:222,1,55,0|2,0:0|0:0,0:0:0:0:
346,284,80290,2,0,L|285:289,1,55,10|0,0:0|0:0,0:0:0:0:
224,233,80690,2,0,L|218:172,1,55,0|2,0:0|0:0,0:0:0:0:
160,112,81090,5,0,0:0:0:0:
104,320,81890,1,8,0:0:0:0:
104,320,82090,2,2,L|48:324,2,55,10|2|10,0:0|0:0|0:0,0:0:0:0:
172,264,82690,38,0,P|228:277|280:262,1,110,4|0,0:0|0:0,0:0:0:0:
358,298,83290,1,2,0:0:0:0:
425,241,83490,2,0,L|419:173,1,55,8|2,0:0|0:0,0:0:0:0:
337,156,83890,2,0,L|342:223,1,55
257,184,84290,6,0,L|266:74,1,110,2|0,0:0|0:0,0:0:0:0:
187,33,84890,1,2,0:0:0:0:
171,119,85090,1,8,0:0:0:0:
103,62,85290,2,2,P|70:57|38:64,2,55
73,145,85890,38,0,P|81:205|63:267,1,110,2|0,0:0|0:0,0:0:0:0:
96,336,86490,1,2,0:0:0:0:
165,282,86690,2,0,P|198:287|230:280,1,55,8|2,0:0|0:0,0:0:0:0:
297,242,87090,2,0,P|330:237|362:244,1,55
428,281,87490,6,0,L|438:165,1,110,2|0,0:0|0:0,0:0:0:0:
474,91,88090,1,2,0:0:0:0:
394,54,88290,1,10,0:0:0:0:
358,134,88490,2,2,L|298:128,2,55
318,212,89090,38,0,L|202:201,1,110,2|0,0:0|0:0,0:0:0:0:
129,241,89690,1,2,0:0:0:0:
51,198,89890,2,0,P|46:175|50:142,1,55,8|2,0:0|0:0,0:0:0:0:
127,103,90290,2,0,P|132:126|128:159,1,55
129,241,90690,6,0,P|115:303|145:357,1,110,2|0,0:0|0:0,0:0:0:0:
201,289,91290,1,2,0:0:0:0:
283,320,91490,1,8,0:0:0:0:
268,233,91690,2,2,L|274:162,2,55
351,263,92290,6,0,L|360:151,1,110,2|0,0:0|0:0,0:0:0:0:
296,93,92890,2,0,B|239:84|239:84|192:46,1,110,2|2,0:0|0:0,0:0:0:0:
116,24,93490,2,0,L|60:28,1,55
20,108,93890,6,0,B|29:165|29:165|67:212,1,110,2|0,0:0|0:0,0:0:0:0:
147,186,94490,1,2,0:0:0:0:
218,237,94690,2,0,P|234:286|218:340,1,110,8|0,0:0|0:0,0:0:0:0:
146,289,95290,38,0,P|130:240|146:186,1,110,2|2,0:0|0:0,0:0:0:0:
228,152,95890,1,0,0:0:0:0:
297,206,96090,1,2,0:0:0:0:
310,119,96290,2,0,L|364:114,1,55,8|2,0:0|0:0,0:0:0:0:
442,155,96690,2,0,P|451:124|451:100,1,55
397,31,97090,6,0,B|360:33|360:33|323:20|323:20|275:25,1,110,2|0,0:0|0:0,0:0:0:0:
218,76,97690,1,2,0:0:0:0:
135,46,97890,2,0,B|101:42|101:42|63:54|63:54|27:52,1,110,8|0,0:0|0:0,0:0:0:0:
37,139,98490,38,0,P|50:192|32:257,1,110,2|2,0:0|0:0,0:0:0:0:
73,325,99090,1,0,0:0:0:0:
126,255,99290,1,2,0:0:0:0:
186,318,99490,2,0,P|214:323|245:319,1,55,8|2,0:0|0:0,0:0:0:0:
217,234,99890,2,0,L|222:176,1,55
300,217,100290,38,0,L|310:101,1,110,2|0,0:0|0:0,0:0:0:0:
283,23,100890,1,2,0:0:0:0:
368,42,101090,1,8,0:0:0:0:
395,125,101290,2,2,P|421:131|454:123,2,55
309,107,101890,38,0,P|283:101|250:109,2,55,2|0|0,0:0|0:0|0:0,0:0:0:0:
282,190,102490,1,2,0:0:0:0:
310,273,102690,2,0,P|284:279|251:271,1,55,8|2,0:0|0:0,0:0:0:0:
180,229,103090,2,0,P|154:223|121:231,1,55
83,305,103490,6,0,P|46:266|42:198,1,110,2|0,0:0|0:0,0:0:0:0:
82,135,104090,1,2,0:0:0:0:
43,55,104290,1,8,0:0:0:0:
130,61,104490,2,0,L|189:66,1,55,2|0,0:0|0:0,0:0:0:0:
264,102,104890,1,2,0:0:0:0:
343,64,105090,38,0,B|397:75|397:75|455:62,1,110,2|2,0:0|0:0,0:0:0:0:
510,127,105690,2,0,B|499:181|499:181|512:239,1,110,2|2,0:0|0:0,0:0:0:0:
463,309,106290,2,0,L|403:303,1,55,2|0,0:0|0:0,0:0:0:0:
328,267,106690,6,0,P|264:277|221:266,1,110,2|0,0:0|0:0,0:0:0:0:
137,292,107290,1,2,0:0:0:0:
59,250,107490,2,0,L|64:192,1,55,8|10,0:0|0:0,0:0:0:0:
147,167,107890,2,0,L|141:109,1,55,0|10,0:0|0:0,0:0:0:0:
83,46,108290,38,0,P|146:24|203:51,1,110,4|0,0:0|0:0,0:0:0:0:
256,88,108890,1,0,0:0:0:0:
324,32,109090,2,0,L|386:37,1,55,0|0,0:0|0:0,0:0:0:0:
393,123,109490,2,0,L|330:117,1,55
270,175,109890,6,0,P|265:209|270:240,1,55
243,314,110290,2,0,P|271:316|298:312,2,55,0|0|8,0:0|0:0|0:0,0:0:0:0:
98,214,111090,1,0,0:0:0:0:
140,136,111290,1,2,0:0:0:0:
81,69,111490,38,0,P|142:48|194:64,1,110
228,135,112090,1,2,0:0:0:0:
256,220,112290,2,0,L|250:283,2,55,10|0|0,0:0|0:0|0:0,0:0:0:0:
315,155,112890,1,2,0:0:0:0:
399,130,113090,6,0,L|404:66,2,55,0|2|0,0:0|0:0|0:0,0:0:0:0:
340,295,113890,2,0,P|311:299|285:295,1,55,10|0,0:0|0:0,0:0:0:0:
207,255,114290,2,0,P|178:251|152:255,1,55,0|2,0:0|0:0,0:0:0:0:
77,301,114690,38,0,L|21:296,2,55,0|2|0,0:0|0:0|0:0,0:0:0:0:
75,213,115290,1,2,0:0:0:0:
75,213,115490,2,0,P|83:158|72:104,1,110,10|0,0:0|0:0,0:0:0:0:
30,27,116090,1,2,0:0:0:0:
117,30,116290,6,0,P|148:35|173:32,1,55,0|2,0:0|0:0,0:0:0:0:
249,74,116690,2,0,P|280:69|305:72,1,55,0|2,0:0|0:0,0:0:0:0:
339,152,117090,2,0,P|308:157|283:154,1,55,10|0,0:0|0:0,0:0:0:0:
207,196,117490,2,0,P|176:191|151:194,1,55,0|2,0:0|0:0,0:0:0:0:
178,278,117890,38,0,L|171:347,2,55,2|2|2,0:0|0:0|0:0,0:0:0:0:
264,264,118490,1,2,0:0:0:0:
331,320,118690,2,0,L|400:326,2,55,10|2|2,0:0|0:0|0:0,0:0:0:0:
346,233,119290,1,2,0:0:0:0:
415,178,119490,6,0,P|407:149|411:119,1,55,2|0,0:0|0:0,0:0:0:0:
379,41,119890,2,0,P|350:49|320:45,1,55,0|2,0:0|0:0,0:0:0:0:
246,86,120290,2,0,P|217:78|187:82,1,55,10|0,0:0|0:0,0:0:0:0:
64,200,120890,1,2,0:0:0:0:
64,200,121090,38,0,L|119:195,1,55,0|2,0:0|0:0,0:0:0:0:
158,274,121490,2,0,L|102:278,1,55,0|2,0:0|0:0,0:0:0:0:
148,356,121890,2,0,L|203:351,1,55,10|0,0:0|0:0,0:0:0:0:
246,274,122290,1,0,0:0:0:0:
290,349,122490,1,2,0:0:0:0:
334,273,122690,5,0,0:0:0:0:
290,196,122890,1,2,0:0:0:0:
357,33,123290,1,2,0:0:0:0:
278,73,123490,2,0,L|223:68,1,55,10|0,0:0|0:0,0:0:0:0:
176,143,123890,2,0,L|121:148,1,55,0|2,0:0|0:0,0:0:0:0:
52,200,124290,38,0,P|44:232|48:264,1,55,0|2,0:0|0:0,0:0:0:0:
125,290,124690,2,0,P|133:258|129:226,1,55,0|2,0:0|0:0,0:0:0:0:
122,148,125090,2,0,L|179:153,1,55,10|0,0:0|0:0,0:0:0:0:
202,68,125490,1,0,0:0:0:0:
269,124,125690,1,2,0:0:0:0:
336,182,125890,5,0,0:0:0:0:
352,95,126090,1,2,0:0:0:0:
299,262,126490,2,0,P|325:269|352:268,2,55,2|10|0,0:0|0:0|0:0,0:0:0:0:
336,182,127090,1,0,0:0:0:0:
248,185,127290,1,2,0:0:0:0:
200,258,127490,38,0,P|145:245|96:265,1,110
66,347,128090,1,2,0:0:0:0:
153,337,128290,2,0,P|208:350|257:330,1,110,10|0,0:0|0:0,0:0:0:0:
310,261,128890,1,2,0:0:0:0:
363,330,129090,6,0,L|427:335,2,55,0|2|0,0:0|0:0|0:0,0:0:0:0:
273,177,129890,1,10,0:0:0:0:
302,94,130090,1,0,0:0:0:0:
215,110,130290,2,0,P|187:116|158:113,1,55,0|2,0:0|0:0,0:0:0:0:
83,71,130690,38,0,L|86:14,1,55,0|2,0:0|0:0,0:0:0:0:
3,46,131090,2,0,L|0:102,1,55,0|2,0:0|0:0,0:0:0:0:
65,158,131490,2,0,L|74:271,1,110,10|0,0:0|0:0,0:0:0:0:
141,325,132090,1,2,0:0:0:0:
159,238,132290,6,0,L|153:173,1,55,2|2,0:0|0:0,0:0:0:0:
239,205,132690,2,0,L|244:269,1,55,2|2,0:0|0:0,0:0:0:0:
322,221,133090,2,0,L|317:157,1,55,10|10,0:0|0:0,0:0:0:0:
244,116,133490,1,2,0:0:0:0:
257,29,133690,1,10,0:0:0:0:
175,61,133890,38,0,P|134:53|92:64,2,82.5,4|0|2,0:0|0:0|0:0,0:0:0:0:
136,140,134690,2,0,P|140:167|136:197,1,55,10|0,0:0|0:0,0:0:0:0:
78,260,135090,1,0,0:0:0:0:
163,280,135290,1,2,0:0:0:0:
218,348,135490,6,0,P|270:351|314:325,2,82.5,0|0|2,0:0|0:0|0:0,0:0:0:0:
250,266,136290,2,0,P|253:237|249:209,1,55,10|0,0:0|0:0,0:0:0:0:
333,181,136690,2,0,P|329:209|333:237,1,55,0|2,0:0|0:0,0:0:0:0:
395,297,137090,38,0,L|390:353,1,55,0|2,0:0|0:0,0:0:0:0:
474,324,137490,2,0,L|478:267,1,55,0|2,0:0|0:0,0:0:0:0:
414,208,137890,1,10,0:0:0:0:
399,121,138090,1,0,0:0:0:0:
481,152,138290,1,0,0:0:0:0:
496,65,138490,1,2,0:0:0:0:
413,33,138690,6,0,L|357:37,1,55,0|2,0:0|0:0,0:0:0:0:
302,106,139090,2,0,L|189:96,1,110,0|10,0:0|0:0,0:0:0:0:
126,37,139690,1,0,0:0:0:0:
108,123,139890,2,0,L|112:178,1,55,0|2,0:0|0:0,0:0:0:0:
171,243,140290,38,0,P|199:236|228:241,2,55,0|2|0,0:0|0:0|0:0,0:0:0:0:
102,297,140890,1,2,0:0:0:0:
183,330,141090,2,0,P|211:334|239:326,1,55,10|0,0:0|0:0,0:0:0:0:
315,288,141490,2,0,P|343:283|371:291,1,55,0|2,0:0|0:0,0:0:0:0:
435,348,141890,5,0,0:0:0:0:
453,261,142090,1,2,0:0:0:0:
386,203,142290,1,0,0:0:0:0:
404,116,142490,1,2,0:0:0:0:
320,144,142690,2,0,P|266:158|210:139,1,110,10|0,0:0|0:0,0:0:0:0:
149,83,143290,1,2,0:0:0:0:
129,168,143490,38,0,P|144:192|147:219,2,55,0|2|0,0:0|0:0|0:0,0:0:0:0:
59,221,144090,1,2,0:0:0:0:
105,297,144290,2,0,P|168:305|218:274,1,110,10|0,0:0|0:0,0:0:0:0:
235,200,144890,1,2,0:0:0:0:
292,266,145090,6,0,L|358:271,2,55,0|2|0,0:0|0:0|0:0,0:0:0:0:
235,200,145690,1,2,0:0:0:0:
147,219,145890,2,0,L|158:85,1,110,10|0,0:0|0:0,0:0:0:0:
237,74,146490,1,2,0:0:0:0:
300,135,146690,38,0,B|326:142|345:163|345:163|369:146|396:144,1,110
399,232,147290,1,2,0:0:0:0:
382,318,147490,2,0,B|355:311|335:290|335:290|312:307|285:310,1,110,10|0,0:0|0:0,0:0:0:0:
200,283,148090,1,2,0:0:0:0:
141,348,148290,6,0,P|115:298|126:234,1,110
192,195,148890,1,2,0:0:0:0:
257,136,149090,2,0,P|207:110|143:121,1,110,10|0,0:0|0:0,0:0:0:0:
105,188,149690,1,2,0:0:0:0:
67,108,149890,38,0,L|60:39,2,55,0|2|0,0:0|0:0|0:0,0:0:0:0:
105,188,150490,1,2,0:0:0:0:
155,115,150690,2,0,P|159:87|172:58,1,55,10|0,0:0|0:0,0:0:0:0:
243,109,151090,2,0,P|260:86|286:67,1,55,0|2,0:0|0:0,0:0:0:0:
322,148,151490,22,0,P|369:128|426:122,1,110
476,291,152290,2,0,P|428:310|371:316,1,110,10|0,0:0|0:0,0:0:0:0:
297,267,152890,1,2,0:0:0:0:
222,313,153090,6,0,P|174:293|117:287,1,110
37,327,153690,1,2,0:0:0:0:
42,239,153890,2,0,P|38:209|44:178,2,55,10|0|0,0:0|0:0|0:0,0:0:0:0:
125,212,154490,1,2,0:0:0:0:
174,139,154690,38,0,L|285:148,1,110
358,101,155290,1,2,0:0:0:0:
361,188,155490,2,0,L|351:299,1,110,10|0,0:0|0:0,0:0:0:0:
269,328,156090,1,2,0:0:0:0:
186,297,156290,6,0,P|159:302|132:297,2,55,0|2|0,0:0|0:0|0:0,0:0:0:0:
160,212,156890,1,2,0:0:0:0:
84,165,157090,2,0,L|78:101,1,55,10|0,0:0|0:0,0:0:0:0:
163,123,157490,2,0,L|168:59,1,55,0|2,0:0|0:0,0:0:0:0:
253,48,157890,37,2,0:0:0:0:
332,86,158090,1,2,0:0:0:0:
412,50,158290,1,2,0:0:0:0:
323,166,171090,6,0,P|317:197|320:226,1,55,2|0,0:0|0:0,0:0:0:0:
399,257,171490,2,0,P|411:195|405:137,1,110,2|0,0:0|0:0,0:0:0:0:
347,84,172090,1,2,0:0:0:0:
323,166,172290,38,0,L|267:170,1,55,4|0,0:0|0:0,0:0:0:0:
188,131,172690,1,0,0:0:0:0:
193,218,172890,1,2,0:0:0:0:
237,293,173090,2,0,P|243:321|239:349,1,55,8|2,0:0|0:0,0:0:0:0:
154,324,173490,2,0,P|126:330|98:326,1,55
39,262,173890,6,0,B|51:208|51:208|39:150,1,110,2|0,0:0|0:0,0:0:0:0:
4,73,174490,1,2,0:0:0:0:
92,83,174690,2,0,B|146:95|146:95|204:83,1,110,10|0,0:0|0:0,0:0:0:0:
286,89,175290,38,0,B|340:77|340:77|398:89,1,110,2|2,0:0|0:0,0:0:0:0:
434,166,175890,1,0,0:0:0:0:
447,252,176090,1,2,0:0:0:0:
358,261,176290,2,0,L|352:197,1,55,10|2,0:0|0:0,0:0:0:0:
275,164,176690,2,0,L|269:227,1,55
202,275,177090,38,0,P|148:286|94:265,1,110,2|0,0:0|0:0,0:0:0:0:
154,200,177690,1,2,0:0:0:0:
67,184,177890,1,10,0:0:0:0:
124,117,178090,2,2,P|98:101|71:95,2,55
212,134,178690,38,0,L|216:75,2,55,2|0|0,0:0|0:0|0:0,0:0:0:0:
288,181,179290,1,2,0:0:0:0:
362,134,179490,2,0,P|388:131|421:135,1,55,10|2,0:0|0:0,0:0:0:0:
421,221,179890,2,0,P|395:224|362:220,1,55
294,271,180290,6,0,P|237:259|178:267,1,110,2|0,0:0|0:0,0:0:0:0:
123,326,180890,1,2,0:0:0:0:
99,241,181090,1,10,0:0:0:0:
165,183,181290,2,0,P|170:155|183:130,2,55,2|2|2,0:0|0:0|0:0,0:0:0:0:
253,184,181890,38,0,P|310:196|369:188,1,110,2|2,0:0|0:0,0:0:0:0:
371,102,182490,2,0,P|314:90|255:98,1,110,2|2,0:0|0:0,0:0:0:0:
183,134,183090,2,0,L|127:129,1,55,2|0,0:0|0:0,0:0:0:0:
101,212,183490,6,0,L|212:221,1,110,2|0,0:0|0:0,0:0:0:0:
270,286,184090,1,2,0:0:0:0:
350,249,184290,1,8,0:0:0:0:
342,336,184490,1,10,0:0:0:0:
429,344,184690,1,2,0:0:0:0:
437,257,184890,1,10,0:0:0:0:
401,176,185090,38,0,B|404:140|404:140|418:109|418:109|422:69,1,110,4|0,0:0|0:0,0:0:0:0:
336,86,185690,1,2,0:0:0:0:
262,133,185890,2,0,B|222:129|222:129|191:114|191:114|155:111,1,110,8|0,0:0|0:0,0:0:0:0:
58,258,186690,6,0,B|97:261|97:261|128:276|128:276|164:279,1,110
243,318,187290,1,2,0:0:0:0:
309,261,187490,2,0,L|304:206,1,55,8|0,0:0|0:0,0:0:0:0:
392,215,187890,2,0,L|396:269,1,55
482,290,188290,38,0,L|472:180,1,110
402,127,188890,1,2,0:0:0:0:
320,160,189090,2,0,L|265:155,1,55,8|0,0:0|0:0,0:0:0:0:
205,220,189490,2,0,L|150:224,1,55
90,289,189890,6,0,P|61:237|77:175,1,110
113,113,190490,1,2,0:0:0:0:
191,152,190690,2,0,P|198:125|198:97,2,55,8|0|0,0:0|0:0|0:0,0:0:0:0:
113,113,191290,1,2,0:0:0:0:
142,29,191490,38,0,P|194:13|253:29,1,110
400,111,192290,2,0,P|347:123|295:107,1,110,8|0,0:0|0:0,0:0:0:0:
350,38,192890,1,2,0:0:0:0:
437,30,193090,6,0,P|483:80|487:129,1,110
359,239,193890,2,0,P|291:241|253:273,1,110,8|0,0:0|0:0,0:0:0:0:
117,369,194690,38,0,P|49:367|11:335,1,110
85,287,195290,1,2,0:0:0:0:
126,209,195490,2,0,L|120:150,1,55,8|0,0:0|0:0,0:0:0:0:
36,176,195890,2,0,L|41:117,1,55
111,68,196290,6,0,P|166:52|219:63,1,110
276,126,196890,1,2,0:0:0:0:
354,85,197090,2,0,P|381:91|412:87,1,55,8|0,0:0|0:0,0:0:0:0:
490,56,197490,2,0,P|496:83|492:114,1,55,0|2,0:0|0:0,0:0:0:0:
431,172,197890,38,0,P|421:223|432:280,1,110,4|0,0:0|0:0,0:0:0:0:
486,348,198490,1,2,0:0:0:0:
399,361,198690,2,0,L|342:356,1,55,10|0,0:0|0:0,0:0:0:0:
273,304,199090,2,0,L|216:308,1,55,2|2,0:0|0:0,0:0:0:0:
132,288,199490,6,0,P|142:237|131:180,1,110,2|0,0:0|0:0,0:0:0:0:
69,118,200090,1,2,0:0:0:0:
154,96,200290,2,0,P|205:106|262:95,1,110,8|0,0:0|0:0,0:0:0:0:
394,210,201090,38,0,P|343:200|286:211,1,110,2|2,0:0|0:0,0:0:0:0:
229,278,201690,1,2,0:0:0:0:
154,325,201890,2,0,P|123:329|96:324,1,55,10|0,0:0|0:0,0:0:0:0:
127,240,202290,2,0,P|123:209|128:182,1,55,2|2,0:0|0:0,0:0:0:0:
210,212,202690,6,0,P|201:139|172:109,1,110,2|0,0:0|0:0,0:0:0:0:
90,107,203290,1,2,0:0:0:0:
2,111,203490,2,0,P|9:140|24:166,2,55,8|0|0,0:0|0:0|0:0,0:0:0:0:
44,33,204090,1,2,0:0:0:0:
131,28,204290,38,0,P|184:41|240:33,1,110,2|2,0:0|0:0,0:0:0:0:
320,1,204890,1,0,0:0:0:0:
308,88,205090,2,0,L|298:197,1,110,10|2,0:0|0:0,0:0:0:0:
346,271,205690,1,2,0:0:0:0:
258,276,205890,6,0,L|148:266,1,110,2|0,0:0|0:0,0:0:0:0:
72,221,206490,1,2,0:0:0:0:
148,177,206690,2,0,L|153:111,1,55,8|0,0:0|0:0,0:0:0:0:
240,132,207090,2,0,L|234:197,1,55,0|2,0:0|0:0,0:0:0:0:
256,192,207490,12,4,210690,0:0:0:0:
