osu file format v14

[General]
AudioFilename: NCED2.mp3
AudioLeadIn: 0
PreviewTime: 51083
Countdown: 0
SampleSet: Soft
StackLeniency: 0.7
Mode: 2
LetterboxInBreaks: 0
WidescreenStoryboard: 1

[Editor]
Bookmarks: 26759,35129
DistanceSpacing: 1
BeatDivisor: 4
GridSize: 8
TimelineZoom: 1.8

[Metadata]
Title:Kinou, Kyou, Ashita
TitleUnicode:昨日、今日、明日
Artist:Kanemoto Hisako as Ichinose Haru
ArtistUnicode:金元寿子as一ノ瀬 晴
Creator:Equim
Version:Salad
Source:悪魔のリドル
Tags:Akuma no Riddle ending ed yuri XELOiS Kanari 黒組曲・序 10年黒組 juunen kurogumi tvsize tv size
BeatmapID:803550
BeatmapSetID:366063

[Difficulty]
HPDrainRate:4
CircleSize:3
OverallDifficulty:5.5
ApproachRate:5.5
SliderMultiplier:2.1
SliderTickRate:2

[Events]
//Background and Video events
0,0,"ED.jpg",0,0
Video,0,"AnR.avi"
//Break Periods
//Storyboard Layer 0 (Background)
//Storyboard Layer 1 (Fail)
//Storyboard Layer 2 (Pass)
//Storyboard Layer 3 (Foreground)
//Storyboard Sound Samples

[TimingPoints]
543,540.540540540541,4,2,0,30,1,0
9191,-100,4,2,0,40,0,0
18110,-100,4,2,2,45,0,0
35137,-66.6666666666667,4,2,2,45,0,0
36353,-100,4,2,2,45,0,0
52434,-100,4,2,2,50,0,1
65407,-100,4,2,0,50,0,1
67570,-100,4,2,0,50,0,0
69732,-100,4,2,2,50,0,1
78380,-100,4,2,0,50,0,1
78651,-100,4,2,2,50,0,1
81624,-100,4,2,2,50,0,1
82705,-100,4,2,0,50,0,1
86759,-100,4,2,2,50,0,0
86894,-100,4,2,2,5,0,0

[Colours]
Combo1 : 97,181,81
Combo2 : 255,128,192
Combo3 : 255,60,60
Combo4 : 255,128,64
Combo5 : 0,128,192

[HitObjects]
264,176,543,6,0,L|144:80,2,105,0|0|2,0:0|0:0|0:0,0:0:0:0:
416,168,1353,2,0,L|296:72,2,105,0|0|2,0:0|0:0|0:0,0:0:0:0:
320,176,2164,1,0,0:0:0:0:
440,176,2434,1,0,0:0:0:0:
248,176,2705,6,0,L|368:80,2,105,0|0|2,0:0|0:0|0:0,0:0:0:0:
88,176,3515,2,0,L|208:80,2,105,0|0|2,0:0|0:0|0:0,0:0:0:0:
192,176,4326,1,0,0:0:0:0:
72,176,4596,1,0,0:0:0:0:
256,176,4867,6,0,L|136:80,2,105,0|0|2,0:0|0:0|0:0,0:0:0:0:
144,176,5678,2,0,L|264:80,2,105,0|0|2,0:0|0:0|0:0,0:0:0:0:
256,72,6488,2,0,L|337:139,1,105
168,160,7029,5,0,0:0:0:0:
296,160,7299,1,0,1:0:0:0:
152,160,7570,1,4,0:0:0:0:
312,160,7840,1,0,0:0:0:0:
136,160,8110,1,0,1:0:0:0:
320,208,8380,1,0,0:0:0:0:
360,216,8515,1,2,1:2:0:0:
392,240,8651,1,0,1:0:0:0:
360,256,8786,1,0,0:0:0:0:
320,256,8921,1,0,0:0:0:0:
144,256,9191,5,4,0:0:0:0:
352,80,9461,2,0,B|448:128|448:128|304:56,1,210,0|2,0:0|0:0,0:0:0:0:
152,112,10543,2,0,L|304:112,1,105,0|0,0:0|1:0,0:0:0:0:
48,272,11353,6,0,B|207:252|208:179|128:136,1,210,0|0,0:0|1:0,0:0:0:0:
8,312,12164,1,2,0:0:0:0:
312,120,12705,2,0,L|168:120,1,105,0|0,0:0|1:0,0:0:0:0:
464,272,13515,6,0,B|305:252|304:179|384:136,1,210,0|0,0:0|1:0,0:0:0:0:
504,312,14326,1,2,0:0:0:0:
288,152,14867,1,0,0:0:0:0:
304,192,15137,1,0,1:0:0:0:
160,104,15678,6,0,B|256:232|256:232|304:168,1,210,0|0,0:0|1:1,0:0:0:0:
344,96,16488,1,0,0:0:0:0:
160,104,16759,2,0,L|69:51,2,105,0|0|0,1:0|0:0|1:0,0:0:0:0:
296,96,17570,1,0,0:0:0:0:
472,144,17840,1,4,0:0:0:0:
408,144,18110,5,0,0:0:0:0:
336,144,18380,2,0,L|264:232,2,105
432,216,19191,1,2,0:0:0:0:
208,184,19732,6,0,L|432:184,1,210,0|2,0:0|0:0,0:0:0:0:
240,176,20543,2,0,L|345:176,1,105
112,112,21353,1,0,0:0:0:0:
56,64,21624,1,2,0:0:0:0:
0,184,21894,1,0,0:0:0:0:
192,184,22164,1,0,0:0:0:0:
296,176,22434,6,0,L|384:280,2,105,0|2|0,0:0|0:0|0:0,0:0:0:0:
392,176,23245,1,0,0:0:0:0:
480,208,23515,2,0,P|496:120|368:80,1,210,2|0,0:0|0:0,0:0:0:0:
96,136,24597,1,0,0:0:0:0:
33,136,24867,1,2,0:0:0:0:
184,136,25137,1,0,0:0:0:0:
416,136,25678,5,0,0:0:0:0:
477,136,25948,1,2,0:0:0:0:
328,136,26218,1,0,0:0:0:0:
160,168,26759,6,0,L|280:72,2,105,0|2|2,0:0|0:0|0:0,0:0:0:0:
264,96,27570,1,2,0:0:0:0:
104,160,27840,1,0,0:0:0:0:
320,88,28380,6,0,B|408:160|392:296|248:336,1,315,0|2,0:0|0:0,0:0:0:0:
128,288,29461,2,0,B|-8:200|-32:144|168:88,1,315
312,256,30813,5,0,0:0:0:0:
208,256,31083,1,0,0:0:0:0:
312,200,31353,1,2,0:0:0:0:
408,200,31624,1,0,0:0:0:0:
496,160,31894,1,0,0:0:0:0:
376,136,32164,1,2,0:0:0:0:
160,104,32705,5,0,0:0:0:0:
336,128,33245,2,0,L|224:200,2,105,2|0|0,0:0|0:0|0:0,0:0:0:0:
32,232,34326,1,8,0:0:0:0:
128,232,34597,1,8,0:0:0:0:
224,232,34867,1,8,0:0:0:0:
424,304,35137,2,0,B|560:176|456:64|456:64|176:208,1,472.500018024445,4|0,0:0|0:0,0:0:0:0:
400,200,36488,6,0,L|504:104,2,105,0|8|0,0:0|0:0|0:0,0:0:0:0:
192,184,37299,2,0,B|328:264|424:184|424:80,1,315
282,264,38651,5,8,0:0:0:0:
184,264,38921,1,8,0:0:0:0:
80,264,39191,1,8,0:0:0:0:
248,200,39461,2,0,B|124:166|16:136|272:32,1,315
416,96,40813,6,0,L|492:167,2,105
232,176,41624,2,0,B|368:256|464:176|528:96,1,315,8|0,0:0|0:0,0:0:0:0:
216,200,42975,5,8,0:0:0:0:
336,200,43245,1,8,0:0:0:0:
456,200,43515,1,8,0:0:0:0:
288,264,43786,2,0,B|192:168|192:168|304:328,1,315
432,272,45137,6,0,L|336:200,2,105,0|8|0,0:0|0:0|0:0,0:0:0:0:
264,48,45948,2,0,B|424:64|432:136|352:256|256:200,1,315,0|0,0:0|0:0,0:0:0:0:
80,248,47299,5,2,0:0:0:0:
224,248,47570,1,2,0:0:0:0:
368,248,47840,1,2,0:0:0:0:
160,80,48110,2,2,L|408:216,2,210
296,96,49461,2,0,L|168:128,2,105,0|0|10,0:0|0:0|0:0,0:0:0:0:
136,240,50543,5,0,0:0:0:0:
280,240,50813,1,2,1:2:0:0:
216,240,51083,1,0,0:0:0:0:
344,240,51353,1,2,1:2:0:0:
448,176,51624,1,0,0:0:0:0:
488,176,51759,1,0,1:0:0:0:
448,176,51894,1,2,1:2:0:0:
344,176,52164,1,2,0:0:0:0:
104,64,52434,6,0,B|-56:168|136:328,1,315,4|0,0:0|0:0,0:0:0:0:
344,168,53786,2,0,L|232:280,1,105,0|0,0:0|1:0,0:0:0:0:
384,168,54326,2,0,L|128:168,1,210
0,232,55407,6,0,B|144:72|240:280,1,315.000012016297,0|0,0:0|1:0,0:0:0:0:
352,112,56488,1,0,0:0:0:0:
192,112,56759,1,4,0:0:0:0:
360,192,57299,1,0,1:0:0:0:
248,192,57570,1,0,0:0:0:0:
488,280,58110,6,0,L|304:128,2,210,0|2|2,0:0|0:2|0:2,0:0:0:0:
184,224,59732,5,0,0:0:0:0:
296,224,60002,1,0,0:0:0:0:
408,224,60272,1,0,0:0:0:0:
304,128,60543,1,0,1:0:0:0:
200,128,60813,1,0,0:0:0:0:
416,152,61083,2,0,B|200:168|166:265|424:312,1,315,4|0,0:0|0:0,0:0:0:0:
160,176,62434,6,0,L|0:160,2,105,0|0|0,0:0|1:0|0:0,0:0:0:0:
0,184,63515,1,0,0:0:0:0:
288,128,64056,2,0,B|413:84|432:288|280:328,1,315,0|0,0:0|1:0,0:0:0:0:
208,320,65137,1,0,0:0:0:0:
392,240,65407,6,0,B|288:216|272:104|312:40,2,210,4|0|0,0:0|1:0|0:0,0:0:0:0:
264,176,66759,2,0,L|472:264,1,210,0|0,0:0|1:0,0:0:0:0:
256,192,67570,12,0,69462,0:0:0:0:
112,248,69732,5,0,0:0:0:0:
240,240,70002,1,0,0:0:0:0:
232,136,70272,1,0,1:0:0:0:
104,192,70543,1,8,0:0:0:0:
288,232,70813,5,0,0:0:0:0:
424,224,71083,1,0,0:0:0:0:
416,160,71353,1,0,1:0:0:0:
288,168,71624,1,8,0:0:0:0:
416,304,71894,6,0,L|520:224,2,105,0|0|8,0:0|0:0|1:2,0:0:0:0:
264,304,72705,2,0,L|160:232,2,105
392,312,73515,1,8,1:2:0:0:
512,312,73786,1,0,0:0:0:0:
344,144,74056,5,0,0:0:0:0:
440,152,74326,1,0,0:0:0:0:
320,104,74597,1,0,1:0:0:0:
424,96,74867,1,8,0:0:0:0:
184,200,75137,5,0,0:0:0:0:
296,192,75407,1,0,0:0:0:0:
296,136,75678,1,0,1:0:0:0:
152,128,75948,1,8,0:0:0:0:
336,304,76218,6,0,L|232:224,2,105,0|0|8,0:0|0:0|1:2,0:0:0:0:
176,304,77029,2,0,L|280:224,2,105
328,312,77840,2,0,L|192:312,1,105,8|0,1:2|0:0,0:0:0:0:
392,144,78380,5,4,0:0:0:0:
488,144,78651,1,0,0:0:0:0:
512,80,78921,1,0,1:0:0:0:
424,80,79191,1,8,0:0:0:0:
192,128,79461,5,0,0:0:0:0:
96,128,79732,1,0,0:0:0:0:
64,56,80002,1,0,1:0:0:0:
152,56,80272,1,8,0:0:0:0:
272,256,80543,6,0,L|184:192,2,105,0|0|8,0:0|0:0|1:2,0:0:0:0:
144,248,81353,1,0,0:0:0:0:
8,232,81624,2,0,L|112:160,2,105,0|0|8,0:0|0:0|1:2,0:0:0:0:
144,200,82434,1,0,0:0:0:0:
344,128,82705,5,4,0:0:0:0:
224,128,82975,1,0,0:0:0:0:
384,128,83245,1,0,1:0:0:0:
264,128,83515,1,0,0:0:0:0:
112,128,83786,5,0,0:0:0:0:
232,128,84056,1,0,0:0:0:0:
264,80,84326,1,0,1:0:0:0:
160,72,84597,1,0,0:0:0:0:
400,128,84867,5,0,0:0:0:0:
280,128,85137,1,0,0:0:0:0:
248,80,85407,1,0,1:0:0:0:
352,72,85678,1,0,0:0:0:0:
176,112,85948,5,0,1:0:0:0:
312,152,86218,1,0,1:0:0:0:
144,240,86488,1,0,1:0:0:0:
424,232,86759,2,0,B|144:144|144:144|368:160|368:160|264:56,1,630,8|0,1:2|0:0,0:0:0:0:
