osu file format v14

[General]
AudioFilename: audio.mp3
AudioLeadIn: 0
PreviewTime: 55826
Countdown: 0
SampleSet: Soft
StackLeniency: 0.7
Mode: 3
LetterboxInBreaks: 0
SpecialStyle: 0
WidescreenStoryboard: 0

[Editor]
Bookmarks: 14482,24966,35288,45611
DistanceSpacing: 1.2
BeatDivisor: 4
GridSize: 32
TimelineZoom: 2.3

[Metadata]
Title:GAMERS! (TV Size)
TitleUnicode:GAMERS! (TV Size)
Artist:Kanemoto Hisako & Iwami Manaka & Ookubo Rumi
ArtistUnicode:金元寿子 & 石見舞菜香 & 大久保瑠美
Creator:_Asha
Version:PS4
Source:ゲーマーズ!
Tags:[Ping] dudehacker Na1st Opening Mafumafu まふまふ 天道花憐 星ノ守千秋 亜玖璃 Tendo Karen Aguri Chiaki Hoshinomori Japanese Anime j-pop jpop
BeatmapID:2048183
BeatmapSetID:978702

[Difficulty]
HPDrainRate:8
CircleSize:4
OverallDifficulty:8
ApproachRate:5
SliderMultiplier:1.4
SliderTickRate:1

[Events]
//Background and Video events
Video,0,"video.avi"
0,0,"bg.jpg",0,0
//Break Periods
//Storyboard Layer 0 (Background)
//Storyboard Layer 1 (Fail)
//Storyboard Layer 2 (Pass)
//Storyboard Layer 3 (Foreground)
//Storyboard Layer 4 (Overlay)
//Storyboard Sound Samples
Sample,13891,0,"Crash short.wav",50

[TimingPoints]
504,322.58064516129,4,2,1,70,1,0
55826,-100,4,2,1,70,0,1
65987,-100,4,2,1,70,0,0
66149,-100,4,2,1,70,0,1
76633,-100,4,2,1,70,0,0

[HitObjects]
64,192,504,5,2,0:0:0:0:
192,192,504,1,0,0:0:0:70:2-7^3-9s.wav
64,192,665,1,2,0:0:0:0:
192,192,665,1,0,0:0:0:70:2-7^3-9s.wav
448,192,1149,1,2,0:0:0:0:
320,192,1149,1,0,0:0:0:70:2-5^3&4-5s.wav
448,192,1310,1,2,0:0:0:0:
320,192,1310,1,0,0:0:0:70:2-5^3&4-5s.wav
320,192,1794,1,2,0:0:0:0:
192,192,1794,1,0,0:0:0:70:2-2^3s.wav
320,192,1955,1,2,0:0:0:0:
192,192,1955,1,0,0:0:0:70:2-2^3s.wav
448,192,2439,1,2,0:0:0:0:
192,192,2439,1,0,0:0:0:70:2-7^3-9s.wav
448,192,2600,1,2,0:0:0:0:
192,192,2600,1,0,0:0:0:70:2-7^3-9s.wav
320,192,3084,1,2,0:0:0:0:
64,192,3084,1,0,0:0:0:70:1-5-3-4p.wav
320,192,3245,1,2,0:0:0:0:
64,192,3245,1,0,0:0:0:70:1-5-3-4p.wav
448,192,3729,1,2,0:0:0:0:
64,192,3729,1,0,0:0:0:70:2-5^3&4-5s.wav
448,192,3891,1,2,0:0:0:0:
64,192,3891,1,0,0:0:0:70:2-5^3&4-5s.wav
320,192,4213,1,4,0:0:0:0:
192,192,4213,1,2,0:0:0:0:
448,192,4213,128,0,4536:0:0:0:0:
64,192,4536,1,2,0:0:0:0:
192,192,4536,1,0,0:0:0:0:
448,192,4697,1,8,0:0:0:0:
320,192,4697,1,0,0:0:0:0:
64,192,4697,1,0,0:0:0:0:
192,192,4778,1,8,0:0:0:0:
448,192,4858,1,0,0:0:0:70:tom01.wav
320,192,4939,1,0,0:0:0:70:tom02.wav
192,192,5020,1,0,0:0:0:70:tom03.wav
64,192,5100,1,0,0:0:0:70:tom04.wav
320,192,5181,1,0,0:0:0:70:tom04.wav
448,192,5181,1,0,0:0:0:0:
192,192,5342,1,0,0:0:0:70:tom04.wav
320,192,5342,1,0,0:0:0:0:
192,192,5503,1,4,0:0:0:0:
448,192,5503,1,2,0:0:0:0:
64,192,5503,128,0,5987:0:0:0:0:
320,192,5826,1,0,0:0:0:0:
448,192,5987,1,2,0:0:0:0:
192,192,5987,1,0,0:0:0:0:
320,192,6149,1,0,0:0:0:0:
64,192,6310,1,2,0:0:0:0:
192,192,6310,1,0,0:0:0:0:
448,192,6471,1,0,0:0:0:0:
64,192,6633,1,2,0:0:0:0:
192,192,6633,1,0,0:0:0:0:
320,192,6794,1,0,0:0:0:0:
64,192,6955,1,2,0:0:0:0:
448,192,6955,1,0,0:0:0:0:
192,192,7116,1,0,0:0:0:0:
64,192,7278,1,2,0:0:0:0:
448,192,7278,1,0,0:0:0:0:
320,192,7439,1,0,0:0:0:0:
192,192,7600,1,2,0:0:0:0:
448,192,7600,1,0,0:0:0:0:
64,192,7681,1,0,0:0:0:0:
320,192,7762,1,0,0:0:0:0:
192,192,7842,1,0,0:0:0:0:
448,192,7923,1,2,0:0:0:0:
64,192,7923,1,0,0:0:0:0:
320,192,8003,1,0,0:0:0:0:
192,192,8084,1,0,0:0:0:0:
448,192,8165,1,0,0:0:0:0:
64,192,8245,1,2,0:0:0:0:
320,192,8245,1,0,0:0:0:0:
192,192,8326,1,0,0:0:0:0:
448,192,8407,1,0,0:0:0:0:
64,192,8487,1,0,0:0:0:0:
320,192,8568,1,2,0:0:0:0:
192,192,8568,1,0,0:0:0:0:
448,192,8649,1,0,0:0:0:0:
64,192,8729,1,0,0:0:0:0:
320,192,8810,1,0,0:0:0:0:
192,192,8891,1,2,0:0:0:0:
64,192,8891,1,0,0:0:0:0:
448,192,8971,1,0,0:0:0:0:
320,192,9052,1,0,0:0:0:50:tom02.wav
192,192,9052,1,0,0:0:0:0:
64,192,9213,1,0,0:0:0:50:tom03.wav
320,192,9213,1,0,0:0:0:0:
192,192,9374,1,4,0:0:0:0:
448,192,9374,128,2,9858:0:0:0:0:
64,192,9374,128,0,10181:0:0:0:0:
320,192,9697,128,0,9858:0:0:0:0:
192,192,9858,128,0,10020:0:0:0:0:
448,192,10020,128,0,10181:0:0:0:0:
320,192,10181,128,0,10342:0:0:0:0:
192,192,10342,128,0,10503:0:0:0:0:
448,192,10503,128,0,10665:0:0:0:0:
320,192,10665,128,0,10987:0:0:0:0:
64,192,10987,128,0,11149:0:0:0:0:
192,192,11149,128,0,11310:0:0:0:0:
320,192,11310,128,0,11471:0:0:0:0:
64,192,11471,128,0,11633:0:0:0:0:
192,192,11633,128,0,11794:0:0:0:0:
320,192,11794,128,0,11955:0:0:0:0:
448,192,11955,128,0,12278:0:0:0:0:
320,192,12278,128,0,12439:0:0:0:0:
192,192,12439,128,0,12600:0:0:0:0:
64,192,12600,128,0,12762:0:0:0:0:
448,192,12762,128,0,12923:0:0:0:0:
320,192,12923,128,0,13084:0:0:0:0:
192,192,13084,128,0,13245:0:0:0:0:
64,192,13245,128,2,13407:0:0:0:0:
320,192,13245,128,0,13407:0:0:0:50:Crash short.wav
448,192,13245,128,0,13407:0:0:0:0:
448,192,13568,128,2,13729:0:0:0:0:
64,192,13568,128,0,13729:0:0:0:0:
192,192,13568,128,0,13729:0:0:0:50:Crash short.wav
448,192,13891,128,2,14052:0:0:0:0:
320,192,13891,128,8,14052:0:0:0:0:
64,192,14052,1,8,0:0:0:0:
192,192,14052,1,0,0:0:0:0:
448,192,14133,1,8,0:0:0:0:
320,192,14133,1,0,0:0:0:0:
64,192,14213,1,8,0:0:0:0:
192,192,14213,1,0,0:0:0:0:
320,192,14294,1,0,0:0:0:70:tom02.wav
448,192,14374,1,8,0:0:0:0:
64,192,14374,1,0,0:0:0:0:
192,192,14455,1,0,0:0:0:70:tom04.wav
448,192,14536,128,0,14858:0:0:0:70:soft-hitfinish 2.wav
64,192,14536,128,2,14858:0:0:0:0:
320,192,14536,1,0,0:0:0:0:
320,192,14858,128,0,15020:0:0:0:0:
192,192,15020,1,8,0:0:0:0:
64,192,15020,1,0,0:0:0:0:
448,192,15020,128,0,15181:0:0:0:0:
320,192,15181,1,0,0:0:0:0:
64,192,15342,1,2,0:0:0:0:
448,192,15342,128,0,15503:0:0:0:0:
320,192,15503,1,0,0:0:0:0:
64,192,15665,1,8,0:0:0:0:
448,192,15665,1,0,0:0:0:0:
192,192,15665,128,0,15826:0:0:0:0:
320,192,15826,1,0,0:0:0:0:
64,192,15987,128,2,16149:0:0:0:0:
448,192,15987,1,0,0:0:0:0:
192,192,16149,1,0,0:0:0:0:
448,192,16310,1,8,0:0:0:0:
320,192,16310,1,0,0:0:0:0:
64,192,16310,128,0,16471:0:0:0:0:
192,192,16471,1,0,0:0:0:0:
320,192,16633,128,2,16794:0:0:0:0:
64,192,16633,1,0,0:0:0:0:
448,192,16794,128,0,16955:0:0:0:0:
64,192,16955,1,8,0:0:0:0:
192,192,16955,1,0,0:0:0:0:
320,192,16955,1,0,0:0:0:0:
64,192,17116,128,0,17439:0:0:0:0:
320,192,17278,1,2,0:0:0:0:
448,192,17278,1,0,0:0:0:0:
192,192,17439,128,0,17600:0:0:0:0:
448,192,17600,128,8,17762:0:0:0:0:
320,192,17600,1,0,0:0:0:0:
64,192,17600,1,0,0:0:0:0:
192,192,17762,1,0,0:0:0:0:
448,192,17923,128,2,18084:0:0:0:0:
64,192,17923,1,0,0:0:0:0:
192,192,18084,1,0,0:0:0:0:
448,192,18245,1,8,0:0:0:0:
64,192,18245,1,0,0:0:0:0:
320,192,18245,128,0,18407:0:0:0:0:
192,192,18407,1,0,0:0:0:0:
64,192,18568,128,2,18729:0:0:0:0:
320,192,18568,1,0,0:0:0:0:
448,192,18729,1,0,0:0:0:0:
320,192,18891,1,8,0:0:0:0:
192,192,18891,1,0,0:0:0:0:
64,192,18891,128,0,19052:0:0:0:0:
448,192,19052,1,0,0:0:0:0:
320,192,19133,1,0,0:0:0:50:tom02.wav
192,192,19213,1,2,0:0:0:0:
64,192,19213,1,0,0:0:0:0:
448,192,19294,1,8,0:0:0:0:
320,192,19294,1,0,0:0:0:0:
64,192,19374,1,0,0:0:0:0:
192,192,19374,1,8,0:0:0:0:
448,192,19536,1,8,0:0:0:0:
320,192,19536,1,0,0:0:0:0:
64,192,19697,1,0,0:0:0:70:soft-hitfinish 2.wav
320,192,19697,128,2,20020:0:0:0:0:
192,192,19697,128,0,20020:0:0:0:0:
448,192,20020,1,0,0:0:0:0:
64,192,20020,128,0,20181:0:0:0:0:
320,192,20181,1,8,0:0:0:0:
192,192,20181,1,0,0:0:0:0:
448,192,20181,128,0,20342:0:0:0:0:
64,192,20342,1,0,0:0:0:0:
320,192,20503,1,2,0:0:0:0:
448,192,20503,128,0,20665:0:0:0:0:
64,192,20665,1,0,0:0:0:0:
448,192,20826,1,8,0:0:0:0:
192,192,20826,1,0,0:0:0:0:
320,192,20826,128,0,20987:0:0:0:0:
64,192,20987,1,0,0:0:0:0:
320,192,21149,1,2,0:0:0:0:
192,192,21149,128,0,21310:0:0:0:0:
448,192,21310,1,0,0:0:0:0:
64,192,21471,1,8,0:0:0:0:
320,192,21471,1,0,0:0:0:0:
192,192,21471,128,0,21633:0:0:0:0:
448,192,21633,1,0,0:0:0:0:
192,192,21794,1,2,0:0:0:0:
320,192,21794,128,0,21955:0:0:0:0:
64,192,21955,128,0,22116:0:0:0:0:
320,192,22116,1,8,0:0:0:0:
448,192,22116,1,0,0:0:0:0:
192,192,22116,1,0,0:0:0:0:
192,192,22278,1,8,0:0:0:0:
64,192,22278,1,0,0:0:0:0:
320,192,22358,1,8,0:0:0:0:
448,192,22358,1,0,0:0:0:0:
192,192,22439,1,4,0:0:0:0:
64,192,22439,1,2,0:0:0:0:
448,192,22439,1,0,0:0:0:0:
320,192,22600,1,0,0:0:0:0:
64,192,22762,1,8,0:0:0:0:
192,192,22762,1,0,0:0:0:0:
448,192,22762,1,0,0:0:0:0:
192,192,22923,128,2,23084:0:0:0:0:
320,192,22923,128,0,23084:0:0:0:50:Crash short.wav
448,192,22923,128,0,23084:0:0:0:0:
448,192,23245,128,2,23407:0:0:0:0:
192,192,23245,128,0,23407:0:0:0:0:
320,192,23245,128,0,23407:0:0:0:50:Crash short.wav
448,192,23568,128,2,23729:0:0:0:0:
320,192,23568,128,0,23729:0:0:0:0:
192,192,23568,128,0,23891:0:0:0:50:Crash short.wav
64,192,23568,128,0,23891:0:0:0:0:
320,192,23891,128,0,24052:0:0:0:0:
192,192,24052,128,0,24213:0:0:0:0:
448,192,24213,128,0,24374:0:0:0:0:
64,192,24374,128,0,24697:0:0:0:0:
320,192,24374,128,0,24697:0:0:0:0:
320,192,24858,1,0,0:0:0:60:LR_lid.wav
192,192,24939,1,0,0:0:0:60:LR_lid.wav
448,192,25020,1,2,0:0:0:0:
64,192,25020,128,0,25342:0:0:0:0:
320,192,25342,1,2,0:0:0:0:
192,192,25342,1,0,0:0:0:0:
448,192,25503,128,0,25665:0:0:0:0:
192,192,25665,1,2,0:0:0:0:
64,192,25665,1,0,0:0:0:0:
448,192,25826,128,0,25987:0:0:0:0:
320,192,25987,1,2,0:0:0:0:
64,192,25987,1,0,0:0:0:0:
192,192,26149,1,0,0:0:0:0:
320,192,26310,1,2,0:0:0:0:
448,192,26310,128,0,26633:0:0:0:0:
64,192,26633,1,2,0:0:0:0:
192,192,26633,1,0,0:0:0:0:
448,192,26794,128,0,26955:0:0:0:0:
320,192,26955,1,2,0:0:0:0:
192,192,26955,128,0,27116:0:0:0:0:
64,192,27278,128,2,27600:0:0:0:0:
448,192,27278,1,0,0:0:0:0:
192,192,27439,128,0,27600:0:0:0:0:
320,192,27600,1,2,0:0:0:0:
448,192,27600,128,0,27923:0:0:0:0:
192,192,27923,1,2,0:0:0:0:
320,192,27923,1,0,0:0:0:0:
64,192,28084,128,0,28245:0:0:0:0:
320,192,28245,1,2,0:0:0:0:
448,192,28245,1,0,0:0:0:0:
64,192,28407,128,0,28568:0:0:0:0:
192,192,28568,1,2,0:0:0:0:
448,192,28568,1,0,0:0:0:0:
320,192,28729,1,0,0:0:0:0:
192,192,28891,1,2,0:0:0:0:
64,192,28891,128,0,29213:0:0:0:0:
320,192,29213,1,2,0:0:0:0:
448,192,29213,1,0,0:0:0:0:
64,192,29374,128,0,29536:0:0:0:0:
448,192,29536,1,2,0:0:0:0:
192,192,29536,1,0,0:0:0:0:
320,192,29697,128,0,29858:0:0:0:0:
64,192,29858,1,2,0:0:0:0:
192,192,29858,128,0,30181:0:0:0:0:
448,192,30020,128,0,30181:0:0:0:0:
64,192,30181,1,2,0:0:0:0:
320,192,30181,128,0,30503:0:0:0:0:
64,192,30503,1,2,0:0:0:0:
448,192,30503,1,0,0:0:0:0:
192,192,30665,128,0,30826:0:0:0:0:
320,192,30826,1,2,0:0:0:0:
448,192,30826,1,0,0:0:0:0:
192,192,30987,128,0,31149:0:0:0:0:
64,192,31149,1,2,0:0:0:0:
320,192,31149,1,0,0:0:0:0:
192,192,31310,1,0,0:0:0:0:
448,192,31471,1,2,0:0:0:0:
320,192,31471,128,0,31794:0:0:0:0:
192,192,31794,1,2,0:0:0:0:
64,192,31794,1,0,0:0:0:0:
320,192,31955,128,0,32116:0:0:0:0:
448,192,32116,1,2,0:0:0:0:
64,192,32116,128,0,32278:0:0:0:0:
192,192,32439,1,2,0:0:0:0:
320,192,32439,128,0,32762:0:0:0:0:
448,192,32600,128,0,32762:0:0:0:0:
64,192,32762,1,2,0:0:0:0:
192,192,32762,128,0,33084:0:0:0:0:
320,192,32923,128,0,33084:0:0:0:0:
448,192,33084,1,2,0:0:0:0:
64,192,33084,1,0,0:0:0:0:
448,192,33245,128,0,33407:0:0:0:0:
192,192,33407,1,2,0:0:0:0:
64,192,33407,1,0,0:0:0:0:
64,192,33568,128,0,33729:0:0:0:0:
320,192,33729,1,2,0:0:0:0:
448,192,33729,1,0,0:0:0:0:
320,192,33891,128,0,34052:0:0:0:0:
192,192,34052,1,2,0:0:0:0:
64,192,34052,128,0,34374:0:0:0:0:
448,192,34213,128,0,34374:0:0:0:0:
192,192,34374,1,2,0:0:0:0:
320,192,34374,128,0,34697:0:0:0:0:
64,192,34536,128,0,34697:0:0:0:0:
448,192,34697,128,2,35020:0:0:0:0:
192,192,34697,128,0,35020:0:0:0:0:
320,192,35020,1,2,0:0:0:0:
64,192,35020,1,0,0:0:0:0:
448,192,35181,128,0,35342:0:0:0:0:
64,192,35342,1,4,0:0:0:0:
320,192,35342,1,2,0:0:0:0:
192,192,35342,1,0,0:0:0:0:
448,192,35503,1,0,0:0:0:0:
64,192,35665,1,8,0:0:0:0:
320,192,35665,1,0,0:0:0:0:
192,192,35826,1,0,0:0:0:0:
448,192,35987,1,2,0:0:0:0:
320,192,35987,1,0,0:0:0:0:
192,192,36149,1,0,0:0:0:0:
448,192,36310,1,8,0:0:0:0:
64,192,36310,1,0,0:0:0:0:
320,192,36471,1,0,0:0:0:0:
192,192,36633,1,2,0:0:0:0:
64,192,36633,1,0,0:0:0:0:
448,192,36794,1,0,0:0:0:0:
320,192,36955,1,8,0:0:0:0:
64,192,36955,1,0,0:0:0:0:
192,192,37116,1,0,0:0:0:0:
320,192,37278,1,2,0:0:0:0:
448,192,37278,128,0,37439:0:0:0:0:
64,192,37439,1,0,0:0:0:0:
320,192,37600,1,8,0:0:0:0:
192,192,37600,128,0,37923:0:0:0:0:
448,192,37762,128,0,37923:0:0:0:0:
64,192,37923,1,2,0:0:0:0:
320,192,37923,1,0,0:0:0:0:
192,192,38084,1,0,0:0:0:0:
64,192,38245,1,8,0:0:0:0:
448,192,38245,1,0,0:0:0:0:
320,192,38407,1,0,0:0:0:0:
64,192,38568,1,2,0:0:0:0:
192,192,38568,1,0,0:0:0:0:
320,192,38729,1,0,0:0:0:0:
192,192,38891,1,8,0:0:0:0:
448,192,38891,1,0,0:0:0:0:
64,192,39052,1,0,0:0:0:0:
192,192,39213,1,2,0:0:0:0:
320,192,39213,1,0,0:0:0:0:
448,192,39374,1,0,0:0:0:0:
320,192,39536,1,8,0:0:0:0:
64,192,39536,1,0,0:0:0:0:
192,192,39697,1,0,0:0:0:0:
448,192,39858,1,2,0:0:0:0:
320,192,39858,128,0,40181:0:0:0:0:
64,192,40020,1,0,0:0:0:0:
192,192,40181,128,8,40503:0:0:0:0:
448,192,40181,1,0,0:0:0:0:
320,192,40342,1,0,0:0:0:0:
64,192,40503,1,0,0:0:0:70:soft-hitfinish 2.wav
448,192,40503,1,2,0:0:0:0:
320,192,40503,1,0,0:0:0:0:
192,192,40665,1,0,0:0:0:0:
64,192,40826,1,8,0:0:0:0:
320,192,40826,1,0,0:0:0:0:
448,192,40987,1,0,0:0:0:0:
64,192,41149,1,2,0:0:0:0:
192,192,41149,1,0,0:0:0:0:
448,192,41310,1,0,0:0:0:0:
320,192,41471,1,8,0:0:0:0:
64,192,41471,1,0,0:0:0:0:
192,192,41633,1,0,0:0:0:0:
320,192,41794,1,2,0:0:0:0:
448,192,41794,1,0,0:0:0:0:
64,192,41955,1,0,0:0:0:0:
448,192,42116,1,8,0:0:0:0:
192,192,42116,1,0,0:0:0:0:
320,192,42278,1,0,0:0:0:0:
64,192,42439,1,2,0:0:0:0:
192,192,42439,1,0,0:0:0:0:
448,192,42600,1,0,0:0:0:0:
64,192,42762,1,8,0:0:0:0:
320,192,42762,128,0,42923:0:0:0:0:
192,192,42923,128,0,43084:0:0:0:0:
448,192,43084,1,0,0:0:0:70:soft-hitfinish 2.wav
320,192,43084,1,2,0:0:0:0:
64,192,43084,1,0,0:0:0:0:
192,192,43245,1,8,0:0:0:0:
448,192,43245,1,0,0:0:0:0:
320,192,43407,1,8,0:0:0:0:
192,192,43407,1,0,0:0:0:0:
448,192,43568,1,0,0:0:0:70:tom01.wav
64,192,43568,1,0,0:0:0:0:
192,192,43729,1,0,0:0:0:70:soft-hitfinish 2.wav
64,192,43729,1,2,0:0:0:0:
448,192,43729,1,0,0:0:0:0:
192,192,43891,1,8,0:0:0:0:
320,192,43891,1,0,0:0:0:0:
320,192,44052,1,0,0:0:0:70:tom02.wav
64,192,44052,1,0,0:0:0:0:
448,192,44213,1,8,0:0:0:0:
192,192,44213,1,0,0:0:0:0:
64,192,44374,1,4,0:0:0:0:
320,192,44374,1,2,0:0:0:0:
448,192,44374,1,0,0:0:0:0:
64,192,44536,1,8,0:0:0:0:
192,192,44536,1,0,0:0:0:0:
320,192,44616,1,8,0:0:0:0:
192,192,44697,1,2,0:0:0:0:
448,192,44697,1,0,0:0:0:0:
64,192,44858,1,2,0:0:0:0:
320,192,44858,1,0,0:0:0:0:
448,192,45020,1,8,0:0:0:0:
64,192,45020,1,0,0:0:0:0:
192,192,45020,1,0,0:0:0:0:
320,192,45342,1,0,0:0:0:70:tom04.wav
192,192,45342,1,0,0:0:0:0:
64,192,45665,1,0,0:0:0:70:soft-hitfinish.wav
320,192,45665,1,2,0:0:0:0:
448,192,45665,1,0,0:0:0:0:
320,192,45826,1,2,0:0:0:0:
64,192,45826,1,0,0:0:0:0:
192,192,45987,1,0,0:0:0:0:
320,192,46149,1,8,0:0:0:0:
448,192,46149,1,0,0:0:0:0:
192,192,46310,1,2,0:0:0:0:
64,192,46310,1,0,0:0:0:0:
64,192,46471,1,2,0:0:0:0:
192,192,46471,1,0,0:0:0:0:
448,192,46633,1,0,0:0:0:0:
192,192,46794,1,8,0:0:0:0:
320,192,46794,1,0,0:0:0:0:
64,192,46955,1,2,0:0:0:0:
448,192,46955,1,0,0:0:0:0:
448,192,47116,1,2,0:0:0:0:
64,192,47116,1,0,0:0:0:0:
192,192,47278,1,0,0:0:0:0:
320,192,47439,1,8,0:0:0:0:
64,192,47439,1,0,0:0:0:0:
448,192,47600,1,2,0:0:0:0:
192,192,47600,1,0,0:0:0:0:
448,192,47762,1,2,0:0:0:0:
192,192,47762,1,0,0:0:0:0:
320,192,47923,1,0,0:0:0:0:
192,192,48084,1,8,0:0:0:0:
64,192,48084,1,0,0:0:0:0:
320,192,48245,1,2,0:0:0:0:
448,192,48245,1,0,0:0:0:0:
320,192,48407,1,2,0:0:0:0:
448,192,48407,1,0,0:0:0:0:
192,192,48568,1,0,0:0:0:0:
448,192,48729,1,8,0:0:0:0:
64,192,48729,1,0,0:0:0:0:
192,192,48891,1,2,0:0:0:0:
320,192,48891,1,0,0:0:0:0:
192,192,49052,1,2,0:0:0:0:
320,192,49052,1,0,0:0:0:0:
64,192,49213,1,0,0:0:0:0:
192,192,49374,1,8,0:0:0:0:
448,192,49374,1,0,0:0:0:0:
320,192,49536,5,2,0:0:0:0:
64,192,49536,1,0,0:0:0:0:
64,192,49697,1,2,0:0:0:0:
320,192,49697,1,0,0:0:0:0:
192,192,49858,1,0,0:0:0:0:
320,192,50020,1,8,0:0:0:0:
448,192,50020,1,0,0:0:0:0:
192,192,50181,1,2,0:0:0:0:
64,192,50181,1,0,0:0:0:0:
192,192,50342,1,2,0:0:0:0:
64,192,50342,1,0,0:0:0:0:
320,192,50503,1,8,0:0:0:0:
448,192,50503,1,0,0:0:0:0:
448,192,50665,5,2,0:0:0:0:
64,192,50665,128,4,50987:0:0:0:0:
192,192,50665,128,0,50987:0:0:0:0:
320,192,50987,1,8,0:0:0:0:
448,192,50987,1,0,0:0:0:0:
192,192,51149,1,2,0:0:0:0:
64,192,51149,1,0,0:0:0:0:
320,192,51229,1,0,0:0:0:0:
448,192,51310,1,0,0:0:0:0:
64,192,51391,1,0,0:0:0:0:
320,192,51471,1,2,0:0:0:0:
192,192,51471,1,0,0:0:0:0:
448,192,51552,1,0,0:0:0:0:
64,192,51633,1,0,0:0:0:0:
192,192,51713,1,0,0:0:0:0:
448,192,51794,1,8,0:0:0:0:
320,192,51794,1,0,0:0:0:0:
64,192,51794,1,0,0:0:0:0:
192,192,51955,1,2,0:0:0:0:
320,192,51955,128,4,52278:0:0:0:0:
448,192,51955,128,0,52278:0:0:0:0:
64,192,52278,1,0,0:0:0:0:
192,192,52278,1,0,0:0:0:0:
448,192,52358,1,0,0:0:0:0:
64,192,52439,1,2,0:0:0:0:
320,192,52439,1,0,0:0:0:0:
192,192,52520,1,0,0:0:0:0:
448,192,52600,1,0,0:0:0:0:
64,192,52681,1,0,0:0:0:0:
320,192,52762,1,2,0:0:0:0:
192,192,52762,1,0,0:0:0:0:
448,192,52842,1,0,0:0:0:0:
192,192,52923,1,8,0:0:0:0:
64,192,52923,1,0,0:0:0:0:
448,192,53003,1,0,0:0:0:50:tom02.wav
320,192,53003,1,0,0:0:0:0:
192,192,53084,1,8,0:0:0:0:
64,192,53084,1,0,0:0:0:0:
320,192,53245,1,4,0:0:0:0:
64,192,53245,128,0,53568:0:0:0:0:
448,192,53245,128,2,53568:0:0:0:0:
192,192,53568,1,2,0:0:0:0:
320,192,53568,1,0,0:0:0:0:
64,192,53729,1,8,0:0:0:0:
192,192,53729,1,0,0:0:0:0:
448,192,53729,1,0,0:0:0:0:
320,192,53891,1,2,0:0:0:0:
192,192,53971,1,2,0:0:0:0:
64,192,54052,1,2,0:0:0:0:
448,192,54052,1,0,0:0:0:0:
192,192,54213,1,2,0:0:0:0:
320,192,54213,1,0,0:0:0:0:
448,192,54374,1,2,0:0:0:0:
64,192,54374,1,0,0:0:0:0:
320,192,54536,128,0,54697:0:0:0:70:soft-hitfinish 2.wav
64,192,54536,128,0,54697:0:0:0:0:
192,192,54536,128,0,54697:0:0:0:0:
448,192,54858,128,8,55181:0:0:0:0:
320,192,54858,128,0,55020:0:0:0:0:
64,192,55020,128,0,55181:0:0:0:0:
192,192,55181,128,8,55342:0:0:0:0:
320,192,55181,128,0,55342:0:0:0:0:
448,192,55342,128,8,55665:0:0:0:0:
64,192,55342,128,0,55665:0:0:0:0:
192,192,55826,5,4,0:0:0:0:
320,192,55826,128,2,56149:0:0:0:0:
448,192,55826,128,0,56149:0:0:0:0:
64,192,56149,1,8,0:0:0:0:
192,192,56149,1,0,0:0:0:0:
448,192,56310,1,2,0:0:0:0:
64,192,56310,128,0,56471:0:0:0:0:
192,192,56471,1,8,0:0:0:0:
320,192,56471,1,0,0:0:0:0:
448,192,56471,1,0,0:0:0:0:
320,192,56633,1,2,0:0:0:0:
64,192,56633,1,0,0:0:0:0:
64,192,56794,1,8,0:0:0:0:
192,192,56794,1,0,0:0:0:0:
448,192,56794,1,0,0:0:0:0:
320,192,56955,1,2,0:0:0:0:
192,192,56955,1,0,0:0:0:0:
448,192,57116,1,8,0:0:0:0:
320,192,57116,1,0,0:0:0:0:
64,192,57116,128,0,57439:0:0:0:0:
192,192,57278,1,2,0:0:0:0:
448,192,57439,1,8,0:0:0:0:
320,192,57439,1,0,0:0:0:0:
64,192,57600,1,2,0:0:0:0:
192,192,57600,1,0,0:0:0:0:
448,192,57762,128,8,57923:0:0:0:0:
320,192,57762,1,0,0:0:0:0:
64,192,57762,1,0,0:0:0:0:
192,192,57923,1,2,0:0:0:0:
320,192,57923,1,0,0:0:0:0:
64,192,58084,128,8,58245:0:0:0:0:
192,192,58084,1,0,0:0:0:0:
320,192,58245,128,2,58407:0:0:0:0:
448,192,58245,1,0,0:0:0:0:
448,192,58407,128,8,58568:0:0:0:0:
64,192,58407,1,0,0:0:0:0:
320,192,58568,1,2,0:0:0:0:
192,192,58568,1,0,0:0:0:0:
448,192,58729,128,8,58891:0:0:0:0:
320,192,58729,1,0,0:0:0:0:
192,192,58891,128,2,59052:0:0:0:0:
64,192,58891,1,0,0:0:0:0:
64,192,59052,128,8,59213:0:0:0:0:
448,192,59052,1,0,0:0:0:0:
320,192,59213,1,2,0:0:0:0:
192,192,59213,1,0,0:0:0:0:
448,192,59374,1,8,0:0:0:0:
64,192,59374,128,0,59536:0:0:0:0:
192,192,59536,128,2,59697:0:0:0:0:
320,192,59536,1,0,0:0:0:0:
448,192,59697,128,8,60020:0:0:0:0:
320,192,59697,1,0,0:0:0:0:
192,192,59858,1,2,0:0:0:0:
64,192,59858,1,0,0:0:0:0:
320,192,60020,1,8,0:0:0:0:
64,192,60020,128,0,60342:0:0:0:0:
192,192,60181,128,2,60342:0:0:0:0:
448,192,60342,128,8,60503:0:0:0:0:
320,192,60342,1,0,0:0:0:0:
64,192,60503,1,2,0:0:0:0:
192,192,60503,1,0,0:0:0:0:
64,192,60665,1,8,0:0:0:0:
320,192,60665,1,0,0:0:0:0:
448,192,60665,1,0,0:0:0:0:
192,192,60745,1,0,0:0:0:0:
448,192,60826,1,2,0:0:0:0:
320,192,60907,1,2,0:0:0:0:
64,192,60987,128,4,61310:0:0:0:0:
192,192,60987,128,2,61310:0:0:0:0:
448,192,60987,1,0,0:0:0:0:
448,192,61310,1,8,0:0:0:0:
320,192,61310,1,0,0:0:0:0:
64,192,61471,1,2,0:0:0:0:
448,192,61471,128,0,61633:0:0:0:0:
64,192,61633,1,8,0:0:0:0:
192,192,61633,1,0,0:0:0:0:
320,192,61633,1,0,0:0:0:0:
192,192,61794,1,2,0:0:0:0:
448,192,61794,1,0,0:0:0:0:
448,192,61955,1,8,0:0:0:0:
320,192,61955,1,0,0:0:0:0:
64,192,61955,1,0,0:0:0:0:
192,192,62116,1,2,0:0:0:0:
320,192,62116,1,0,0:0:0:0:
192,192,62278,1,8,0:0:0:0:
64,192,62278,1,0,0:0:0:0:
448,192,62278,128,0,62600:0:0:0:0:
320,192,62439,1,2,0:0:0:0:
192,192,62600,1,8,0:0:0:0:
64,192,62600,1,0,0:0:0:0:
448,192,62762,1,2,0:0:0:0:
320,192,62762,1,0,0:0:0:0:
192,192,62923,1,8,0:0:0:0:
448,192,62923,1,0,0:0:0:0:
64,192,62923,128,0,63084:0:0:0:0:
320,192,63084,1,2,0:0:0:0:
192,192,63084,1,0,0:0:0:0:
448,192,63245,1,8,0:0:0:0:
320,192,63245,1,0,0:0:0:0:
64,192,63245,1,0,0:0:0:0:
192,192,63407,1,2,0:0:0:0:
448,192,63407,1,0,0:0:0:0:
320,192,63568,1,8,0:0:0:0:
64,192,63568,1,0,0:0:0:0:
192,192,63568,128,0,63891:0:0:0:0:
448,192,63729,1,2,0:0:0:0:
320,192,63891,1,8,0:0:0:0:
64,192,63891,1,0,0:0:0:0:
448,192,64052,1,2,0:0:0:0:
192,192,64052,1,0,0:0:0:0:
448,192,64213,1,8,0:0:0:0:
320,192,64213,128,0,64374:0:0:0:0:
64,192,64213,1,0,0:0:0:0:
64,192,64374,1,2,0:0:0:0:
192,192,64374,1,0,0:0:0:0:
320,192,64536,1,8,0:0:0:0:
448,192,64536,128,0,64697:0:0:0:0:
192,192,64536,1,0,0:0:0:0:
320,192,64697,1,2,0:0:0:0:
64,192,64697,1,0,0:0:0:0:
448,192,64858,1,8,0:0:0:0:
192,192,64858,128,4,65181:0:0:0:0:
64,192,64858,128,0,65181:0:0:0:0:
448,192,65181,1,2,0:0:0:0:
320,192,65181,1,0,0:0:0:0:
192,192,65262,1,2,0:0:0:0:
64,192,65262,1,0,0:0:0:0:
320,192,65342,1,8,0:0:0:0:
448,192,65342,1,0,0:0:0:0:
192,192,65423,1,0,0:0:0:0:
64,192,65503,1,0,0:0:0:0:
448,192,65584,1,0,0:0:0:0:
64,192,65665,1,2,0:0:0:0:
192,192,65665,1,0,0:0:0:0:
448,192,65745,1,8,0:0:0:0:
320,192,65745,1,0,0:0:0:0:
192,192,65826,1,8,0:0:0:0:
64,192,65826,1,0,0:0:0:0:
320,192,65907,1,0,0:0:0:0:
64,192,65987,1,8,0:0:0:0:
448,192,65987,1,0,0:0:0:0:
192,192,66068,1,0,0:0:0:0:
64,192,66149,1,2,0:0:0:0:
320,192,66149,128,4,66471:0:0:0:0:
448,192,66149,128,0,66471:0:0:0:0:
64,192,66471,1,8,0:0:0:0:
192,192,66471,1,0,0:0:0:0:
320,192,66633,1,2,0:0:0:0:
192,192,66633,128,0,66794:0:0:0:0:
448,192,66794,1,8,0:0:0:0:
320,192,66794,1,0,0:0:0:0:
64,192,66794,1,0,0:0:0:0:
448,192,66955,1,2,0:0:0:0:
192,192,66955,1,0,0:0:0:0:
64,192,67116,1,8,0:0:0:0:
192,192,67116,1,0,0:0:0:0:
320,192,67116,1,0,0:0:0:0:
448,192,67278,1,2,0:0:0:0:
64,192,67278,1,0,0:0:0:0:
192,192,67439,128,8,67762:0:0:0:0:
320,192,67439,1,0,0:0:0:0:
448,192,67439,1,0,0:0:0:0:
64,192,67600,1,2,0:0:0:0:
448,192,67762,1,8,0:0:0:0:
320,192,67762,1,0,0:0:0:0:
192,192,67923,1,2,0:0:0:0:
64,192,67923,1,0,0:0:0:0:
320,192,68084,128,8,68245:0:0:0:0:
448,192,68084,1,0,0:0:0:0:
64,192,68084,1,0,0:0:0:0:
448,192,68245,1,2,0:0:0:0:
192,192,68245,1,0,0:0:0:0:
64,192,68407,128,8,68568:0:0:0:0:
320,192,68407,1,0,0:0:0:0:
448,192,68568,128,2,68729:0:0:0:0:
192,192,68568,1,0,0:0:0:0:
320,192,68729,128,8,68891:0:0:0:0:
192,192,68729,1,0,0:0:0:0:
64,192,68891,1,2,0:0:0:0:
448,192,68891,1,0,0:0:0:0:
448,192,69052,128,8,69213:0:0:0:0:
192,192,69052,1,0,0:0:0:0:
64,192,69213,128,2,69374:0:0:0:0:
320,192,69213,1,0,0:0:0:0:
192,192,69374,128,8,69536:0:0:0:0:
320,192,69374,1,0,0:0:0:0:
64,192,69536,1,2,0:0:0:0:
448,192,69536,1,0,0:0:0:0:
192,192,69697,128,8,69858:0:0:0:0:
320,192,69697,1,0,0:0:0:0:
448,192,69858,128,2,70020:0:0:0:0:
64,192,69858,1,0,0:0:0:0:
64,192,70020,128,8,70342:0:0:0:0:
320,192,70020,1,0,0:0:0:0:
192,192,70181,1,2,0:0:0:0:
448,192,70342,128,8,70665:0:0:0:0:
320,192,70342,1,0,0:0:0:0:
192,192,70503,128,2,70665:0:0:0:0:
64,192,70665,128,8,70826:0:0:0:0:
320,192,70665,1,0,0:0:0:0:
448,192,70826,1,2,0:0:0:0:
192,192,70826,1,0,0:0:0:0:
64,192,70987,1,8,0:0:0:0:
320,192,70987,1,0,0:0:0:0:
448,192,70987,1,0,0:0:0:0:
192,192,71149,1,8,0:0:0:0:
64,192,71149,1,0,0:0:0:0:
320,192,71229,1,0,0:0:0:0:
64,192,71310,128,2,71633:0:0:0:0:
192,192,71310,128,4,71633:0:0:0:70:soft-hitfinish 2.wav
448,192,71310,1,0,0:0:0:0:
320,192,71633,1,2,0:0:0:0:
448,192,71633,1,0,0:0:0:0:
64,192,71794,1,8,0:0:0:0:
192,192,71794,1,0,0:0:0:0:
448,192,71794,128,0,71955:0:0:0:0:
320,192,71955,1,0,0:0:0:0:
64,192,72116,1,2,0:0:0:0:
448,192,72116,1,0,0:0:0:0:
192,192,72278,1,0,0:0:0:0:
448,192,72439,1,8,0:0:0:0:
64,192,72439,1,0,0:0:0:0:
192,192,72439,1,0,0:0:0:0:
320,192,72600,128,0,72923:0:0:0:0:
64,192,72762,1,2,0:0:0:0:
448,192,72762,1,0,0:0:0:0:
192,192,72923,1,0,0:0:0:0:
64,192,73084,1,8,0:0:0:0:
448,192,73084,1,0,0:0:0:0:
320,192,73084,1,0,0:0:0:0:
192,192,73245,128,0,73407:0:0:0:0:
448,192,73407,1,2,0:0:0:0:
320,192,73407,1,0,0:0:0:0:
64,192,73568,1,0,0:0:0:0:
192,192,73729,1,8,0:0:0:0:
448,192,73729,1,0,0:0:0:0:
320,192,73729,1,0,0:0:0:0:
448,192,73891,128,0,74213:0:0:0:0:
192,192,74052,1,2,0:0:0:0:
64,192,74052,1,0,0:0:0:0:
320,192,74213,1,0,0:0:0:0:
192,192,74374,1,8,0:0:0:0:
448,192,74374,1,0,0:0:0:0:
64,192,74374,1,0,0:0:0:0:
64,192,74536,128,0,74697:0:0:0:0:
448,192,74697,1,2,0:0:0:0:
320,192,74697,1,0,0:0:0:0:
448,192,74858,128,0,75020:0:0:0:0:
192,192,75020,1,8,0:0:0:0:
64,192,75020,1,0,0:0:0:0:
320,192,75020,1,0,0:0:0:0:
448,192,75181,1,2,0:0:0:0:
64,192,75181,128,0,75503:0:0:0:70:soft-hitfinish 2.wav
192,192,75181,128,0,75503:0:0:0:0:
320,192,75503,1,8,0:0:0:0:
448,192,75503,1,0,0:0:0:0:
320,192,75665,1,2,0:0:0:0:
192,192,75665,1,0,0:0:0:0:
192,192,75826,1,2,0:0:0:0:
64,192,75826,1,8,0:0:0:0:
320,192,75907,1,0,0:0:0:0:
64,192,75987,1,2,0:0:0:0:
448,192,75987,1,8,0:0:0:0:
192,192,76149,1,0,0:0:0:70:tom02.wav
320,192,76149,1,0,0:0:0:0:
448,192,76310,1,0,0:0:0:70:tom02.wav
192,192,76310,1,0,0:0:0:0:
64,192,76471,1,0,0:0:0:0:
320,192,76633,1,2,0:0:0:70:soft-hitwhistle.wav
448,192,76633,1,0,0:0:0:0:
448,192,76794,128,2,76955:0:0:0:70:soft-hitwhistle.wav
320,192,76794,128,0,76955:0:0:0:0:
448,192,77278,1,8,0:0:0:40:soft-hitclap.wav
64,192,77278,1,0,0:0:0:0:
320,192,77358,1,8,0:0:0:40:soft-hitclap.wav
448,192,77439,1,8,0:0:0:40:soft-hitclap.wav
192,192,77439,1,0,0:0:0:0:
320,192,77520,1,8,0:0:0:40:soft-hitclap.wav
192,192,77600,1,8,0:0:0:40:soft-hitclap.wav
64,192,77600,1,0,0:0:0:0:
448,192,77681,1,8,0:0:0:40:soft-hitclap.wav
320,192,77762,1,2,0:0:0:0:
64,192,77762,128,0,78084:0:0:0:70:soft-hitfinish 2.wav
192,192,77762,128,0,78084:0:0:0:0:
320,192,78084,128,2,78245:0:0:0:0:
448,192,78084,1,0,0:0:0:0:
448,192,78245,128,8,78407:0:0:0:0:
192,192,78245,1,0,0:0:0:0:
64,192,78245,1,0,0:0:0:0:
320,192,78407,1,0,0:0:0:0:
64,192,78568,1,2,0:0:0:0:
448,192,78568,128,0,78729:0:0:0:0:
320,192,78729,1,0,0:0:0:0:
64,192,78891,1,8,0:0:0:0:
448,192,78891,1,0,0:0:0:0:
192,192,78891,128,0,79052:0:0:0:0:
320,192,79052,1,0,0:0:0:0:
64,192,79213,128,2,79374:0:0:0:0:
448,192,79213,1,0,0:0:0:0:
192,192,79374,1,0,0:0:0:0:
448,192,79536,1,8,0:0:0:0:
320,192,79536,1,0,0:0:0:0:
64,192,79536,128,0,79697:0:0:0:0:
192,192,79697,1,0,0:0:0:0:
320,192,79858,128,2,80020:0:0:0:0:
64,192,79858,1,0,0:0:0:0:
448,192,80020,128,0,80181:0:0:0:0:
64,192,80181,1,8,0:0:0:0:
192,192,80181,1,0,0:0:0:0:
320,192,80181,1,0,0:0:0:0:
64,192,80342,128,0,80665:0:0:0:0:
320,192,80503,1,2,0:0:0:0:
448,192,80503,1,0,0:0:0:0:
192,192,80665,128,0,80826:0:0:0:0:
448,192,80826,128,8,80987:0:0:0:0:
320,192,80826,1,0,0:0:0:0:
64,192,80826,1,0,0:0:0:0:
192,192,80987,1,0,0:0:0:0:
448,192,81149,128,2,81310:0:0:0:0:
64,192,81149,1,0,0:0:0:0:
192,192,81310,1,0,0:0:0:0:
448,192,81471,1,8,0:0:0:0:
64,192,81471,1,0,0:0:0:0:
320,192,81471,128,0,81633:0:0:0:0:
192,192,81633,1,0,0:0:0:0:
64,192,81794,128,2,81955:0:0:0:0:
320,192,81794,1,0,0:0:0:0:
448,192,81955,1,0,0:0:0:0:
320,192,82116,1,8,0:0:0:0:
192,192,82116,1,0,0:0:0:0:
64,192,82116,128,0,82278:0:0:0:0:
448,192,82278,1,0,0:0:0:0:
320,192,82358,1,0,0:0:0:50:tom02.wav
192,192,82439,1,2,0:0:0:0:
64,192,82439,1,0,0:0:0:0:
448,192,82520,1,8,0:0:0:0:
320,192,82520,1,0,0:0:0:0:
192,192,82600,128,8,82762:0:0:0:0:
64,192,82600,1,0,0:0:0:0:
448,192,82762,1,8,0:0:0:0:
320,192,82762,1,0,0:0:0:0:
64,192,82923,1,0,0:0:0:70:soft-hitfinish 2.wav
320,192,82923,128,2,83245:0:0:0:0:
192,192,82923,128,0,83245:0:0:0:0:
448,192,83245,1,2,0:0:0:0:
64,192,83245,128,0,83407:0:0:0:0:
320,192,83407,128,8,83568:0:0:0:0:
448,192,83407,1,0,0:0:0:0:
192,192,83407,1,0,0:0:0:0:
64,192,83568,1,0,0:0:0:0:
320,192,83729,128,2,83891:0:0:0:0:
448,192,83729,1,0,0:0:0:0:
192,192,83891,1,0,0:0:0:0:
64,192,84052,128,8,84213:0:0:0:0:
448,192,84052,1,0,0:0:0:0:
320,192,84052,1,0,0:0:0:0:
192,192,84213,1,0,0:0:0:0:
320,192,84374,1,2,0:0:0:0:
64,192,84374,1,4,0:0:0:0:
448,192,84374,128,0,84536:0:0:0:0:
192,192,84536,1,2,0:0:0:0:
320,192,84697,1,8,0:0:0:0:
448,192,84697,1,0,0:0:0:0:
64,192,84697,1,0,0:0:0:0:
192,192,84778,1,0,0:0:0:50:tom02.wav
448,192,84858,1,2,0:0:0:0:
320,192,84939,1,2,0:0:0:0:
64,192,85020,1,2,0:0:0:0:
192,192,85100,1,0,0:0:0:50:tom02.wav
320,192,85181,1,2,0:0:0:0:
448,192,85181,128,0,85342:0:0:0:0:
192,192,85342,1,8,0:0:0:0:
320,192,85342,1,0,0:0:0:0:
64,192,85342,1,0,0:0:0:0:
192,192,85503,1,0,0:0:0:0:
320,192,85584,1,0,0:0:0:0:
192,192,85665,1,2,0:0:0:0:
64,192,85665,1,4,0:0:0:0:
448,192,85665,1,0,0:0:0:0:
320,192,85826,1,2,0:0:0:0:
64,192,85826,1,0,0:0:0:0:
448,192,85987,1,8,0:0:0:0:
192,192,85987,1,0,0:0:0:0:
320,192,85987,1,0,0:0:0:0:
192,192,86149,128,2,86310:0:0:0:0:
64,192,86149,128,0,86310:0:0:0:50:Crash short.wav
320,192,86471,128,2,86633:0:0:0:0:
448,192,86471,128,0,86633:0:0:0:50:Crash short.wav
64,192,86794,128,2,86955:0:0:0:0:
192,192,86794,128,0,86955:0:0:0:50:Crash short.wav
320,192,87116,1,0,0:0:0:0:
192,192,87170,1,0,0:0:0:0:
64,192,87224,1,0,0:0:0:0:
448,192,87278,1,0,0:0:0:0:
320,192,87278,1,0,0:0:0:0:
192,192,87358,1,0,0:0:0:0:
64,192,87439,1,0,0:0:0:0:
448,192,87439,1,0,0:0:0:0:
320,192,87520,1,0,0:0:0:0:
192,192,87600,1,0,0:0:0:0:
64,192,87600,1,0,0:0:0:0:
320,192,87681,1,0,0:0:0:0:
448,192,87681,1,0,0:0:0:0:
192,192,87762,1,0,0:0:0:70:tom01.wav
64,192,87762,1,0,0:0:0:0:
448,192,87842,1,0,0:0:0:0:
192,192,87923,1,0,0:0:0:70:tom02.wav
320,192,87923,1,0,0:0:0:0:
320,192,88084,128,2,89213:0:0:0:0:
64,192,88084,1,4,0:0:0:0:
448,192,88084,128,0,89213:0:0:0:0:
