osu file format v14

[General]
AudioFilename: audio.mp3
AudioLeadIn: 0
PreviewTime: 55826
Countdown: 0
SampleSet: Soft
StackLeniency: 0.7
Mode: 3
LetterboxInBreaks: 0
SpecialStyle: 0
WidescreenStoryboard: 1

[Editor]
DistanceSpacing: 1.2
BeatDivisor: 4
GridSize: 32
TimelineZoom: 1.9

[Metadata]
Title:GAMERS! (TV Size)
TitleUnicode:GAMERS! (TV Size)
Artist:Kanemoto Hisako & Iwami Manaka & Ookubo Rumi
ArtistUnicode:金元寿子 & 石見舞菜香 & 大久保瑠美
Creator:_Asha
Version:Normal
Source:ゲーマーズ!
Tags:[Ping] dudehacker Na1st Opening Mafumafu まふまふ 天道花憐 星ノ守千秋 亜玖璃 Tendo Karen Aguri Chiaki Hoshinomori Japanese Anime j-pop jpop
BeatmapID:2056469
BeatmapSetID:978702

[Difficulty]
HPDrainRate:7
CircleSize:4
OverallDifficulty:7
ApproachRate:5
SliderMultiplier:1.4
SliderTickRate:1

[Events]
//Background and Video events
Video,0,"video.avi"
0,0,"bg.jpg",0,0
//Break Periods
//Storyboard Layer 0 (Background)
//Storyboard Layer 1 (Fail)
//Storyboard Layer 2 (Pass)
//Storyboard Layer 3 (Foreground)
//Storyboard Layer 4 (Overlay)
//Storyboard Sound Samples
Sample,504,0,"2-7^3-9s.wav",70
Sample,665,0,"2-7^3-9s.wav",70
Sample,1149,0,"2-5^3&4-5s.wav",70
Sample,1310,0,"2-5^3&4-5s.wav",70
Sample,1794,0,"2-2^3s.wav",70
Sample,1955,0,"2-2^3s.wav",70
Sample,2439,0,"2-7^3-9s.wav",70
Sample,2600,0,"2-7^3-9s.wav",70
Sample,3084,0,"1-5-3-4p.wav",70
Sample,3245,0,"1-5-3-4p.wav",70
Sample,3729,0,"2-5^3&4-5s.wav",70
Sample,3891,0,"2-5^3&4-5s.wav",70
Sample,13891,0,"Crash short.wav",50
Sample,14213,0,"tom01.wav",70
Sample,14374,0,"tom03.wav",70

[TimingPoints]
504,322.58064516129,4,2,1,70,1,0
55826,-100,4,2,1,70,0,1
65987,-100,4,2,1,70,0,0
66149,-100,4,2,1,70,0,1
76633,-100,4,2,1,70,0,0

[HitObjects]
192,192,504,5,2,0:0:0:0:
192,192,665,1,2,0:0:0:0:
448,192,1149,1,2,0:0:0:0:
448,192,1310,1,2,0:0:0:0:
64,192,1794,1,2,0:0:0:0:
64,192,1955,1,2,0:0:0:0:
320,192,2439,1,2,0:0:0:0:
320,192,2600,1,2,0:0:0:0:
192,192,3084,1,2,0:0:0:0:
192,192,3245,1,2,0:0:0:0:
448,192,3729,1,2,0:0:0:0:
448,192,3891,1,2,0:0:0:0:
64,192,4213,128,4,4536:0:0:0:0:
192,192,4213,1,2,0:0:0:0:
320,192,4536,1,2,0:0:0:0:
64,192,4697,1,8,0:0:0:0:
192,192,4697,1,0,0:0:0:0:
448,192,4858,1,0,0:0:0:70:tom01.wav
192,192,5181,1,0,0:0:0:70:tom04.wav
320,192,5342,1,0,0:0:0:70:tom04.wav
64,192,5503,1,4,0:0:0:0:
448,192,5503,128,2,5987:0:0:0:0:
192,192,5826,1,0,0:0:0:0:
320,192,5987,1,2,0:0:0:0:
64,192,6310,1,2,0:0:0:0:
192,192,6633,1,2,0:0:0:0:
448,192,6955,1,2,0:0:0:0:
320,192,7278,1,2,0:0:0:0:
64,192,7600,1,2,0:0:0:0:
192,192,7762,1,0,0:0:0:0:
320,192,7923,1,2,0:0:0:0:
64,192,8084,1,0,0:0:0:0:
448,192,8245,1,2,0:0:0:0:
320,192,8407,1,0,0:0:0:0:
192,192,8568,1,2,0:0:0:0:
64,192,8729,1,0,0:0:0:0:
448,192,8891,1,2,0:0:0:0:
320,192,9052,1,0,0:0:0:50:tom02.wav
192,192,9213,1,0,0:0:0:50:tom03.wav
448,192,9374,1,4,0:0:0:0:
64,192,9374,1,2,0:0:0:0:
448,192,9697,1,0,0:0:0:0:
320,192,9858,1,0,0:0:0:0:
192,192,10020,1,0,0:0:0:0:
448,192,10181,1,0,0:0:0:0:
320,192,10342,1,0,0:0:0:0:
192,192,10503,1,0,0:0:0:0:
64,192,10665,1,0,0:0:0:0:
64,192,10987,1,0,0:0:0:0:
192,192,11149,1,0,0:0:0:0:
320,192,11310,1,0,0:0:0:0:
64,192,11471,1,0,0:0:0:0:
192,192,11633,1,0,0:0:0:0:
320,192,11794,1,0,0:0:0:0:
448,192,11955,1,0,0:0:0:0:
448,192,12278,1,0,0:0:0:0:
320,192,12439,1,0,0:0:0:0:
192,192,12600,1,0,0:0:0:0:
448,192,12762,1,0,0:0:0:0:
320,192,12923,1,0,0:0:0:0:
192,192,13084,1,0,0:0:0:0:
64,192,13245,128,2,13407:0:0:0:0:
448,192,13245,128,0,13407:0:0:0:50:Crash short.wav
448,192,13568,128,2,13729:0:0:0:0:
64,192,13568,128,0,13729:0:0:0:50:Crash short.wav
192,192,13891,128,2,14052:0:0:0:0:
320,192,13891,128,8,14052:0:0:0:0:
448,192,14052,1,8,0:0:0:0:
64,192,14133,1,8,0:0:0:0:
320,192,14213,1,8,0:0:0:0:
192,192,14294,1,0,0:0:0:70:tom02.wav
448,192,14374,1,8,0:0:0:0:
64,192,14536,128,0,14858:0:0:0:70:soft-hitfinish 2.wav
192,192,14536,128,2,14858:0:0:0:0:
320,192,14858,1,0,0:0:0:0:
448,192,15020,1,8,0:0:0:0:
64,192,15181,1,0,0:0:0:0:
448,192,15342,1,2,0:0:0:0:
64,192,15503,1,0,0:0:0:0:
320,192,15665,1,8,0:0:0:0:
448,192,15826,1,0,0:0:0:0:
64,192,15987,1,2,0:0:0:0:
320,192,16149,1,0,0:0:0:0:
64,192,16310,1,8,0:0:0:0:
320,192,16471,1,0,0:0:0:0:
192,192,16633,1,2,0:0:0:0:
448,192,16794,1,0,0:0:0:0:
192,192,16955,1,8,0:0:0:0:
320,192,17116,128,0,17439:0:0:0:0:
64,192,17278,1,2,0:0:0:0:
192,192,17439,1,0,0:0:0:0:
448,192,17600,1,8,0:0:0:0:
64,192,17762,1,0,0:0:0:0:
448,192,17923,1,2,0:0:0:0:
64,192,18084,1,0,0:0:0:0:
320,192,18245,1,8,0:0:0:0:
448,192,18407,1,0,0:0:0:0:
64,192,18568,1,2,0:0:0:0:
320,192,18729,1,0,0:0:0:0:
64,192,18891,1,8,0:0:0:0:
320,192,19052,1,0,0:0:0:0:
192,192,19213,1,2,0:0:0:0:
320,192,19294,1,8,0:0:0:0:
448,192,19374,1,8,0:0:0:0:
192,192,19536,1,8,0:0:0:0:
64,192,19536,1,0,0:0:0:0:
64,192,19697,128,0,20020:0:0:0:70:soft-hitfinish 2.wav
448,192,19697,128,2,20020:0:0:0:0:
320,192,20020,1,0,0:0:0:0:
64,192,20181,1,8,0:0:0:0:
448,192,20342,1,0,0:0:0:0:
64,192,20503,1,2,0:0:0:0:
448,192,20665,1,0,0:0:0:0:
192,192,20826,1,8,0:0:0:0:
64,192,20987,1,0,0:0:0:0:
448,192,21149,1,2,0:0:0:0:
192,192,21310,1,0,0:0:0:0:
448,192,21471,1,8,0:0:0:0:
192,192,21633,1,0,0:0:0:0:
320,192,21794,1,2,0:0:0:0:
64,192,21955,1,0,0:0:0:0:
448,192,22116,1,8,0:0:0:0:
64,192,22278,1,8,0:0:0:0:
192,192,22358,1,8,0:0:0:0:
448,192,22439,1,4,0:0:0:0:
320,192,22439,1,2,0:0:0:0:
192,192,22600,1,0,0:0:0:0:
320,192,22762,1,8,0:0:0:0:
64,192,22923,128,2,23084:0:0:0:0:
448,192,22923,128,0,23084:0:0:0:50:Crash short.wav
64,192,23245,128,2,23407:0:0:0:0:
448,192,23245,128,0,23407:0:0:0:50:Crash short.wav
192,192,23568,128,2,23891:0:0:0:0:
320,192,23568,128,0,23891:0:0:0:50:Crash short.wav
448,192,23891,128,0,24052:0:0:0:0:
64,192,24052,128,0,24213:0:0:0:0:
192,192,24213,128,0,24374:0:0:0:0:
320,192,24374,128,0,24697:0:0:0:0:
64,192,24858,1,0,0:0:0:60:LR_lid.wav
192,192,24939,1,0,0:0:0:60:LR_lid.wav
448,192,25020,1,2,0:0:0:0:
320,192,25020,1,0,0:0:0:0:
320,192,25342,1,2,0:0:0:0:
64,192,25503,1,0,0:0:0:0:
448,192,25665,1,2,0:0:0:0:
192,192,25826,1,0,0:0:0:0:
320,192,25987,1,2,0:0:0:0:
64,192,26149,1,0,0:0:0:0:
448,192,26310,1,2,0:0:0:0:
448,192,26633,1,2,0:0:0:0:
192,192,26794,1,0,0:0:0:0:
320,192,26955,128,2,27278:0:0:0:0:
64,192,27278,128,2,27600:0:0:0:0:
192,192,27600,1,2,0:0:0:0:
192,192,27923,1,2,0:0:0:0:
448,192,28084,1,0,0:0:0:0:
64,192,28245,1,2,0:0:0:0:
320,192,28407,1,0,0:0:0:0:
192,192,28568,1,2,0:0:0:0:
448,192,28729,1,0,0:0:0:0:
64,192,28891,1,2,0:0:0:0:
64,192,29213,1,2,0:0:0:0:
320,192,29374,1,0,0:0:0:0:
192,192,29536,1,2,0:0:0:0:
448,192,29697,128,0,29858:0:0:0:0:
320,192,29858,128,2,30020:0:0:0:0:
192,192,30020,128,0,30181:0:0:0:0:
64,192,30181,1,2,0:0:0:0:
64,192,30503,1,2,0:0:0:0:
320,192,30665,1,0,0:0:0:0:
192,192,30826,1,2,0:0:0:0:
448,192,30987,1,0,0:0:0:0:
320,192,31149,1,2,0:0:0:0:
64,192,31310,1,0,0:0:0:0:
192,192,31471,1,2,0:0:0:0:
192,192,31794,1,2,0:0:0:0:
448,192,31955,1,0,0:0:0:0:
64,192,32116,128,2,32439:0:0:0:0:
320,192,32439,128,2,32762:0:0:0:0:
192,192,32762,1,2,0:0:0:0:
192,192,33084,1,2,0:0:0:0:
448,192,33245,1,0,0:0:0:0:
320,192,33407,1,2,0:0:0:0:
64,192,33568,1,0,0:0:0:0:
192,192,33729,1,2,0:0:0:0:
320,192,33891,1,0,0:0:0:0:
448,192,34052,1,2,0:0:0:0:
192,192,34213,5,0,0:0:0:0:
64,192,34374,1,2,0:0:0:0:
320,192,34536,1,0,0:0:0:0:
192,192,34697,128,2,35020:0:0:0:0:
320,192,35020,1,2,0:0:0:0:
448,192,35181,128,0,35342:0:0:0:0:
64,192,35342,5,4,0:0:0:0:
192,192,35342,1,2,0:0:0:0:
64,192,35665,1,8,0:0:0:0:
448,192,35665,1,0,0:0:0:0:
192,192,35987,1,2,0:0:0:0:
448,192,36310,1,8,0:0:0:0:
320,192,36310,1,0,0:0:0:0:
64,192,36633,1,2,0:0:0:0:
448,192,36955,1,8,0:0:0:0:
192,192,36955,1,0,0:0:0:0:
320,192,37278,1,2,0:0:0:0:
64,192,37600,1,8,0:0:0:0:
192,192,37600,1,0,0:0:0:0:
320,192,37923,1,2,0:0:0:0:
448,192,38245,1,8,0:0:0:0:
64,192,38245,1,0,0:0:0:0:
192,192,38568,1,2,0:0:0:0:
448,192,38891,1,8,0:0:0:0:
320,192,38891,1,0,0:0:0:0:
64,192,39213,1,2,0:0:0:0:
448,192,39536,1,8,0:0:0:0:
192,192,39536,1,0,0:0:0:0:
320,192,39858,1,2,0:0:0:0:
64,192,40020,128,0,40181:0:0:0:0:
448,192,40181,1,8,0:0:0:0:
320,192,40181,128,0,40342:0:0:0:0:
192,192,40342,128,0,40503:0:0:0:0:
64,192,40503,1,0,0:0:0:70:soft-hitfinish 2.wav
448,192,40503,1,2,0:0:0:0:
192,192,40826,1,8,0:0:0:0:
64,192,40826,1,0,0:0:0:0:
320,192,41149,1,2,0:0:0:0:
448,192,41471,1,8,0:0:0:0:
64,192,41471,1,0,0:0:0:0:
192,192,41794,1,2,0:0:0:0:
320,192,42116,1,8,0:0:0:0:
448,192,42116,1,0,0:0:0:0:
64,192,42439,1,2,0:0:0:0:
448,192,42762,1,8,0:0:0:0:
192,192,42762,1,0,0:0:0:0:
320,192,42923,1,0,0:0:0:0:
192,192,43084,1,0,0:0:0:70:soft-hitfinish 2.wav
64,192,43084,1,2,0:0:0:0:
448,192,43245,1,8,0:0:0:0:
320,192,43407,1,8,0:0:0:0:
192,192,43568,1,0,0:0:0:70:tom01.wav
64,192,43729,1,0,0:0:0:70:soft-hitfinish 2.wav
448,192,43729,1,2,0:0:0:0:
320,192,43891,1,8,0:0:0:0:
64,192,44052,1,0,0:0:0:70:tom02.wav
448,192,44213,1,8,0:0:0:0:
320,192,44374,1,4,0:0:0:0:
192,192,44374,1,2,0:0:0:0:
64,192,44536,1,8,0:0:0:0:
448,192,44697,1,2,0:0:0:0:
192,192,44858,1,2,0:0:0:0:
320,192,45020,1,8,0:0:0:0:
64,192,45342,1,0,0:0:0:70:tom04.wav
192,192,45342,1,0,0:0:0:0:
64,192,45665,1,0,0:0:0:70:soft-hitfinish.wav
448,192,45665,128,2,46149:0:0:0:0:
192,192,46149,1,8,0:0:0:0:
448,192,46310,128,2,46794:0:0:0:0:
192,192,46794,1,8,0:0:0:0:
448,192,46955,128,2,47278:0:0:0:0:
64,192,47278,128,0,47600:0:0:0:0:
192,192,47600,128,2,47923:0:0:0:0:
320,192,47923,128,0,48245:0:0:0:0:
192,192,48245,128,2,48568:0:0:0:0:
448,192,48568,128,0,48891:0:0:0:0:
320,192,48891,128,2,49213:0:0:0:0:
192,192,49213,128,0,49536:0:0:0:0:
64,192,49536,128,2,50503:0:0:0:0:
192,192,50503,1,8,0:0:0:0:
448,192,50665,128,2,50987:0:0:0:0:
320,192,50665,128,4,50987:0:0:0:0:
64,192,50987,1,8,0:0:0:0:
448,192,51149,1,2,0:0:0:0:
64,192,51310,1,0,0:0:0:0:
448,192,51471,128,2,51794:0:0:0:0:
320,192,51794,1,8,0:0:0:0:
64,192,51955,128,2,52278:0:0:0:0:
192,192,51955,128,4,52278:0:0:0:0:
448,192,52278,1,0,0:0:0:0:
64,192,52439,1,2,0:0:0:0:
448,192,52600,1,0,0:0:0:0:
64,192,52762,128,2,53084:0:0:0:0:
192,192,53084,1,8,0:0:0:0:
320,192,53245,128,4,53568:0:0:0:0:
448,192,53245,128,2,53568:0:0:0:0:
64,192,53568,1,2,0:0:0:0:
448,192,53729,1,8,0:0:0:0:
64,192,53891,1,2,0:0:0:0:
448,192,54052,1,2,0:0:0:0:
64,192,54213,1,2,0:0:0:0:
192,192,54374,1,2,0:0:0:0:
320,192,54536,1,0,0:0:0:70:soft-hitfinish 2.wav
448,192,54536,1,0,0:0:0:0:
64,192,54858,128,8,55020:0:0:0:0:
448,192,54858,1,0,0:0:0:0:
192,192,55020,128,0,55181:0:0:0:0:
320,192,55181,128,8,55342:0:0:0:0:
448,192,55181,1,0,0:0:0:0:
64,192,55342,128,8,55665:0:0:0:0:
192,192,55342,1,0,0:0:0:0:
448,192,55826,128,4,56149:0:0:0:0:
320,192,55826,128,2,56149:0:0:0:0:
192,192,56149,1,8,0:0:0:0:
320,192,56310,1,2,0:0:0:0:
64,192,56471,1,8,0:0:0:0:
448,192,56633,1,2,0:0:0:0:
320,192,56794,1,8,0:0:0:0:
192,192,56955,1,2,0:0:0:0:
64,192,57116,1,8,0:0:0:0:
448,192,57278,1,2,0:0:0:0:
64,192,57439,1,8,0:0:0:0:
320,192,57600,1,2,0:0:0:0:
192,192,57762,1,8,0:0:0:0:
64,192,57923,1,2,0:0:0:0:
320,192,58084,128,8,58245:0:0:0:0:
192,192,58245,128,2,58407:0:0:0:0:
448,192,58407,128,8,58568:0:0:0:0:
64,192,58568,1,2,0:0:0:0:
192,192,58729,128,8,58891:0:0:0:0:
320,192,58891,128,2,59052:0:0:0:0:
64,192,59052,128,8,59213:0:0:0:0:
448,192,59213,1,2,0:0:0:0:
64,192,59374,128,8,59536:0:0:0:0:
192,192,59536,128,2,59697:0:0:0:0:
320,192,59697,128,8,59858:0:0:0:0:
64,192,59858,1,2,0:0:0:0:
320,192,60020,128,8,60181:0:0:0:0:
192,192,60181,128,2,60342:0:0:0:0:
448,192,60342,128,8,60503:0:0:0:0:
64,192,60503,1,2,0:0:0:0:
192,192,60665,128,8,60826:0:0:0:0:
320,192,60826,128,2,60987:0:0:0:0:
64,192,60987,128,4,61310:0:0:0:0:
448,192,60987,128,2,61310:0:0:0:0:
320,192,61310,1,8,0:0:0:0:
192,192,61471,1,2,0:0:0:0:
448,192,61633,1,8,0:0:0:0:
64,192,61794,1,2,0:0:0:0:
192,192,61955,1,8,0:0:0:0:
320,192,62116,1,2,0:0:0:0:
448,192,62278,1,8,0:0:0:0:
64,192,62439,1,2,0:0:0:0:
320,192,62600,1,8,0:0:0:0:
192,192,62762,1,2,0:0:0:0:
448,192,62923,1,8,0:0:0:0:
320,192,63084,1,2,0:0:0:0:
64,192,63245,1,8,0:0:0:0:
192,192,63407,1,2,0:0:0:0:
320,192,63568,1,8,0:0:0:0:
192,192,63729,1,2,0:0:0:0:
448,192,63891,1,8,0:0:0:0:
64,192,64052,1,2,0:0:0:0:
320,192,64213,1,8,0:0:0:0:
192,192,64374,1,2,0:0:0:0:
448,192,64536,1,8,0:0:0:0:
64,192,64697,1,2,0:0:0:0:
320,192,64858,128,8,65181:0:0:0:0:
448,192,64858,128,4,65181:0:0:0:0:
192,192,65181,128,2,65342:0:0:0:0:
320,192,65342,128,8,65503:0:0:0:0:
448,192,65503,128,0,65665:0:0:0:0:
64,192,65665,1,2,0:0:0:0:
192,192,65745,1,8,0:0:0:0:
320,192,65826,1,8,0:0:0:0:
64,192,65987,1,8,0:0:0:0:
192,192,65987,1,0,0:0:0:0:
448,192,66149,128,2,66471:0:0:0:0:
64,192,66149,128,4,66471:0:0:0:0:
320,192,66471,1,8,0:0:0:0:
192,192,66633,1,2,0:0:0:0:
448,192,66794,1,8,0:0:0:0:
64,192,66955,1,2,0:0:0:0:
192,192,67116,1,8,0:0:0:0:
320,192,67278,1,2,0:0:0:0:
448,192,67439,1,8,0:0:0:0:
320,192,67600,1,2,0:0:0:0:
64,192,67762,1,8,0:0:0:0:
448,192,67923,1,2,0:0:0:0:
192,192,68084,1,8,0:0:0:0:
64,192,68245,1,2,0:0:0:0:
448,192,68407,128,8,68568:0:0:0:0:
320,192,68568,128,2,68729:0:0:0:0:
192,192,68729,128,8,68891:0:0:0:0:
448,192,68891,1,2,0:0:0:0:
64,192,69052,128,8,69213:0:0:0:0:
192,192,69213,128,2,69374:0:0:0:0:
320,192,69374,128,8,69536:0:0:0:0:
64,192,69536,1,2,0:0:0:0:
320,192,69697,128,8,69858:0:0:0:0:
192,192,69858,128,2,70020:0:0:0:0:
448,192,70020,128,8,70181:0:0:0:0:
64,192,70181,1,2,0:0:0:0:
448,192,70342,128,8,70503:0:0:0:0:
320,192,70503,128,2,70665:0:0:0:0:
192,192,70665,128,8,70826:0:0:0:0:
320,192,70826,1,2,0:0:0:0:
64,192,70987,128,8,71149:0:0:0:0:
192,192,71149,128,8,71310:0:0:0:0:
320,192,71310,128,2,71633:0:0:0:0:
448,192,71310,128,4,71633:0:0:0:70:soft-hitfinish 2.wav
192,192,71633,1,2,0:0:0:0:
64,192,71794,1,8,0:0:0:0:
448,192,71794,1,0,0:0:0:0:
320,192,72116,1,2,0:0:0:0:
192,192,72439,1,8,0:0:0:0:
64,192,72439,1,0,0:0:0:0:
448,192,72762,1,2,0:0:0:0:
320,192,73084,1,8,0:0:0:0:
64,192,73084,1,0,0:0:0:0:
192,192,73407,1,2,0:0:0:0:
448,192,73729,1,8,0:0:0:0:
320,192,73729,1,0,0:0:0:0:
192,192,74052,1,2,0:0:0:0:
64,192,74374,1,8,0:0:0:0:
448,192,74374,1,0,0:0:0:0:
320,192,74697,1,2,0:0:0:0:
192,192,75020,1,8,0:0:0:0:
64,192,75020,1,0,0:0:0:0:
320,192,75181,128,2,75503:0:0:0:0:
448,192,75181,128,0,75503:0:0:0:70:soft-hitfinish 2.wav
64,192,75503,128,8,75665:0:0:0:0:
192,192,75665,128,2,75826:0:0:0:0:
320,192,75826,128,10,75987:0:0:0:0:
448,192,75987,128,10,76149:0:0:0:0:
64,192,76149,1,0,0:0:0:70:tom02.wav
192,192,76310,1,0,0:0:0:70:tom02.wav
320,192,76471,1,0,0:0:0:0:
64,192,76633,1,2,0:0:0:70:soft-hitwhistle.wav
64,192,76794,1,2,0:0:0:70:soft-hitwhistle.wav
448,192,77278,128,8,77762:0:0:0:40:soft-hitclap.wav
64,192,77762,128,2,78084:0:0:0:0:
192,192,77762,128,0,78084:0:0:0:70:soft-hitfinish 2.wav
320,192,78084,1,2,0:0:0:0:
448,192,78245,1,8,0:0:0:0:
64,192,78407,1,0,0:0:0:0:
448,192,78568,1,2,0:0:0:0:
64,192,78729,1,0,0:0:0:0:
320,192,78891,1,8,0:0:0:0:
448,192,79052,1,0,0:0:0:0:
64,192,79213,1,2,0:0:0:0:
320,192,79374,1,0,0:0:0:0:
64,192,79536,1,8,0:0:0:0:
320,192,79697,1,0,0:0:0:0:
192,192,79858,1,2,0:0:0:0:
448,192,80020,1,0,0:0:0:0:
64,192,80181,1,8,0:0:0:0:
320,192,80342,128,0,80665:0:0:0:0:
64,192,80503,1,2,0:0:0:0:
192,192,80665,1,0,0:0:0:0:
448,192,80826,1,8,0:0:0:0:
64,192,80987,1,0,0:0:0:0:
448,192,81149,1,2,0:0:0:0:
64,192,81310,1,0,0:0:0:0:
320,192,81471,1,8,0:0:0:0:
448,192,81633,1,0,0:0:0:0:
64,192,81794,1,2,0:0:0:0:
320,192,81955,1,0,0:0:0:0:
64,192,82116,1,8,0:0:0:0:
320,192,82278,1,0,0:0:0:0:
192,192,82439,1,2,0:0:0:0:
320,192,82520,1,8,0:0:0:0:
448,192,82600,1,8,0:0:0:0:
192,192,82762,1,8,0:0:0:0:
64,192,82762,1,0,0:0:0:0:
448,192,82923,128,0,83245:0:0:0:70:soft-hitfinish 2.wav
64,192,82923,128,2,83245:0:0:0:0:
320,192,83245,1,2,0:0:0:0:
64,192,83407,1,8,0:0:0:0:
448,192,83568,1,0,0:0:0:0:
64,192,83729,1,2,0:0:0:0:
448,192,83891,1,0,0:0:0:0:
192,192,84052,1,8,0:0:0:0:
64,192,84213,1,0,0:0:0:0:
448,192,84374,1,2,0:0:0:0:
320,192,84374,1,4,0:0:0:0:
192,192,84536,1,2,0:0:0:0:
448,192,84697,1,8,0:0:0:0:
192,192,84858,1,2,0:0:0:0:
320,192,85020,1,2,0:0:0:0:
192,192,85100,1,0,0:0:0:50:tom02.wav
64,192,85181,1,2,0:0:0:0:
320,192,85342,1,8,0:0:0:0:
448,192,85342,1,0,0:0:0:0:
192,192,85503,128,0,85665:0:0:0:0:
64,192,85665,1,2,0:0:0:0:
448,192,85665,1,4,0:0:0:0:
320,192,85826,1,2,0:0:0:0:
192,192,85987,1,8,0:0:0:0:
64,192,86149,128,2,86310:0:0:0:0:
448,192,86149,128,0,86310:0:0:0:50:Crash short.wav
192,192,86471,128,2,86633:0:0:0:0:
320,192,86471,128,0,86633:0:0:0:50:Crash short.wav
64,192,86794,128,2,86955:0:0:0:0:
448,192,86794,128,0,86955:0:0:0:50:Crash short.wav
192,192,87116,1,0,0:0:0:0:
320,192,87278,1,0,0:0:0:0:
448,192,87439,1,0,0:0:0:0:
64,192,87600,1,0,0:0:0:0:
320,192,87762,128,0,87923:0:0:0:70:tom01.wav
192,192,87923,1,0,0:0:0:70:tom02.wav
64,192,88084,128,2,89213:0:0:0:0:
448,192,88084,1,4,0:0:0:0:
