osu file format v14

[General]
AudioFilename: audio.mp3
AudioLeadIn: 0
PreviewTime: 55691
Countdown: 0
SampleSet: Normal
StackLeniency: 0.6
Mode: 0
LetterboxInBreaks: 0
WidescreenStoryboard: 1

[Editor]
DistanceSpacing: 0.6
BeatDivisor: 4
GridSize: 8
TimelineZoom: 1.9

[Metadata]
Title:GAMERS! (TV Size)
TitleUnicode:GAMERS! (TV Size)
Artist:Kanemoto Hisako & Iwami Manaka & Ookubo Rumi
ArtistUnicode:金元寿子 & 石見舞菜香 & 大久保瑠美
Creator:Spring Roll
Version:Hard
Source:ゲーマーズ!
Tags:gemazu tv size opening mafumafu まふまふ 天道花憐 星ノ守千秋 亜玖璃 tendou karen aguri chiaki hoshinomori soap s_o_a_p japanese jpop j-pop pop anime
BeatmapID:1413191
BeatmapSetID:650639

[Difficulty]
HPDrainRate:5
CircleSize:4
OverallDifficulty:6
ApproachRate:8
SliderMultiplier:1.4
SliderTickRate:1

[Events]
//Background and Video events
0,0,"coCOOj3.jpeg",0,0
//Break Periods
//Storyboard Layer 0 (Background)
//Storyboard Layer 1 (Fail)
//Storyboard Layer 2 (Pass)
//Storyboard Layer 3 (Foreground)
//Storyboard Layer 4 (Overlay)
//Storyboard Sound Samples

[TimingPoints]
485,322.58064516129,4,1,1,64,1,0
5484,-100,4,1,2,64,0,0
8226,-100,4,1,1,71,0,0
9355,-100,4,2,1,64,0,0
13226,-100,4,2,2,64,0,0
14033,-100,4,1,2,64,0,0
14517,-100,4,1,2,71,0,0
14597,-100,4,1,2,62,0,0
25001,-100,4,1,1,45,0,0
35323,-100,4,1,1,60,0,0
45646,-100,4,2,1,76,0,0
45968,-100,4,2,2,61,0,0
46291,-100,4,2,1,76,0,0
46614,-100,4,2,2,61,0,0
46936,-100,4,2,1,76,0,0
47259,-100,4,2,2,61,0,0
47581,-100,4,2,1,76,0,0
47904,-100,4,2,2,61,0,0
48226,-100,4,2,1,76,0,0
48549,-100,4,2,2,61,0,0
48872,-100,4,2,1,76,0,0
49194,-100,4,2,2,61,0,0
49517,-100,4,2,1,76,0,0
50484,-100,4,2,2,61,0,0
50646,-100,4,1,1,67,0,0
55807,-100,4,1,3,74,0,1
77743,-100,4,1,2,67,0,0
86372,-100,4,2,2,15,0,0
86452,-100,4,1,2,67,0,0
86694,-100,4,2,2,15,0,0
86775,-100,4,1,2,67,0,0
87097,-100,4,1,1,64,0,0
88549,-100,4,1,1,36,0,0
88872,-100,4,2,1,15,0,0

[Colours]
Combo1 : 0,255,255
Combo2 : 227,233,22
Combo3 : 255,128,128

[HitObjects]
128,128,485,5,2,0:0:0:0:
157,213,646,1,2,0:0:0:0:
414,121,1130,5,2,0:0:0:0:
386,207,1291,1,2,0:0:0:0:
203,61,1775,5,2,0:0:0:0:
222,149,1936,1,2,0:0:0:0:
290,348,2420,5,2,0:0:0:0:
315,260,2581,1,2,0:0:0:0:
53,273,3065,5,2,0:0:0:0:
143,266,3226,1,2,0:0:0:0:
467,176,3710,5,2,0:0:0:0:
376,186,3872,1,2,0:0:0:0:
249,84,4194,6,0,L|242:244,1,140,4|0,0:0|0:0,0:0:0:0:
164,270,4678,1,2,0:0:0:0:
80,218,4839,2,0,P|65:177|99:88,1,140,2|2,0:0|0:0,0:0:0:0:
173,31,5323,1,2,0:0:0:0:
249,84,5484,6,0,L|412:93,1,140,4|2,0:0|0:0,0:0:0:0:
327,189,5968,2,0,L|235:181,1,70,0|2,0:0|0:0,0:0:0:0:
412,185,6291,2,0,L|408:265,1,70,0|2,0:0|0:0,0:0:0:0:
325,342,6614,2,0,L|328:272,1,70,0|2,0:0|0:0,0:0:0:0:
331,138,6936,5,0,0:0:0:0:
331,138,7097,1,2,0:0:0:0:
237,186,7259,2,0,L|232:267,1,70,0|2,0:0|0:0,0:0:0:0:
156,279,7581,1,0,0:0:0:0:
93,345,7743,2,0,P|140:368|185:366,2,70,2|0|2,0:0|0:0|0:0,0:0:0:0:
74,246,8226,6,0,L|28:244,3,35,2|2|2|2,0:0|0:0|0:0|0:0,0:0:0:0:
87,165,8549,2,0,L|135:161,3,35,2|2|2|2,0:0|0:0|0:0|0:0,0:0:0:0:
37,101,8872,2,0,P|34:50|35:26,1,70,2|8,0:0|0:0,0:0:0:0:
123,62,9194,1,8,0:0:0:0:
214,20,9355,6,0,P|216:95|211:178,1,140,4|0,0:0|0:0,0:0:0:0:
208,279,9839,2,0,L|139:285,1,70,2|0,0:0|0:0,0:0:0:0:
297,234,10162,2,0,L|367:229,1,70,2|0,0:0|0:0,0:0:0:0:
170,189,10484,2,0,L|101:195,1,70,2|2,0:0|0:0,0:0:0:0:
348,115,10968,5,0,0:0:0:0:
348,115,11130,2,0,L|278:120,1,70,2|0,0:0|0:0,0:0:0:0:
430,160,11453,2,0,L|500:155,1,70,2|0,0:0|0:0,0:0:0:0:
314,217,11776,2,0,L|245:223,1,70,2|2,0:0|0:0,0:0:0:0:
155,364,12259,5,0,0:0:0:0:
155,364,12421,2,0,L|224:358,1,70,2|0,0:0|0:0,0:0:0:0:
320,360,12743,2,0,P|341:308|340:266,2,70,2|0|0,0:0|0:0|0:0,0:0:0:0:
240,288,13226,6,0,L|236:163,1,105,4|0,0:0|0:0,0:0:0:0:
206,156,13549,2,0,P|271:172|327:149,1,105,4|0,0:0|0:0,0:0:0:0:
333,139,13872,1,4,0:0:0:0:
432,224,14033,1,0,0:0:0:0:
432,224,14114,1,0,0:0:0:0:
432,224,14194,2,0,L|448:184,3,35
437,260,14517,6,0,P|374:244|273:257,1,140,4|2,0:0|0:0,0:0:0:0:
204,316,15001,2,0,L|195:230,1,70,8|2,0:0|0:0,0:0:0:0:
99,255,15323,2,0,L|107:161,1,70,0|2,0:0|0:0,0:0:0:0:
179,75,15646,2,0,L|185:158,1,70,8|2,0:0|0:0,0:0:0:0:
274,104,15968,6,0,L|281:28,1,70,0|2,0:0|0:0,0:0:0:0:
359,144,16291,1,8,0:0:0:0:
312,230,16452,2,0,P|253:233|215:224,2,70,2|0|10,0:0|0:0|0:0,0:0:0:0:
359,144,16936,1,8,0:0:0:0:
435,200,17097,6,0,P|455:262|399:332,1,140,4|2,0:0|0:0,0:0:0:0:
315,320,17581,2,0,L|235:307,1,70,8|2,0:0|0:0,0:0:0:0:
149,301,17904,2,0,L|67:309,1,70,0|2,0:0|0:0,0:0:0:0:
185,222,18226,2,0,L|254:215,1,70,8|2,0:0|0:0,0:0:0:0:
351,205,18549,5,0,0:0:0:0:
445,253,18710,2,0,P|458:205|452:166,1,70,2|8,0:0|0:0,0:0:0:0:
371,111,19033,1,2,0:0:0:0:
456,64,19194,2,0,L|464:24,2,35,0|0|10,0:0|0:0|0:0,0:0:0:0:
371,111,19517,1,8,0:0:0:0:
277,62,19678,6,0,P|235:51|132:67,1,140,4|2,0:0|0:0,0:0:0:0:
92,139,20162,2,0,L|94:220,1,70,8|2,0:0|0:0,0:0:0:0:
176,283,20484,2,0,L|184:189,1,70,0|2,0:0|0:0,0:0:0:0:
266,154,20807,2,0,L|268:235,1,70,8|2,0:0|0:0,0:0:0:0:
256,310,21130,6,0,L|329:307,1,70,0|2,0:0|0:0,0:0:0:0:
407,354,21452,2,0,P|418:305|412:269,1,70,8|2,0:0|0:0,0:0:0:0:
374,202,21775,1,0,0:0:0:0:
395,112,21936,2,0,L|485:107,1,70,10|8,0:0|0:0,0:0:0:0:
306,96,22259,5,2,0:0:0:0:
306,96,22339,1,0,0:0:0:0:
306,96,22420,2,0,L|203:101,1,70,4|0,0:0|0:0,0:0:0:0:
150,70,22743,1,0,0:0:0:0:
78,120,22904,2,0,P|65:168|128:250,1,140,4|4,0:2|0:2,0:0:0:0:
199,239,23388,1,0,0:0:0:0:
224,321,23549,6,0,L|380:309,1,140,4|0,0:0|0:0,0:0:0:0:
338,221,24033,2,0,L|348:152,1,70
415,95,24355,1,0,0:0:0:0:
471,312,25001,6,0,P|496:257|476:168,1,140,0|2,0:0|0:0,0:0:0:0:
401,103,25484,2,0,P|376:158|396:247,1,140
342,317,25968,2,0,L|246:311,1,70,2|0,0:0|0:0,0:0:0:0:
140,335,26291,6,0,L|155:194,1,140,0|2,0:0|0:0,0:0:0:0:
56,238,26775,2,0,L|43:69,1,140
127,29,27259,1,2,0:0:0:0:
127,29,27581,6,0,P|182:50|272:31,1,140,0|2,0:0|0:0,0:0:0:0:
294,123,28065,2,0,P|369:104|441:126,1,140
327,210,28549,2,0,P|336:243|330:298,1,70,2|0,0:0|0:0,0:0:0:0:
215,201,28872,6,0,P|194:163|204:64,1,140,0|2,0:0|0:0,0:0:0:0:
289,30,29355,1,0,0:0:0:0:
344,109,29517,1,0,0:0:0:0:
396,16,29678,2,0,P|438:11|472:17,2,70,0|2|0,0:0|0:0|0:0,0:0:0:0:
344,109,30162,6,0,B|355:148|331:197|331:197|342:259,1,140,0|2,0:0|0:0,0:0:0:0:
410,326,30646,2,0,P|356:343|262:314,1,140
231,242,31130,2,0,L|215:149,1,70,2|0,0:0|0:0,0:0:0:0:
232,69,31452,6,0,P|163:43|88:72,1,140,0|2,0:0|0:0,0:0:0:0:
27,131,31936,2,0,L|53:281,1,140
141,318,32420,2,0,L|137:361,2,35,2|0|0,0:0|0:0|0:0,0:0:0:0:
220,264,32743,6,0,P|274:252|372:282,1,140,0|2,0:0|0:0,0:0:0:0:
427,194,33226,2,0,B|454:215|458:284|458:284|485:241,2,140
400,88,34033,5,0,0:0:0:0:
400,88,34194,1,0,0:0:0:0:
336,160,34355,1,0,0:0:0:0:
336,160,34517,1,0,0:0:0:0:
272,96,34678,1,0,0:0:0:0:
278,292,35001,2,0,L|261:359,1,70
178,330,35323,6,0,P|142:286|138:198,1,140,4|8,0:0|0:0,0:0:0:0:
49,164,35807,2,0,P|58:106|112:39,1,140
213,40,36291,1,8,0:0:0:0:
213,40,36452,1,0,0:0:0:0:
279,106,36614,6,0,P|289:153|279:200,1,70
251,259,36936,1,8,0:0:0:0:
326,313,37097,2,0,P|362:285|384:240,1,70
381,175,37420,1,0,0:0:0:0:
381,175,37501,1,0,0:0:0:0:
381,175,37581,1,8,0:0:0:0:
144,127,37904,6,0,L|306:121,1,140,0|8,0:0|0:0,0:0:0:0:
230,205,38388,2,0,P|233:255|225:298,1,70
141,313,38710,2,0,P|138:263|146:220,1,70,0|8,0:0|0:0,0:0:0:0:
227,360,39033,1,0,0:0:0:0:
320,384,39194,6,0,P|362:358|378:253,1,140,0|8,0:0|0:0,0:0:0:0:
475,276,39678,2,0,P|478:204|432:131,1,140
363,134,40162,1,8,0:0:0:0:
363,134,40323,1,0,0:0:0:0:
349,224,40484,6,0,P|280:234|201:219,1,140,0|8,0:0|0:0,0:0:0:0:
105,279,40968,2,0,L|111:140,1,140
90,48,41452,1,8,0:0:0:0:
90,48,41614,1,0,0:0:0:0:
189,60,41775,6,0,P|204:108|206:151,1,70
212,223,42097,1,8,0:0:0:0:
301,184,42259,2,0,P|320:119|320:97,1,70
316,26,42581,1,0,0:0:0:0:
401,65,42743,2,0,P|415:99|417:137,1,70,8|0,0:0|0:0,0:0:0:0:
406,225,43065,5,0,0:0:0:0:
406,225,43226,1,0,0:0:0:0:
336,302,43388,2,0,L|323:219,1,70,8|8,0:0|0:0,0:0:0:0:
275,159,43710,1,0,0:0:0:0:
275,159,43872,1,0,0:0:0:0:
208,218,44033,2,0,L|219:302,1,70,8|8,0:0|0:0,0:0:0:0:
299,350,44355,5,0,0:0:0:0:
307,248,44517,1,0,0:0:0:0:
307,248,44597,1,0,0:0:0:0:
307,248,44678,1,8,0:0:0:0:
200,347,44839,1,0,0:0:0:0:
197,247,45001,1,0,0:0:0:0:
421,330,45323,1,8,0:0:0:0:
428,343,45646,6,0,P|474:291|403:178,1,210
370,96,46291,2,0,P|320:117|166:90,1,210
73,103,46936,6,0,L|60:201,1,70
140,251,47259,2,0,L|153:153,1,70
246,114,47581,2,0,L|236:183,1,70
312,258,47904,2,0,L|332:108,1,140
409,286,48549,1,0,0:0:0:0:
224,203,48872,1,0,0:0:0:0:
400,140,49194,1,0,0:0:0:0:
252,81,49517,6,0,P|188:58|124:169,1,210
200,191,50162,2,0,L|201:261,1,70
180,343,50484,1,0,0:0:0:0:
272,338,50646,6,0,P|326:310|397:345,1,140,4|0,0:0|0:0,0:0:0:0:
474,292,51130,2,0,L|479:215,1,70,8|0,0:0|0:0,0:0:0:0:
486,129,51452,1,0,0:0:0:0:
402,179,51614,1,8,0:0:0:0:
402,179,51694,1,0,0:0:0:0:
402,179,51775,1,8,0:0:0:0:
310,124,51936,6,0,L|159:111,1,140,4|0,0:0|0:0,0:0:0:0:
87,191,52420,2,0,P|76:245|79:275,1,70,8|0,0:0|0:0,0:0:0:0:
132,331,52743,1,0,0:0:0:0:
208,266,52904,1,8,0:0:0:0:
208,266,53065,1,8,0:0:0:0:
264,334,53226,6,0,P|330:350|401:334,1,140,4|0,0:0|0:0,0:0:0:0:
443,245,53710,2,0,L|433:163,1,70,8|8,0:0|0:0,0:0:0:0:
412,70,54033,1,0,0:0:0:0:
328,109,54194,1,0,0:0:0:0:
243,64,54355,1,8,0:0:0:0:
159,106,54517,1,8,0:0:0:0:
413,85,54839,5,2,0:0:0:0:
329,124,55000,1,2,0:0:0:0:
244,79,55161,1,2,0:0:0:0:
160,121,55323,1,2,0:0:0:0:
224,346,55807,6,0,L|233:190,1,140,4|0,0:0|0:0,0:0:0:0:
322,277,56291,2,0,L|328:353,1,70,8|0,0:0|0:0,0:0:0:0:
408,256,56614,1,0,0:0:0:0:
312,189,56775,1,0,0:0:0:0:
376,139,56936,1,8,0:0:0:0:
309,90,57097,6,0,P|272:72|161:94,1,140
106,131,57581,1,8,0:0:0:0:
172,188,57743,2,0,L|176:269,1,70
239,329,58065,5,0,0:0:0:0:
239,329,58226,1,8,0:0:0:0:
299,260,58388,2,0,P|309:222|302:186,1,70
239,138,58710,1,0,0:0:0:0:
239,138,58872,1,8,0:0:0:0:
176,198,59033,2,0,L|85:197,1,70
20,163,59355,5,0,0:0:0:0:
33,77,59517,1,8,0:0:0:0:
127,76,59678,2,0,P|197:57|269:90,1,140
317,147,60162,1,8,0:0:0:0:
393,96,60323,1,2,0:2:0:0:
393,96,60646,1,2,0:2:0:0:
404,186,60807,1,8,0:0:0:0:
320,242,60968,6,0,P|245:264|175:237,1,140,4|0,0:0|0:0,0:0:0:0:
108,192,61452,2,0,L|98:272,1,70,8|0,0:0|0:0,0:0:0:0:
82,358,61775,1,0,0:0:0:0:
158,320,61936,1,0,0:0:0:0:
227,370,62097,1,8,0:0:0:0:
311,345,62259,6,0,P|353:317|354:222,1,140
307,163,62743,1,8,0:0:0:0:
236,214,62904,1,0,0:0:0:0:
236,214,63226,5,0,0:0:0:0:
186,133,63388,1,8,0:0:0:0:
235,59,63549,2,0,P|304:65|394:58,1,140
468,61,64033,1,8,0:0:0:0:
436,152,64194,2,0,P|453:190|441:294,2,140,0|0|4,0:0|0:0|0:0,0:0:0:0:
199,88,65162,5,0,0:0:0:0:
134,147,65323,2,0,P|129:201|131:234,1,70,8|0,0:0|0:0,0:0:0:0:
209,247,65646,2,0,L|205:301,4,35,2|2|2|2|2,0:2|0:2|0:2|0:2|0:2,0:2:0:0:
277,187,66130,6,0,L|422:183,1,140,4|0,0:0|0:0,0:0:0:0:
353,98,66614,2,0,L|273:101,1,70,8|0,0:0|0:0,0:0:0:0:
203,44,66936,1,0,0:0:0:0:
146,115,67097,1,0,0:0:0:0:
84,44,67259,1,8,0:0:0:0:
18,106,67420,6,0,B|22:169|22:169|41:192|41:192|45:250,1,140
42,322,67904,1,8,0:0:0:0:
135,289,68065,2,0,P|144:242|141:209,1,70
123,99,68388,5,0,0:0:0:0:
123,99,68549,1,8,0:0:0:0:
213,123,68710,2,0,L|303:117,1,70
416,207,69033,1,0,0:0:0:0:
416,207,69194,1,8,0:0:0:0:
344,258,69355,2,0,L|274:262,1,70
198,208,69678,5,0,0:0:0:0:
132,277,69839,1,8,0:0:0:0:
60,212,70001,2,0,P|37:146|51:64,1,140
160,41,70484,1,8,0:0:0:0:
255,77,70646,2,0,L|260:33,2,35,2|2|2,0:2|0:2|0:2,0:0:0:0:
356,48,70968,1,2,0:2:0:0:
450,80,71130,1,2,0:2:0:0:
419,168,71291,6,0,P|424:242|417:321,1,140,4|0,0:0|0:0,0:0:0:0:
315,336,71775,2,0,P|311:287|315:253,1,70,8|0,0:0|0:0,0:0:0:0:
303,171,72097,1,0,0:0:0:0:
213,225,72259,1,0,0:0:0:0:
216,129,72420,1,8,0:0:0:0:
118,183,72581,6,0,P|113:241|114:330,1,140
204,360,73065,1,8,0:0:0:0:
298,333,73226,1,0,0:0:0:0:
227,159,73549,1,0,0:0:0:0:
218,255,73710,1,8,0:0:0:0:
310,226,73872,6,0,L|452:235,1,140
500,150,74355,1,8,0:0:0:0:
401,97,74517,2,0,L|392:22,1,70
291,71,74839,2,0,P|285:114|288:158,1,70,0|8,0:0|0:0,0:0:0:0:
382,200,75162,6,0,P|391:267|375:355,1,140,4|0,0:0|0:0,0:0:0:0:
277,376,75646,2,0,P|270:347|270:296,1,70,8|0,0:0|0:0,0:0:0:0:
273,194,75968,1,0,0:0:0:0:
359,256,76130,2,0,L|368:300,2,35,0|0|8,0:0|0:0|0:0,0:0:0:0:
384,169,76452,1,8,0:0:0:0:
468,207,76614,6,0,P|479:252|477:293,1,70,2|2,0:0|0:0,0:0:0:0:
450,292,77743,6,0,P|437:225|445:130,1,140,4|2,0:0|0:0,0:0:0:0:
490,55,78226,2,0,L|398:58,1,70,8|2,0:0|0:0,0:0:0:0:
331,119,78549,2,0,L|243:113,1,70,0|2,0:0|0:0,0:0:0:0:
203,48,78872,2,0,L|110:55,1,70,8|2,0:0|0:0,0:0:0:0:
34,89,79194,5,0,0:0:0:0:
122,154,79355,2,0,L|168:156,2,35,2|0|8,0:0|0:0|0:0,0:0:0:0:
42,203,79678,1,2,0:0:0:0:
103,285,79839,2,0,L|104:360,2,70,0|10|8,0:0|0:0|0:0,0:0:0:0:
204,230,80323,6,0,P|273:224|343:232,1,140,4|2,0:0|0:0,0:0:0:0:
459,233,80807,2,0,L|456:311,1,70,8|2,0:0|0:0,0:0:0:0:
360,384,81130,2,0,L|362:314,1,70,0|2,0:0|0:0,0:0:0:0:
273,207,81452,2,0,L|270:285,1,70,8|2,0:0|0:0,0:0:0:0:
207,352,81775,5,0,0:0:0:0:
148,271,81936,2,0,P|109:264|61:270,1,70,2|8,0:0|0:0,0:0:0:0:
207,352,82259,1,2,0:0:0:0:
280,282,82420,2,0,L|285:243,2,35,0|0|10,0:0|0:0|0:0,0:0:0:0:
335,358,82743,1,8,0:0:0:0:
434,339,82904,6,0,P|458:287|462:195,1,140,4|2,0:0|0:0,0:0:0:0:
357,56,83388,2,0,L|347:135,1,70,8|2,0:0|0:0,0:0:0:0:
279,221,83710,2,0,L|366:226,1,70,0|2,0:0|0:0,0:0:0:0:
254,113,84033,2,0,L|184:108,1,70,8|2,0:0|0:0,0:0:0:0:
62,103,84355,5,4,0:0:0:0:
96,203,84517,2,0,L|86:288,1,70,2|8,0:0|0:0,0:0:0:0:
199,220,84839,1,2,0:0:0:0:
243,303,85001,2,0,P|293:295|322:273,1,70,0|10,0:0|0:0,0:0:0:0:
321,183,85323,1,8,0:0:0:0:
409,233,85484,5,0,0:0:0:0:
409,233,85565,1,0,0:0:0:0:
409,233,85646,2,0,L|414:138,1,70,4|0,0:0|0:0,0:0:0:0:
415,78,85968,1,0,0:0:0:0:
321,183,86130,2,0,B|270:195|270:195|194:183,1,105,4|0,0:2|0:0,0:0:0:0:
164,119,86452,2,0,B|215:107|215:107|291:119,1,105,4|0,0:2|0:0,0:0:0:0:
218,186,86775,6,0,L|216:333,1,140,4|0,0:2|0:0,0:0:0:0:
299,358,87259,1,0,0:0:0:0:
361,298,87420,1,0,0:0:0:0:
309,223,87581,1,0,0:0:0:0:
414,189,87743,2,0,L|457:189,2,35
328,125,88065,1,4,0:0:0:0:
256,192,88146,12,0,89194,0:0:0:0:
