osu file format v14

[General]
AudioFilename: audio.mp3
AudioLeadIn: 0
PreviewTime: 55691
Countdown: 0
SampleSet: Normal
StackLeniency: 0.6
Mode: 0
LetterboxInBreaks: 0
WidescreenStoryboard: 1

[Editor]
DistanceSpacing: 0.3
BeatDivisor: 4
GridSize: 8
TimelineZoom: 1.9

[Metadata]
Title:GAMERS! (TV Size)
TitleUnicode:GAMERS! (TV Size)
Artist:Kanemoto Hisako & Iwami Manaka & Ookubo Rumi
ArtistUnicode:金元寿子 & 石見舞菜香 & 大久保瑠美
Creator:Spring Roll
Version:Extra
Source:ゲーマーズ!
Tags:gemazu tv size opening mafumafu まふまふ 天道花憐 星ノ守千秋 亜玖璃 tendou karen aguri chiaki hoshinomori soap s_o_a_p japanese jpop j-pop pop anime
BeatmapID:1378688
BeatmapSetID:650639

[Difficulty]
HPDrainRate:7
CircleSize:4.5
OverallDifficulty:9
ApproachRate:9.6
SliderMultiplier:1.76
SliderTickRate:1

[Events]
//Background and Video events
0,0,"coCOOj3.jpeg",0,0
//Break Periods
//Storyboard Layer 0 (Background)
//Storyboard Layer 1 (Fail)
//Storyboard Layer 2 (Pass)
//Storyboard Layer 3 (Foreground)
//Storyboard Layer 4 (Overlay)
//Storyboard Sound Samples

[TimingPoints]
485,322.58064516129,4,1,1,64,1,0
5484,-100,4,1,2,64,0,0
8226,-100,4,1,1,71,0,0
9355,-133.333333333333,4,2,1,64,0,0
13226,-76.9230769230769,4,2,2,64,0,0
14033,-76.9230769230769,4,1,2,64,0,0
14517,-100,4,1,2,71,0,0
14597,-100,4,1,2,62,0,0
25001,-100,4,1,1,45,0,0
35323,-100,4,1,1,60,0,0
45646,-200,4,2,1,76,0,0
45968,-200,4,2,2,61,0,0
46291,-200,4,2,1,76,0,0
46614,-200,4,2,2,61,0,0
46936,-200,4,2,1,76,0,0
47259,-200,4,2,2,61,0,0
47581,-200,4,2,1,76,0,0
47904,-200,4,2,2,61,0,0
48226,-200,4,2,1,76,0,0
48549,-200,4,2,2,61,0,0
48872,-200,4,2,1,76,0,0
49194,-200,4,2,2,61,0,0
49517,-200,4,2,1,76,0,0
50484,-200,4,2,2,61,0,0
50646,-100,4,1,1,67,0,0
55807,-66.6666666666667,4,1,3,74,0,1
77743,-100,4,1,2,67,0,0
86372,-100,4,2,2,15,0,0
86452,-100,4,1,2,67,0,0
86694,-100,4,2,2,15,0,0
86775,-100,4,1,2,67,0,0
87097,-100,4,1,1,64,0,0
88549,-100,4,1,1,36,0,0
88872,-100,4,2,1,15,0,0

[Colours]
Combo1 : 0,255,255
Combo2 : 227,233,22
Combo3 : 255,128,128

[HitObjects]
112,116,485,5,2,0:0:0:0:
79,242,646,1,2,0:0:0:0:
227,157,807,2,0,L|314:152,1,88
126,131,1130,5,2,0:0:0:0:
93,257,1291,1,2,0:0:0:0:
327,171,1452,2,0,L|240:176,1,88
204,323,1775,5,2,0:0:0:0:
110,179,1936,1,2,0:0:0:0:
43,369,2097,2,0,P|33:318|43:270,1,88
38,144,2420,5,2,0:0:0:0:
131,284,2581,1,2,0:0:0:0:
210,171,2743,2,0,B|254:177|254:177|312:161,1,88
450,179,3065,5,2,0:0:0:0:
296,165,3226,1,2,0:0:0:0:
381,238,3388,2,0,B|386:272|386:272|376:327,1,88
259,41,3710,5,2,0:0:0:0:
160,242,3872,2,0,P|114:243|55:234,1,88,2|0,0:0|0:0,0:0:0:0:
347,165,4194,6,0,B|391:181|467:159|467:159|430:177|429:221,1,176,4|2,0:0|0:0,0:0:0:0:
312,320,4678,1,2,0:0:0:0:
307,299,4759,1,2,0:0:0:0:
302,278,4839,1,2,0:0:0:0:
202,172,5001,1,2,0:0:0:0:
197,151,5082,1,2,0:0:0:0:
192,130,5162,1,2,0:0:0:0:
125,338,5323,2,0,L|115:295,1,44,2|0,0:0|0:0,0:0:0:0:
36,171,5484,6,0,B|75:167|105:190|105:190|154:152|228:181,1,176,4|2,0:0|0:0,0:0:0:0:
164,263,5968,1,0,0:0:0:0:
418,293,6130,1,2,0:0:0:0:
257,271,6291,2,0,B|259:249|247:225|247:225|252:177,1,88,0|2,0:0|0:0,0:0:0:0:
404,119,6614,2,0,B|403:144|414:165|414:165|409:213,1,88,0|2,0:0|0:0,0:0:0:0:
418,293,6936,5,0,0:0:0:0:
387,292,7017,1,0,0:0:0:0:
358,282,7097,1,2,0:0:0:0:
336,259,7178,1,0,0:0:0:0:
325,229,7259,1,0,0:0:0:0:
323,198,7339,1,0,0:0:0:0:
331,168,7420,1,2,0:0:0:0:
357,151,7501,1,0,0:0:0:0:
362,192,7581,5,0,0:0:0:0:
331,191,7662,1,0,0:0:0:0:
300,190,7743,1,0,0:0:0:0:
269,188,7823,1,0,0:0:0:0:
238,188,7904,2,0,L|238:260,1,44
173,350,8065,2,0,L|173:306,1,44
65,264,8226,5,0,0:0:0:0:
90,222,8307,1,0,0:0:0:0:
94,173,8388,1,0,0:0:0:0:
75,128,8468,1,0,0:0:0:0:
37,97,8549,1,0,0:0:0:0:
83,110,8630,1,0,0:0:0:0:
131,110,8710,1,0,0:0:0:0:
177,94,8791,1,0,0:0:0:0:
215,64,8872,5,2,0:0:0:0:
261,51,8952,1,2,0:0:0:0:
309,47,9033,1,2,0:0:0:0:
355,61,9114,1,2,0:0:0:0:
389,94,9194,2,0,L|375:155,1,44,2|0,0:0|0:0,0:0:0:0:
311,360,9355,6,0,B|309:328|263:309|263:309|283:226,1,132.000005035401,4|2,0:0|0:0,0:0:0:0:
470,201,9839,1,2,0:0:0:0:
370,235,10001,1,2,0:0:0:0:
300,158,10162,2,0,L|307:123,1,33.0000012588501,2|2,0:0|0:0,0:0:0:0:
200,192,10323,1,2,0:0:0:0:
135,111,10484,1,2,0:0:0:0:
35,145,10646,1,2,0:0:0:0:
35,145,10968,5,2,0:0:0:0:
35,145,11130,1,2,0:0:0:0:
135,179,11291,2,0,B|128:142,1,33.0000012588501,2|2,0:0|0:0,0:0:0:0:
200,98,11452,2,0,L|193:63,1,33.0000012588501,2|2,0:0|0:0,0:0:0:0:
300,132,11614,1,2,0:0:0:0:
370,55,11775,1,2,0:0:0:0:
470,89,11936,1,2,0:0:0:0:
470,89,12259,5,2,0:0:0:0:
470,89,12420,1,2,0:0:0:0:
370,55,12581,2,0,L|380:107,1,33.0000012588501,2|2,0:0|0:0,0:0:0:0:
300,132,12743,2,0,L|308:165,1,33.0000012588501,2|2,0:0|0:0,0:0:0:0:
200,98,12904,1,2,0:0:0:0:
135,179,13065,1,2,0:0:0:0:
35,145,13226,6,0,P|29:211|46:323,1,171.599992144776,4|0,0:0|0:0,0:0:0:0:
284,315,13549,2,0,P|298:230|292:145,1,171.599992144776,4|0,0:0|0:0,0:0:0:0:
174,276,13872,2,0,L|170:343,1,57.1999973815919,2|0,0:0|0:0,0:0:0:0:
272,298,14033,5,2,0:1:0:0:
307,278,14114,1,2,0:0:0:0:
340,271,14194,1,2,0:0:0:0:
368,271,14275,1,2,0:0:0:0:
390,275,14355,1,2,0:0:0:0:
405,283,14436,1,2,0:0:0:0:
414,291,14517,6,0,B|417:216|417:216|405:188|405:188|408:103,1,176,4|2,0:0|0:0,0:0:0:0:
408,91,14920,1,0,0:0:0:0:
409,64,15001,1,8,0:0:0:0:
283,187,15162,1,2,0:0:0:0:
282,214,15243,1,0,0:0:0:0:
281,240,15323,1,0,0:0:0:0:
164,154,15484,5,2,0:0:0:0:
165,128,15565,1,0,0:0:0:0:
166,101,15646,1,8,0:0:0:0:
32,196,15807,1,2,0:0:0:0:
108,279,15968,6,0,L|218:272,1,88,0|2,0:0|0:0,0:0:0:0:
296,93,16291,1,8,0:0:0:0:
371,258,16452,1,2,0:0:0:0:
383,281,16533,1,0,0:0:0:0:
394,305,16614,2,0,L|306:310,1,88,0|10,0:0|0:0,0:0:0:0:
223,204,16936,2,0,L|274:200,1,44,8|0,0:0|0:0,0:0:0:0:
310,134,17097,6,0,L|305:323,1,176,4|2,0:0|0:0,0:0:0:0:
303,336,17501,1,0,0:0:0:0:
302,362,17581,1,8,0:0:0:0:
143,290,17743,1,2,0:0:0:0:
170,292,17823,1,0,0:0:0:0:
196,293,17904,1,0,0:0:0:0:
451,259,18065,5,2,0:0:0:0:
425,258,18146,1,0,0:0:0:0:
398,256,18226,1,8,0:0:0:0:
212,162,18388,1,2,0:0:0:0:
337,121,18549,6,0,L|436:125,1,88,0|2,0:0|0:0,0:0:0:0:
371,35,18872,1,8,0:0:0:0:
313,217,19033,1,2,0:0:0:0:
302,241,19114,1,0,0:0:0:0:
291,264,19194,2,0,L|287:199,1,44
195,101,19355,2,0,L|197:144,1,44,10|0,0:0|0:0,0:0:0:0:
125,245,19517,2,0,L|121:180,1,44,8|0,0:0|0:0,0:0:0:0:
21,149,19678,6,0,L|32:328,1,176,4|2,0:0|0:0,0:0:0:0:
58,327,20081,1,0,0:0:0:0:
84,329,20162,1,8,0:0:0:0:
308,260,20323,1,2,0:0:0:0:
282,258,20404,1,0,0:0:0:0:
255,255,20484,1,0,0:0:0:0:
135,157,20646,5,2,0:0:0:0:
162,160,20726,1,0,0:0:0:0:
188,162,20807,1,8,0:0:0:0:
253,347,20968,1,2,0:0:0:0:
414,283,21130,6,0,B|426:231|426:231|418:184,1,88,0|2,0:0|0:0,0:0:0:0:
363,76,21452,1,8,0:0:0:0:
271,198,21614,1,2,0:0:0:0:
271,198,21694,1,0,0:0:0:0:
271,198,21775,2,0,L|346:190,2,44,0|0|10,0:0|0:0|0:0,0:0:0:0:
86,212,22097,5,8,0:0:0:0:
90,238,22178,1,0,0:0:0:0:
103,260,22259,1,2,0:0:0:0:
124,275,22339,1,0,0:0:0:0:
150,279,22420,2,0,L|40:294,1,88,4|0,0:0|0:0,0:0:0:0:
170,202,22743,1,0,0:0:0:0:
256,335,22904,6,0,P|296:295|293:223,1,132,4|0,0:2|0:0,0:0:0:0:
249,166,23226,2,0,L|359:174,1,88,4|0,0:2|0:0,0:0:0:0:
151,42,23549,6,0,B|137:120|137:120|151:155|151:155|140:225,1,176,4|0,0:0|0:0,0:0:0:0:
50,219,24033,1,0,0:0:0:0:
298,121,24194,1,0,0:0:0:0:
367,254,24355,1,0,0:0:0:0:
356,263,25001,6,0,P|349:216|361:163,1,88,2|0,0:0|0:0,0:0:0:0:
354,48,25323,1,2,0:0:0:0:
371,177,25484,1,0,0:0:0:0:
231,173,25646,1,2,0:0:0:0:
224,147,25726,1,0,0:0:0:0:
233,122,25807,1,0,0:0:0:0:
253,105,25888,1,0,0:0:0:0:
278,100,25968,2,0,L|168:98,1,88,2|0,0:0|0:0,0:0:0:0:
86,190,26291,6,0,L|173:191,1,88,2|0,0:0|0:0,0:0:0:0:
356,198,26614,1,2,0:0:0:0:
290,264,26775,1,0,0:0:0:0:
263,125,26936,1,2,0:0:0:0:
263,125,27017,1,0,0:0:0:0:
263,125,27097,1,0,0:0:0:0:
194,310,27259,2,0,P|180:257|184:218,1,88,2|0,0:0|0:0,0:0:0:0:
124,57,27581,6,0,P|138:110|134:149,1,88,2|0,0:0|0:0,0:0:0:0:
12,142,27904,1,2,0:0:0:0:
94,69,28065,1,0,0:0:0:0:
77,213,28226,1,2,0:0:0:0:
75,239,28307,1,0,0:0:0:0:
74,265,28388,1,0,0:0:0:0:
73,291,28468,1,0,0:0:0:0:
72,317,28549,2,0,L|176:303,1,88,2|0,0:0|0:0,0:0:0:0:
220,345,28791,1,0,0:0:0:0:
232,319,28872,6,0,L|336:305,1,88,2|0,0:0|0:0,0:0:0:0:
388,188,29194,1,2,0:0:0:0:
403,327,29355,1,0,0:0:0:0:
303,217,29517,1,2,0:0:0:0:
303,217,29597,1,0,0:0:0:0:
303,217,29678,1,0,0:0:0:0:
470,277,29839,2,0,P|480:256|469:170,1,88,2|0,0:0|0:0,0:0:0:0:
430,72,30162,6,0,L|237:86,1,176,2|2,0:0|0:0,0:0:0:0:
109,94,30646,1,0,0:0:0:0:
314,203,30807,1,2,0:0:0:0:
315,189,30888,1,0,0:0:0:0:
316,176,30968,1,0,0:0:0:0:
182,197,31130,2,0,P|177:248|178:298,1,88,2|0,0:0|0:0,0:0:0:0:
441,345,31452,6,0,B|484:318|484:318|503:278|490:221,1,132,2|0,0:0|0:0,0:0:0:0:
474,202,31775,1,2,0:0:0:0:
328,149,31936,1,0,0:0:0:0:
305,260,32097,2,0,L|407:266,1,88,2|0,0:0|0:0,0:0:0:0:
199,205,32420,1,2,0:0:0:0:
172,203,32501,1,0,0:0:0:0:
145,201,32581,1,0,0:0:0:0:
118,199,32662,1,0,0:0:0:0:
91,198,32743,6,0,P|79:241|79:301,1,88,2|0,0:0|0:0,0:0:0:0:
166,113,33065,1,2,0:0:0:0:
269,318,33226,2,0,B|307:287|310:230|272:198|272:198|234:234,2,176
197,322,34033,5,2,0:0:0:0:
388,309,34194,1,0,0:0:0:0:
159,310,34355,1,2,0:0:0:0:
400,307,34517,1,0,0:0:0:0:
118,300,34678,1,2,0:0:0:0:
414,307,35001,5,2,0:0:0:0:
409,281,35081,1,0,0:0:0:0:
404,254,35162,1,0,0:0:0:0:
399,227,35243,1,0,0:0:0:0:
394,201,35323,6,0,P|350:215|297:200,1,88,6|0,0:0|0:0,0:0:0:0:
222,144,35646,1,10,0:0:0:0:
342,31,35807,2,0,L|331:125,1,88,0|2,0:0|0:0,0:0:0:0:
289,318,36130,1,0,0:0:0:0:
288,309,36210,1,0,0:0:0:0:
287,300,36291,1,10,0:0:0:0:
161,79,36452,1,0,0:0:0:0:
57,257,36614,6,0,L|160:245,1,88,2|0,0:0|0:0,0:0:0:0:
419,164,36936,1,10,0:0:0:0:
212,167,37097,1,0,0:0:0:0:
420,301,37259,1,2,0:0:0:0:
420,301,37339,1,0,0:0:0:0:
420,301,37420,1,0,0:0:0:0:
420,301,37501,1,0,0:0:0:0:
420,301,37581,2,0,P|422:225|420:162,1,132,10|0,0:0|0:0,0:0:0:0:
495,140,37904,6,0,P|458:150|389:145,1,88,2|0,0:0|0:0,0:0:0:0:
306,32,38226,1,10,0:0:0:0:
214,243,38388,2,0,L|216:338,1,88,0|2,0:0|0:0,0:0:0:0:
91,107,38710,2,0,L|89:19,1,88,0|10,0:0|0:0,0:0:0:0:
67,236,39033,1,0,0:0:0:0:
378,111,39194,6,0,P|315:80|195:114,1,176,2|10,0:0|0:0,0:0:0:0:
67,236,39678,1,0,0:0:0:0:
242,320,39839,1,2,0:0:0:0:
248,298,39920,1,0,0:0:0:0:
256,277,40001,2,0,L|332:267,1,44
401,330,40162,2,0,L|357:335,1,44,10|0,0:0|0:0,0:0:0:0:
381,221,40323,2,0,L|457:211,1,44
505,350,40484,6,0,B|498:303|498:303|521:229|521:229|511:171,1,176,6|10,0:0|0:0,0:0:0:0:
421,85,40968,1,0,0:0:0:0:
311,193,41130,1,2,0:0:0:0:
300,221,41210,1,0,0:0:0:0:
300,251,41291,1,0,0:0:0:0:
310,280,41372,1,0,0:0:0:0:
331,301,41452,2,0,L|230:284,1,88,10|0,0:0|0:0,0:0:0:0:
27,261,41775,6,0,P|84:227|171:241,1,132,2|0,0:0|0:0,0:0:0:0:
212,283,42097,1,10,0:0:0:0:
332,134,42259,2,0,P|337:89|329:37,1,88,0|2,0:0|0:0,0:0:0:0:
301,43,42501,1,0,0:0:0:0:
270,39,42581,1,0,0:0:0:0:
239,36,42662,1,0,0:0:0:0:
208,33,42743,2,0,P|183:89|185:123,1,88,10|0,0:0|0:0,0:0:0:0:
409,291,43065,5,2,0:0:0:0:
133,219,43226,1,0,0:0:0:0:
443,163,43388,1,10,0:0:0:0:
443,163,43549,1,8,0:0:0:0:
184,322,43710,5,2,0:0:0:0:
341,50,43872,1,0,0:0:0:0:
383,304,44033,1,10,0:0:0:0:
383,304,44194,1,8,0:0:0:0:
123,87,44355,5,2,0:0:0:0:
351,150,44517,1,0,0:0:0:0:
351,150,44597,1,0,0:0:0:0:
351,150,44678,1,10,0:0:0:0:
44,190,44839,1,8,0:0:0:0:
419,279,45001,5,2,0:0:0:0:
388,310,45323,2,0,P|419:336|406:280,1,132,8|0,0:0|0:0,0:0:0:0:
297,274,45646,5,0,0:0:0:0:
297,274,45807,2,0,L|208:280,1,88
86,176,46291,5,0,0:0:0:0:
86,176,46452,2,0,L|173:170,1,88
426,140,46936,5,0,0:0:0:0:
426,140,47097,1,0,0:0:0:0:
361,289,47259,2,0,L|353:332,1,44
177,311,47581,5,0,0:0:0:0:
177,311,47743,1,0,0:0:0:0:
245,137,47904,2,0,L|252:93,1,44
387,335,48226,5,0,0:0:0:0:
445,248,48388,2,0,L|349:237,1,88
111,290,48872,5,0,0:0:0:0:
53,203,49033,2,0,L|149:192,1,88
260,41,49517,6,0,B|243:78|269:111|269:111|280:149|260:173,1,132
247,270,50162,1,0,0:0:0:0:
130,182,50323,1,0,0:0:0:0:
364,233,50484,1,0,1:0:0:0:
115,314,50646,6,0,L|112:132,1,176,4|0,0:2|0:0,0:0:0:0:
141,147,51049,1,0,0:0:0:0:
170,157,51130,1,8,0:0:0:0:
454,233,51291,1,8,0:0:0:0:
423,236,51372,1,0,0:0:0:0:
392,239,51452,1,0,0:0:0:0:
105,330,51614,1,8,0:0:0:0:
311,148,51775,1,8,0:0:0:0:
428,345,51936,6,0,P|320:295|252:315,1,176,4|0,0:2|0:0,0:0:0:0:
263,336,52339,1,0,0:0:0:0:
258,366,52420,1,8,0:0:0:0:
367,152,52581,1,8,0:0:0:0:
365,121,52662,1,0,0:0:0:0:
363,90,52743,1,0,0:0:0:0:
65,182,52904,1,8,0:0:0:0:
65,182,52984,1,0,0:0:0:0:
65,182,53065,1,8,0:0:0:0:
507,275,53226,6,0,P|514:169|507:91,1,176,4|0,0:2|0:0,0:0:0:0:
175,142,53710,1,8,0:0:0:0:
421,208,53872,1,8,0:0:0:0:
174,277,54033,5,0,0:0:0:0:
319,58,54194,1,0,0:0:0:0:
319,58,54275,1,0,0:0:0:0:
319,58,54355,1,8,0:0:0:0:
321,297,54517,1,4,0:2:0:0:
335,288,54839,6,0,L|328:216,1,44,2|0,0:0|0:0,0:0:0:0:
236,21,55001,2,0,L|229:85,1,44,2|0,0:0|0:0,0:0:0:0:
184,327,55162,2,0,L|201:264,1,44,2|0,0:0|0:0,0:0:0:0:
392,128,55323,2,0,L|339:122,3,44,2|0|0|0,0:0|0:0|0:0|0:0,0:0:0:0:
392,128,55807,6,0,B|346:132|321:115|321:115|264:136|264:136|266:99|266:99|207:155|160:108,1,264.000010070801,4|0,0:0|0:0,0:0:0:0:
337,384,56291,2,0,B|362:348|360:319|360:319|342:286|345:250,1,132.000005035401,8|0,0:0|0:0,0:0:0:0:
53,143,56614,5,0,0:0:0:0:
26,336,56775,1,2,0:0:0:0:
202,116,56936,1,8,0:0:0:0:
223,321,57097,1,2,0:0:0:0:
19,166,57259,5,0,0:0:0:0:
285,210,57420,2,0,L|194:215,1,66.0000025177003,2|0,0:0|0:0,0:0:0:0:
104,220,57581,1,8,0:0:0:0:
334,57,57743,1,2,0:0:0:0:
334,57,57823,1,0,0:0:0:0:
334,57,57904,1,0,0:0:0:0:
447,356,58065,6,0,L|451:284,1,66.0000025177003,2|0,0:0|0:0,0:0:0:0:
372,166,58226,2,0,L|368:231,1,66.0000025177003,8|0,0:0|0:0,0:0:0:0:
253,365,58388,2,0,L|257:293,1,66.0000025177003,2|0,0:0|0:0,0:0:0:0:
220,133,58549,1,0,0:0:0:0:
41,292,58710,5,0,0:0:0:0:
41,292,58791,1,0,0:0:0:0:
41,292,58872,1,10,0:0:0:0:
192,202,59033,2,0,B|203:232|196:264|196:264|187:279|187:279|198:310|190:346,1,132.000005035401
99,218,59355,2,0,P|93:182|98:143,1,66.0000025177003
293,190,59517,2,0,P|299:226|294:265,1,66.0000025177003
110,74,59678,6,0,B|301:54|301:54|249:75|250:125,1,264.000010070801,2|0,0:0|0:0,0:0:0:0:
252,129,60081,1,0,0:0:0:0:
252,155,60162,1,10,0:0:0:0:
310,323,60323,6,0,P|321:304|321:244,1,66.0000025177003
316,143,60484,1,2,0:2:0:0:
268,144,60565,1,0,0:2:0:0:
226,123,60646,1,0,0:2:0:0:
190,151,60726,1,0,0:2:0:0:
176,195,60807,1,2,0:2:0:0:
180,241,60888,1,0,0:2:0:0:
183,317,60968,6,0,B|154:278|110:277|110:277|58:302|13:295|13:295|60:292|109:234,1,264.000010070801,4|0,0:0|0:0,0:0:0:0:
26,82,61452,2,0,P|16:126|25:177,1,66.0000025177003,8|0,0:0|0:0,0:0:0:0:
80,257,61614,2,0,P|86:215|80:191,1,66.0000025177003,2|0,0:0|0:0,0:0:0:0:
122,46,61775,5,0,0:0:0:0:
223,270,61936,1,2,0:0:0:0:
305,71,62097,1,8,0:0:0:0:
163,163,62259,2,0,B|192:157|222:169|222:169|235:157|235:157|267:169|305:155,1,132.000005035401,2|0,0:0|0:0,0:0:0:0:
460,224,62581,5,2,0:0:0:0:
440,218,62662,1,0,0:0:0:0:
420,212,62743,1,8,0:0:0:0:
315,51,62904,1,2,0:0:0:0:
223,279,63065,1,0,0:0:0:0:
112,82,63226,5,0,0:0:0:0:
123,126,63307,1,0,0:0:0:0:
119,172,63388,1,10,0:0:0:0:
99,213,63468,1,0,0:0:0:0:
66,245,63549,2,0,P|153:220|241:226,1,132.000005035401,2|0,0:0|0:0,0:0:0:0:
279,289,63791,1,0,0:0:0:0:
326,280,63872,2,0,P|331:240|328:194,1,66.0000025177003
225,35,64033,2,0,P|220:75|223:121,1,66.0000025177003,10|0,0:0|0:0,0:0:0:0:
164,325,64194,2,0,P|160:298|166:244,1,66.0000025177003,2|0,0:0|0:0,0:0:0:0:
352,82,64355,5,0,0:0:0:0:
70,170,64517,1,0,0:0:0:0:
89,167,64597,1,0,0:0:0:0:
108,164,64678,1,10,0:0:0:0:
437,189,64839,2,0,P|448:268|420:326,1,132.000005035401,14|4,0:0|0:0,0:0:0:0:
279,342,65162,5,0,0:0:0:0:
242,313,65243,1,0,0:0:0:0:
196,316,65323,1,2,0:2:0:0:
158,343,65404,1,0,0:0:0:0:
113,331,65484,5,2,0:2:0:0:
89,291,65565,1,0,0:0:0:0:
84,244,65646,1,0,0:0:0:0:
110,206,65726,1,0,0:0:0:0:
152,187,65807,5,2,0:2:0:0:
176,147,65888,1,0,0:0:0:0:
177,101,65968,1,2,0:2:0:0:
152,61,66049,1,0,0:0:0:0:
108,44,66130,6,0,L|382:57,1,264.000010070801,4|0,0:0|0:0,0:0:0:0:
211,339,66614,2,0,P|201:317|203:253,1,66.0000025177003,8|0,0:0|0:0,0:0:0:0:
378,268,66775,2,0,P|388:290|386:354,1,66.0000025177003,2|0,0:0|0:0,0:0:0:0:
90,251,66936,1,0,0:0:0:0:
355,146,67097,1,2,0:0:0:0:
374,140,67178,1,0,0:0:0:0:
392,133,67259,1,8,0:0:0:0:
86,106,67420,5,2,0:0:0:0:
67,113,67501,1,0,0:0:0:0:
48,120,67581,1,0,0:0:0:0:
147,316,67743,1,2,0:0:0:0:
396,52,67904,1,8,0:0:0:0:
362,292,68065,1,2,0:0:0:0:
151,46,68226,5,0,0:0:0:0:
169,224,68388,1,2,0:0:0:0:
169,224,68468,1,0,0:0:0:0:
169,224,68549,1,10,0:0:0:0:
394,108,68710,1,2,0:0:0:0:
95,129,68872,5,0,0:0:0:0:
369,314,69033,1,0,0:0:0:0:
369,314,69114,1,0,0:0:0:0:
369,314,69194,1,10,0:0:0:0:
286,45,69355,2,0,L|286:222,1,132.000005035401
409,197,69678,2,0,P|416:159|405:112,1,66.0000025177003
250,147,69839,2,0,P|243:185|254:232,1,66.0000025177003,10|0,0:0|0:0,0:0:0:0:
456,326,70001,6,0,P|404:297|317:314,1,132.000005035401,0|0,0:0|0:2,0:0:0:0:
331,330,70243,1,2,0:2:0:0:
354,318,70323,1,2,0:2:0:0:
78,183,70484,1,2,0:2:0:0:
76,209,70565,1,2,0:2:0:0:
99,197,70646,1,2,0:2:0:0:
444,94,70807,5,2,0:2:0:0:
442,120,70888,1,2,0:2:0:0:
465,108,70968,1,2,0:2:0:0:
418,111,71049,1,2,0:2:0:0:
371,114,71130,1,2,0:2:0:0:
325,117,71210,1,2,0:2:0:0:
276,111,71291,6,0,P|261:169|310:262,2,132.000005035401,4|0|0,0:0|0:0|0:0,0:0:0:0:
449,233,71775,2,0,L|378:236,1,66.0000025177003,8|0,0:0|0:0,0:0:0:0:
256,342,71936,2,0,L|321:339,1,66.0000025177003,2|0,0:0|0:0,0:0:0:0:
494,334,72097,5,0,0:0:0:0:
165,157,72259,1,2,0:0:0:0:
165,157,72339,1,0,0:0:0:0:
165,157,72420,1,10,0:0:0:0:
326,343,72581,2,0,P|352:289|359:247,1,66.0000025177003,2|0,0:0|0:0,0:0:0:0:
337,189,72743,5,0,0:0:0:0:
110,316,72904,1,2,0:0:0:0:
110,316,72984,1,0,0:0:0:0:
110,316,73065,1,10,0:0:0:0:
463,248,73226,1,2,0:0:0:0:
155,88,73388,5,0,0:0:0:0:
224,300,73549,1,2,0:0:0:0:
359,70,73710,1,10,0:0:0:0:
224,268,73872,1,2,0:0:0:0:
29,139,74033,6,0,L|165:129,1,132.000005035401
410,121,74355,1,10,0:0:0:0:
454,149,74436,1,0,0:0:0:0:
465,200,74517,1,2,0:0:0:0:
441,246,74597,1,0,0:0:0:0:
391,266,74678,2,0,L|294:258,1,66.0000025177003
88,174,74839,2,0,L|164:168,1,66.0000025177003
286,33,75001,2,0,L|285:109,1,66.0000025177003,10|0,0:0|0:0,0:0:0:0:
245,382,75162,6,0,B|211:345|211:345|213:235,1,132.000005035401,6|0,0:0|0:0,0:0:0:0:
127,51,75484,1,0,0:0:0:0:
125,84,75565,1,0,0:0:0:0:
123,117,75646,1,10,0:0:0:0:
107,334,75807,1,0,0:0:0:0:
381,74,75968,5,2,0:2:0:0:
404,352,76130,1,2,0:2:0:0:
393,320,76210,1,0,0:0:0:0:
382,288,76291,1,0,0:0:0:0:
371,256,76372,1,0,0:0:0:0:
361,224,76452,1,2,0:2:0:0:
137,347,76614,5,8,0:0:0:0:
137,347,76775,1,8,0:0:0:0:
182,231,76936,2,0,B|192:181|179:144|179:144|166:180|146:194,1,132.000005035401,0|2,0:0|0:0,0:0:0:0:
87,240,77259,1,2,0:0:0:0:
225,331,77420,1,0,0:0:0:0:
256,342,77501,1,0,0:0:0:0:
288,338,77581,1,0,0:0:0:0:
316,321,77662,1,0,0:0:0:0:
356,265,77743,6,0,B|339:212|339:212|303:237|300:283|319:329,1,176,4|2,0:0|0:0,0:0:0:0:
458,333,78146,1,0,0:0:0:0:
492,314,78226,2,0,P|499:257|486:217,1,88,8|2,0:0|0:0,0:0:0:0:
338,142,78549,1,0,0:0:0:0:
224,254,78710,1,2,0:0:0:0:
411,221,78872,2,0,L|511:211,1,88,8|2,0:0|0:0,0:0:0:0:
359,132,79194,5,0,0:0:0:0:
260,347,79355,1,2,0:0:0:0:
260,347,79436,1,0,0:0:0:0:
260,347,79517,1,8,0:0:0:0:
195,107,79678,1,2,0:0:0:0:
321,231,79839,2,0,L|364:224,1,44
228,206,80001,2,0,L|156:216,1,44,10|0,0:0|0:0,0:0:0:0:
253,287,80162,1,8,0:0:0:0:
409,81,80323,6,0,L|420:274,1,176,4|2,0:0|0:0,0:0:0:0:
358,342,80726,1,0,0:0:0:0:
329,308,80807,2,0,P|291:303|229:313,1,88,8|2,0:0|0:0,0:0:0:0:
115,340,81130,1,0,0:0:0:0:
249,203,81291,1,2,0:0:0:0:
72,249,81452,2,0,P|53:198|54:153,1,88,8|2,0:0|0:0,0:0:0:0:
219,72,81775,5,0,0:0:0:0:
206,295,81936,1,2,0:0:0:0:
206,295,82017,1,0,0:0:0:0:
206,295,82097,1,8,0:0:0:0:
136,121,82259,1,2,0:0:0:0:
327,295,82420,2,0,L|327:348,1,44
385,149,82581,2,0,L|385:94,1,44,10|0,0:0|0:0,0:0:0:0:
291,203,82743,1,8,0:0:0:0:
484,292,82904,6,0,B|447:255|401:261|401:261|365:301|310:295,1,176,4|2,0:0|0:0,0:0:0:0:
214,347,83307,1,0,0:0:0:0:
180,325,83388,2,0,P|170:278|183:212,1,88,8|2,0:0|0:0,0:0:0:0:
309,75,83710,1,0,0:0:0:0:
79,195,83872,1,2,0:0:0:0:
318,190,84033,2,0,L|421:185,1,88,8|2,0:0|0:0,0:0:0:0:
212,117,84355,5,4,0:0:0:0:
335,315,84517,1,2,0:0:0:0:
335,315,84597,1,0,0:0:0:0:
335,315,84678,1,8,0:0:0:0:
294,44,84839,1,2,0:0:0:0:
119,76,85001,1,0,0:0:0:0:
99,104,85081,1,0,0:0:0:0:
93,138,85162,1,8,0:0:0:0:
104,171,85243,1,0,0:0:0:0:
144,200,85323,5,8,0:0:0:0:
156,232,85404,1,0,0:0:0:0:
156,266,85484,1,8,0:0:0:0:
139,297,85565,1,0,0:0:0:0:
91,326,85646,6,0,L|200:321,1,88,4|0,0:0|0:0,0:0:0:0:
404,308,85968,1,0,0:0:0:0:
250,137,86130,2,0,B|242:243|242:243|281:204,1,132,4|0,0:2|0:0,0:0:0:0:
357,163,86452,2,0,B|365:57|365:57|326:96,1,132,4|0,0:2|0:0,0:0:0:0:
489,263,86775,6,0,B|403:242|403:242|348:264|307:243,1,176,4|2,0:2|0:0,0:0:0:0:
289,235,87178,1,0,0:0:0:0:
260,224,87259,2,0,L|272:294,1,44
63,129,87420,1,2,0:0:0:0:
93,123,87501,1,0,0:0:0:0:
123,118,87581,2,0,L|129:181,1,44
135,277,87743,1,2,0:0:0:0:
138,307,87823,1,0,0:0:0:0:
142,337,87904,1,2,0:0:0:0:
251,82,88065,5,4,0:0:0:0:
256,192,88146,12,0,89194,0:0:0:0:
