osu file format v14

[General]
AudioFilename: audio.mp3
AudioLeadIn: 0
PreviewTime: 55691
Countdown: 0
SampleSet: Soft
StackLeniency: 0.7
Mode: 0
LetterboxInBreaks: 0
WidescreenStoryboard: 1

[Editor]
DistanceSpacing: 1
BeatDivisor: 4
GridSize: 8
TimelineZoom: 2.7

[Metadata]
Title:GAMERS!
TitleUnicode:GAMERS!
Artist:Kanemoto Hisako & Iwami Manaka & Ookubo Rumi
ArtistUnicode:金元寿子&石見舞菜香&大久保瑠美
Creator:RubyGh0st
Version:Extreme game!
Source:ゲーマーズ!
Tags:Gemazu TV Size Opening Mafumafu まふまふ 天道花憐 星ノ守千秋 亜玖璃 Tendou Karen Aguri Chiaki Hoshinomori
BeatmapID:1506439
BeatmapSetID:690414

[Difficulty]
HPDrainRate:6
CircleSize:3.5
OverallDifficulty:9
ApproachRate:9.3
SliderMultiplier:2
SliderTickRate:1

[Events]
//Background and Video events
Video,0,"video.avi"
0,0,"yande.re 409786 sample bikini cleavage gamers! headphones swimsuits tendou_karen tsunako.jpg",0,0
//Break Periods
2,10326,12637
//Storyboard Layer 0 (Background)
//Storyboard Layer 1 (Fail)
//Storyboard Layer 2 (Pass)
//Storyboard Layer 3 (Foreground)
//Storyboard Sound Samples

[TimingPoints]
450,322.58064516129,4,2,1,70,1,0
450,-133.333333333333,4,2,1,70,0,0
4159,-133.333333333333,4,2,1,70,0,0
5449,-133.333333333333,4,2,1,70,0,0
9320,-200,4,2,1,70,0,0
10127,-200,4,2,1,5,0,0
13191,-66.6666666666667,4,2,1,70,0,0
13514,-66.6666666666667,4,2,1,70,0,0
13837,-125,4,2,1,70,0,0
14482,-100,4,2,1,70,0,0
23917,-100,4,2,1,5,0,0
23998,-117.647058823529,4,2,1,70,0,0
24079,-117.647058823529,4,2,1,5,0,0
24159,-142.857142857143,4,2,1,70,0,0
24240,-142.857142857143,4,2,1,5,0,0
24320,-200,4,2,1,70,0,0
24643,-200,4,2,1,5,0,0
24966,-133.333333333333,4,2,1,70,0,0
35288,-111.111111111111,4,2,1,70,0,0
43030,-100,4,2,1,70,0,0
45611,-200,4,2,1,70,0,0
50611,-100,4,2,1,70,0,0
55288,-100,4,2,1,50,0,0
55772,-83.3333333333333,4,2,1,80,0,1
66095,-100,4,2,1,80,0,1
75530,-100,4,2,1,5,0,1
75611,-100,4,2,1,80,0,1
75691,-100,4,2,1,5,0,1
75772,-100,4,2,1,80,0,1
75853,-100,4,2,1,5,0,1
75933,-100,4,2,1,80,0,1
76014,-100,4,2,1,5,0,1
76095,-100,4,2,1,80,0,1
76175,-100,4,2,1,5,0,1
76256,-100,4,2,1,80,0,1
76337,-100,4,2,1,5,0,1
76417,-100,4,2,1,80,0,0
88030,-142.857142857143,4,2,1,70,0,0
89159,-142.857142857143,4,2,1,5,0,0

[Colours]
Combo1 : 28,207,227
Combo2 : 255,128,64
Combo3 : 128,255,128
Combo4 : 244,11,92
SliderTrackOverride : 30,30,30
SliderBorder : 255,255,250

[HitObjects]
32,70,450,5,0,0:0:0:0:
216,294,611,1,0,0:0:0:0:
244,81,1095,5,0,0:0:0:0:
37,300,1256,1,0,0:0:0:0:
155,75,1740,5,0,0:0:0:0:
339,299,1901,1,0,0:0:0:0:
367,86,2385,5,0,0:0:0:0:
160,305,2546,1,0,0:0:0:0:
272,87,3030,5,0,0:0:0:0:
491,294,3191,1,0,0:0:0:0:
485,81,3675,5,0,0:0:0:0:
278,300,3836,1,0,0:0:0:0:
462,287,4159,6,0,P|399:344|327:345,1,150.000005722046
176,344,4643,1,0,0:0:0:0:
149,318,4723,1,0,0:0:0:0:
143,280,4804,1,0,0:0:0:0:
155,244,4884,1,0,0:0:0:0:
185,220,4966,1,0,0:0:0:0:
312,160,5127,5,0,0:0:0:0:
312,160,5288,1,0,0:0:0:0:
384,208,5449,6,0,B|312:240|312:240|240:208,1,150.000005722046
48,88,5933,2,0,L|144:32,1,75.0000028610231
318,171,6256,2,0,L|254:211,1,75.0000028610231
115,348,6579,1,0,0:0:0:0:
318,335,6740,6,0,L|318:247,1,75.0000028610231
187,123,7062,1,0,0:0:0:0:
120,320,7224,1,0,0:0:0:0:
318,260,7385,2,0,L|262:196,1,75.0000028610231
96,109,7708,6,0,L|96:72,8,37.5000014305115
112,144,8433,1,0,0:0:0:0:
126,178,8513,1,0,0:0:0:0:
150,207,8594,1,0,0:0:0:0:
182,226,8674,1,0,0:0:0:0:
218,235,8755,1,0,0:0:0:0:
255,240,8836,1,0,0:0:0:0:
329,253,8998,6,0,P|348:290|301:311,1,75.0000028610231
240,336,9320,2,0,B|161:257|305:201|241:105,1,250
88,144,13191,6,0,L|240:80,1,150.000005722046
424,240,13514,6,0,L|272:304,1,150.000005722046
339,142,13837,6,0,P|326:124|308:112,1,40
171,240,13998,2,0,P|184:258|202:270,1,40
304,275,14159,6,0,P|322:262|334:244,1,40
206,107,14320,2,0,L|176:138,1,40
80,248,14482,6,0,B|264:336,1,200
472,240,14966,5,0,0:0:0:0:
392,24,15127,1,0,0:0:0:0:
280,224,15288,1,0,0:0:0:0:
504,176,15449,1,0,0:0:0:0:
296,80,15611,6,0,B|240:96|240:96|200:144,1,100
72,312,15933,1,0,0:0:0:0:
304,296,16095,1,0,0:0:0:0:
80,232,16256,1,0,0:0:0:0:
288,368,16417,1,0,0:0:0:0:
136,192,16579,1,0,0:0:0:0:
336,304,16740,2,0,P|408:304|432:256,1,100
504,72,17062,6,0,B|462:47|462:47|398:57,1,100
184,112,17385,1,0,0:0:0:0:
416,136,17546,1,0,0:0:0:0:
248,296,17708,1,0,0:0:0:0:
240,64,17869,1,0,0:0:0:0:
416,208,18030,1,0,0:0:0:0:
192,256,18191,6,0,B|208:201|208:201|257:169,1,100
464,112,18514,1,0,0:0:0:0:
232,112,18675,1,0,0:0:0:0:
448,40,18837,1,0,0:0:0:0:
280,192,18998,1,0,0:0:0:0:
512,168,19159,1,0,0:0:0:0:
304,264,19320,2,0,P|264:296|192:280,1,100
88,184,19643,6,0,B|129:158|129:158|180:164,1,100
400,248,19966,1,0,0:0:0:0:
168,240,20127,1,0,0:0:0:0:
384,168,20288,1,0,0:0:0:0:
160,120,20449,1,0,0:0:0:0:
264,328,20611,1,0,0:0:0:0:
368,128,20772,6,0,B|330:85|330:85|258:74,1,100
104,128,21095,1,0,0:0:0:0:
324,184,21256,1,0,0:0:0:0:
145,221,21417,1,0,0:0:0:0:
396,244,21579,1,0,0:0:0:0:
264,344,21740,6,0,P|200:360|152:336,2,100
212,287,22224,5,0,0:0:0:0:
212,271,22304,1,0,0:0:0:0:
212,255,22385,1,0,0:0:0:0:
212,239,22466,1,0,0:0:0:0:
212,223,22546,1,0,0:0:0:0:
212,207,22627,1,0,0:0:0:0:
212,191,22708,1,0,0:0:0:0:
376,64,22869,6,0,L|344:184,1,100
88,312,23191,2,0,L|113:215,1,100
424,72,23514,2,0,L|400:176,1,100
152,48,23837,6,0,L|192:80,1,50
352,128,23998,6,0,L|312:160,1,42.5000008106232
184,168,24159,6,0,L|224:200,1,34.9999989318848
312,248,24320,6,0,B|272:304|216:280,1,100
64,176,24804,1,0,0:0:0:0:
72,152,24885,1,0,0:0:0:0:
80,128,24966,6,0,B|160:112,1,75.0000028610231
376,168,25288,1,0,0:0:0:0:
256,304,25449,2,0,L|160:320,1,75.0000028610231
240,200,25772,2,0,L|328:184,1,75.0000028610231
416,312,26095,2,0,L|336:328,1,75.0000028610231
115,203,26417,1,0,0:0:0:0:
115,202,26579,2,0,P|145:181|180:168,1,75.0000028610231
400,112,26901,6,0,L|400:208,1,75.0000028610231
288,328,27224,1,0,0:0:0:0:
137,195,27385,1,0,0:0:0:0:
80,304,27546,6,0,B|136:320|136:320|219:282,1,150.000005722046
467,185,28030,2,0,L|427:249,1,75.0000028610231
302,364,28353,1,0,0:0:0:0:
133,276,28514,2,0,P|141:232|182:195,1,75.0000028610231
304,136,28837,1,0,0:0:0:0:
212,265,28998,1,0,0:0:0:0:
400,256,29159,2,0,L|329:304,1,75.0000028610231
152,328,29482,1,0,0:0:0:0:
194,145,29643,5,0,0:0:0:0:
368,304,29804,1,0,0:0:0:0:
272,304,29966,5,0,0:0:0:0:
466,161,30127,2,0,L|466:257,1,75.0000028610231
464,336,30449,5,0,0:0:0:0:
248,248,30611,2,0,L|318:274,1,75.0000028610231
472,192,30933,2,0,L|401:165,1,75.0000028610231
228,109,31256,1,0,0:0:0:0:
304,248,31417,2,0,L|216:296,1,75.0000028610231
88,334,31740,1,0,0:0:0:0:
74,141,31901,6,0,P|104:120|141:121,1,75.0000028610231
200,240,32224,2,0,P|236:241|267:220,1,75.0000028610231
416,128,32546,6,0,L|320:112,1,75.0000028610231
160,64,32869,1,0,0:0:0:0:
80,144,33030,1,0,0:0:0:0:
96,256,33191,2,0,L|176:296,1,75.0000028610231
368,344,33514,2,0,L|280:288,1,75.0000028610231
136,274,33837,5,0,0:0:0:0:
250,125,33998,1,0,0:0:0:0:
376,273,34159,1,0,0:0:0:0:
160,208,34320,2,0,L|248:168,1,75.0000028610231
360,48,34643,2,0,P|371:83|360:118,1,75.0000028610231
218,251,34966,1,0,0:0:0:0:
360,48,35127,1,0,0:0:0:0:
293,224,35288,6,0,P|293:281|237:326,1,89.9999972534181
96,232,35611,2,0,P|96:175|152:130,1,89.9999972534181
368,56,35933,5,0,0:0:0:0:
224,232,36095,1,0,0:0:0:0:
448,200,36256,5,0,0:0:0:0:
256,80,36417,1,0,0:0:0:0:
368,280,36579,5,0,0:0:0:0:
416,64,36740,1,0,0:0:0:0:
496,272,36901,5,0,0:0:0:0:
296,168,37062,2,0,P|256:160|208:200,1,89.9999972534181
80,290,37385,5,0,0:0:0:0:
247,356,37546,1,0,0:0:0:0:
370,227,37708,5,0,0:0:0:0:
197,274,37869,1,0,0:0:0:0:
295,123,38030,5,0,0:0:0:0:
275,355,38191,1,0,0:0:0:0:
208,192,38353,2,0,P|168:160|104:184,1,89.9999972534181
48,344,38675,1,0,0:0:0:0:
192,352,38837,6,0,L|256:280,1,89.9999972534181
320,144,39160,1,0,0:0:0:0:
104,232,39321,1,0,0:0:0:0:
336,248,39482,1,0,0:0:0:0:
239,74,39643,2,0,P|190:81|152:118,1,89.9999972534181
33,260,39966,5,0,0:0:0:0:
179,274,40127,1,0,0:0:0:0:
47,350,40288,1,0,0:0:0:0:
208,344,40449,6,0,L|304:304,1,89.9999972534181
415,82,40772,2,0,L|423:186,1,89.9999972534181
439,314,41095,1,0,0:0:0:0:
312,144,41256,2,0,L|240:216,1,89.9999972534181
72,344,41579,5,0,0:0:0:0:
142,169,41740,1,0,0:0:0:0:
184,349,41901,1,0,0:0:0:0:
46,251,42062,1,0,0:0:0:0:
270,234,42224,2,0,P|299:266|356:272,1,89.9999972534181
504,238,42546,5,0,0:0:0:0:
431,113,42708,2,0,P|389:100|344:98,1,89.9999972534181
144,200,43030,2,0,P|175:237|223:249,1,100
367,183,43353,2,0,P|336:146|288:134,1,100
170,244,43675,6,0,L|203:289,1,50
340,139,43837,2,0,L|308:95,1,50
203,106,43998,6,0,L|159:139,1,50
307,277,44160,2,0,L|352:245,1,50
396,170,44320,5,0,0:0:0:0:
128,263,44482,1,0,0:0:0:0:
353,88,44643,1,0,0:0:0:0:
198,325,44805,1,0,0:0:0:0:
203,43,44966,1,0,0:0:0:0:
448,64,45611,6,0,P|378:40|307:61,1,150
204,61,46256,6,0,P|133:39|63:64,1,150
320,264,46901,6,0,L|368:224,1,50
176,120,47224,2,0,L|136:152,1,50
96,232,47546,6,0,L|160:264,1,50
344,112,47869,2,0,L|299:89,1,50
72,136,48191,6,0,L|104:200,1,50
464,200,48514,2,0,L|424:152,1,50
168,56,48837,6,0,L|136:96,1,50
128,264,49159,2,0,L|176:304,1,50
352,272,49482,2,0,L|435:216,1,100
244,160,49966,5,0,0:0:0:0:
125,266,50127,2,0,L|89:301,2,50
135,175,50611,6,0,P|176:88|270:71,1,200
436,300,51095,1,0,0:0:0:0:
154,249,51256,1,0,0:0:0:0:
357,134,51417,1,0,0:0:0:0:
364,126,51497,1,0,0:0:0:0:
371,119,51578,1,0,0:0:0:0:
378,112,51658,1,0,0:0:0:0:
386,105,51739,1,0,0:0:0:0:
126,64,51901,6,0,P|86:152|123:243,1,200
424,327,52385,1,0,0:0:0:0:
323,97,52546,1,0,0:0:0:0:
149,255,52708,1,0,0:0:0:0:
142,262,52788,1,0,0:0:0:0:
135,270,52869,1,0,0:0:0:0:
128,277,52949,1,0,0:0:0:0:
120,284,53030,1,0,0:0:0:0:
408,168,53191,6,0,P|420:263|350:331,1,200
91,101,53675,1,0,0:0:0:0:
420,101,53837,1,0,0:0:0:0:
91,282,53998,1,0,0:0:0:0:
420,282,54159,1,0,0:0:0:0:
124,35,54320,5,0,0:0:0:0:
387,348,54482,1,0,0:0:0:0:
136,344,54804,6,0,L|184:320,1,50
336,288,54966,2,0,L|291:265,1,50
136,208,55127,2,0,L|184:184,1,50
336,135,55288,2,0,P|336:49|252:69,1,200
55,208,55772,6,0,P|108:311|221:336,1,239.999992675781
376,320,56256,2,0,L|406:204,1,119.999996337891
352,64,56579,1,0,0:0:0:0:
144,168,56740,1,0,0:0:0:0:
376,184,56901,1,0,0:0:0:0:
200,56,57062,1,0,0:0:0:0:
392,296,57224,6,0,L|272:308,1,119.999996337891
56,144,57546,1,0,0:0:0:0:
192,304,57708,2,0,L|308:274,1,119.999996337891
472,176,58030,5,0,0:0:0:0:
208,32,58191,1,0,0:0:0:0:
352,176,58353,2,0,L|472:176,1,119.999996337891
200,144,58675,5,0,0:0:0:0:
368,48,58837,1,0,0:0:0:0:
200,264,58998,2,0,L|200:144,1,119.999996337891
72,48,59320,5,0,0:0:0:0:
72,48,59482,1,0,0:0:0:0:
72,48,59643,2,0,L|72:176,1,119.999996337891
336,289,59966,1,0,0:0:0:0:
40,208,60127,1,0,0:0:0:0:
223,327,60288,2,0,L|343:287,1,119.999996337891
456,136,60611,5,0,0:0:0:0:
448,184,60691,1,0,0:0:0:0:
440,232,60772,1,0,0:0:0:0:
424,280,60853,1,0,0:0:0:0:
408,328,60933,6,0,B|419:367|419:367|224:328,1,239.999992675781
48,56,61417,2,0,L|48:176,1,119.999996337891
264,128,61740,1,0,0:0:0:0:
48,56,61901,1,0,0:0:0:0:
160,336,62062,1,0,0:0:0:0:
264,64,62224,6,0,L|400:64,1,119.999996337891
80,232,62546,1,0,0:0:0:0:
428,122,62708,1,0,0:0:0:0:
304,336,62869,2,0,L|160:320,1,119.999996337891
104,152,63191,5,0,0:0:0:0:
360,256,63353,1,0,0:0:0:0:
176,144,63514,2,0,L|24:168,1,119.999996337891
256,264,63837,5,0,0:0:0:0:
488,128,63998,1,0,0:0:0:0:
328,272,64159,2,0,L|160:264,1,119.999996337891
112,112,64482,5,0,0:0:0:0:
360,320,64643,1,0,0:0:0:0:
360,112,64804,1,0,0:0:0:0:
128,296,64966,2,0,B|168:352|168:352|248:360,1,119.999996337891
328,352,65288,5,0,0:0:0:0:
360,328,65369,1,0,0:0:0:0:
384,296,65449,1,0,0:0:0:0:
400,248,65530,1,0,0:0:0:0:
408,200,65611,1,0,0:0:0:0:
400,152,65691,1,0,0:0:0:0:
384,104,65772,1,0,0:0:0:0:
344,64,65853,1,0,0:0:0:0:
304,48,65933,1,0,0:0:0:0:
248,40,66014,1,0,0:0:0:0:
152,48,66095,6,0,B|96:64|96:64|96:224,1,200
192,344,66579,1,0,0:0:0:0:
456,248,66740,1,0,0:0:0:0:
184,200,66901,1,0,0:0:0:0:
416,352,67062,1,0,0:0:0:0:
304,96,67224,1,0,0:0:0:0:
120,312,67385,1,0,0:0:0:0:
344,144,67546,6,0,L|392:280,1,100
104,296,67869,1,0,0:0:0:0:
384,336,68030,1,0,0:0:0:0:
168,152,68191,1,0,0:0:0:0:
431,223,68353,6,0,P|439:272|423:319,1,100
104,304,68675,2,0,L|48:304,2,50
376,128,68998,5,0,0:0:0:0:
328,320,69159,1,0,0:0:0:0:
168,104,69320,2,0,L|136:64,2,50
344,336,69643,5,0,0:0:0:0:
288,112,69804,1,0,0:0:0:0:
33,300,69966,1,0,0:0:0:0:
373,152,70127,1,0,0:0:0:0:
138,317,70288,1,0,0:0:0:0:
438,245,70449,2,0,P|469:203|469:151,2,100
279,326,70933,5,0,0:0:0:0:
239,326,71014,1,0,0:0:0:0:
199,326,71095,1,0,0:0:0:0:
159,326,71175,1,0,0:0:0:0:
119,326,71256,2,0,B|79:318|79:318|148:171,1,200
288,40,71740,6,0,L|376:104,1,100
248,320,72062,1,0,0:0:0:0:
200,72,72224,1,0,0:0:0:0:
352,272,72385,1,0,0:0:0:0:
120,184,72546,1,0,0:0:0:0:
368,184,72708,1,0,0:0:0:0:
88,232,72869,6,0,L|152:136,1,100
375,55,73191,2,0,P|416:82|425:130,1,100
328,336,73514,6,0,L|208:328,1,100
144,312,73837,2,0,P|97:265|90:222,1,100
272,64,74159,1,0,0:0:0:0:
288,304,74320,1,0,0:0:0:0:
72,96,74482,2,0,L|136:184,1,100
440,288,74804,2,0,L|381:207,1,100
32,192,75127,2,0,P|70:293|192:320,1,200
464,288,75530,6,0,L|432:240,1,50
360,288,75691,6,0,L|328:232,1,50
392,200,75853,6,0,L|360:152,1,50
288,200,76014,6,0,L|256:144,1,50
320,112,76175,6,0,L|288:56,1,50
216,112,76337,6,0,L|184:56,1,50
160,320,77224,1,0,0:0:0:0:
152,312,77304,1,0,0:0:0:0:
144,304,77385,1,0,0:0:0:0:
136,296,77466,1,0,0:0:0:0:
128,288,77546,1,0,0:0:0:0:
120,280,77627,1,0,0:0:0:0:
64,176,77708,6,0,B|61:150|61:150|142:120,1,100
328,208,78030,1,0,0:0:0:0:
488,48,78191,1,0,0:0:0:0:
448,224,78353,1,0,0:0:0:0:
384,40,78514,1,0,0:0:0:0:
392,224,78675,1,0,0:0:0:0:
184,80,78837,6,0,B|136:112|136:112|143:166,1,100
232,376,79159,1,0,0:0:0:0:
432,248,79320,1,0,0:0:0:0:
208,160,79482,1,0,0:0:0:0:
376,328,79643,1,0,0:0:0:0:
360,88,79804,1,0,0:0:0:0:
200,272,79966,1,0,0:0:0:0:
432,200,80127,1,0,0:0:0:0:
112,184,80288,6,0,B|104:144|104:144|184:104,1,100
392,120,80611,1,0,0:0:0:0:
176,256,80772,1,0,0:0:0:0:
368,72,80933,1,0,0:0:0:0:
152,216,81095,1,0,0:0:0:0:
424,160,81256,1,0,0:0:0:0:
384,304,81417,6,0,B|384:336|384:336|272:336,1,100
66,348,81740,1,0,0:0:0:0:
16,125,81901,1,0,0:0:0:0:
156,348,82062,1,0,0:0:0:0:
123,125,82224,1,0,0:0:0:0:
0,357,82385,1,0,0:0:0:0:
222,158,82546,1,0,0:0:0:0:
400,320,82708,5,0,0:0:0:0:
400,320,82788,1,0,0:0:0:0:
400,320,82869,2,0,B|424:304|424:304|384:224,1,100
88,51,83191,5,0,0:0:0:0:
308,183,83353,1,0,0:0:0:0:
44,244,83514,1,0,0:0:0:0:
308,297,83675,1,0,0:0:0:0:
97,112,83837,1,0,0:0:0:0:
308,112,83998,6,0,B|344:121|344:121|308:227,1,100
36,306,84320,1,0,0:0:0:0:
396,244,84482,1,0,0:0:0:0:
44,200,84643,5,0,0:0:0:0:
396,324,84804,1,0,0:0:0:0:
18,324,84966,5,0,0:0:0:0:
414,236,85127,1,0,0:0:0:0:
136,80,85449,5,0,0:0:0:0:
136,80,85531,1,0,0:0:0:0:
136,80,85611,1,0,0:0:0:0:
408,200,85772,1,0,0:0:0:0:
80,288,85933,1,0,0:0:0:0:
264,328,86095,6,0,L|400:280,1,100
248,56,86417,2,0,L|112:104,1,100
256,192,86740,2,0,L|368:152,1,100
136,128,87062,5,0,0:0:0:0:
129,143,87142,1,0,0:0:0:0:
123,158,87223,1,0,0:0:0:0:
116,174,87303,1,0,0:0:0:0:
110,189,87384,1,0,0:0:0:0:
103,204,87465,1,0,0:0:0:0:
97,220,87545,1,0,0:0:0:0:
80,304,87708,6,0,L|192:320,1,100
448,280,88030,2,0,B|432:168|320:152|232:232|72:288|48:120,1,489.999985046387
