osu file format v14

[General]
AudioFilename: audio.mp3
AudioLeadIn: 0
PreviewTime: 55691
Countdown: 0
SampleSet: Soft
StackLeniency: 0.3
Mode: 0
LetterboxInBreaks: 0
WidescreenStoryboard: 0

[Editor]
DistanceSpacing: 0.9
BeatDivisor: 4
GridSize: 32
TimelineZoom: 1.4

[Metadata]
Title:GAMERS!
TitleUnicode:GAMERS!
Artist:Kanemoto Hisako & Iwami Manaka & Ookubo Rumi
ArtistUnicode:金元寿子&石見舞菜香&大久保瑠美
Creator:Ohwow
Version:Normal
Source:ゲーマーズ!
Tags:Gemazu TV Size Opening Mafumafu まふまふ 天道花憐 星ノ守千秋 亜玖璃 Tendou Karen Aguri Chiaki Hoshinomori
BeatmapID:1377360
BeatmapSetID:645591

[Difficulty]
HPDrainRate:4
CircleSize:3.5
OverallDifficulty:4
ApproachRate:5
SliderMultiplier:1.2
SliderTickRate:1

[Events]
//Background and Video events
0,0,"bg.jpg",0,0
Video,0,"video.avi"
//Break Periods
2,9520,11991
//Storyboard Layer 0 (Background)
//Storyboard Layer 1 (Fail)
//Storyboard Layer 2 (Pass)
//Storyboard Layer 3 (Foreground)
//Storyboard Sound Samples

[TimingPoints]
450,322.58064516129,4,2,1,70,1,0
14482,-100,4,2,1,70,0,0
23837,-100,4,2,1,5,0,0
24320,-100,4,2,1,70,0,0
24966,-111.111111111111,4,2,1,70,0,0
35288,-100,4,2,1,70,0,0
45611,-111.111111111111,4,2,1,70,0,0
50611,-100,4,2,1,70,0,0
55772,-100,4,2,1,80,0,1
65933,-100,4,2,1,80,0,0
66095,-100,4,2,1,80,0,1
76579,-100,4,2,1,70,0,0
77708,-100,4,2,1,70,0,0
89159,-100,4,2,1,5,0,0

[Colours]
Combo1 : 255,53,58
Combo2 : 250,190,224
Combo3 : 170,216,253
Combo4 : 207,69,241
Combo5 : 205,242,168
Combo6 : 247,216,108
SliderTrackOverride : 30,30,30
SliderBorder : 255,255,250

[HitObjects]
50,29,450,6,0,L|126:42,1,60,4|4,3:0|3:0,0:0:0:0:
265,83,1095,2,0,L|189:96,1,60,4|4,3:0|3:0,0:0:0:0:
50,140,1740,2,0,L|126:153,1,60,4|4,3:0|3:0,0:0:0:0:
265,194,2385,2,0,L|189:207,1,60,4|4,3:0|3:0,0:0:0:0:
76,302,3030,6,0,L|63:226,1,60,4|4,3:0|3:0,0:0:0:0:
215,306,3675,2,0,L|225:365,1,60,4|4,3:0|3:0,0:0:0:0:
322,318,4159,6,0,P|391:297|441:306,1,120,4|0,0:0|0:0,0:0:0:0:
485,329,4643,1,0,1:0:0:0:
485,329,4804,2,0,L|488:203,1,120,0|4,1:0|3:0,0:0:0:0:
420,124,5449,6,0,B|366:98|366:98|240:112,1,180,4|2,0:0|0:0,0:0:0:0:
151,162,6256,2,0,P|87:172|30:154,1,120,2|2,0:0|0:0,0:0:0:0:
40,48,6901,2,0,P|104:38|161:56,1,120,2|2,0:0|0:0,0:0:0:0:
251,116,7546,1,2,0:0:0:0:
251,116,7708,2,0,L|267:203,1,60,0|0,1:0|1:0,0:0:0:0:
314,161,8030,6,0,P|383:190|365:295,1,180,2|0,1:2|1:0,0:0:0:0:
328,304,8675,2,0,P|269:301|211:315,2,120,0|0|4,1:0|1:0|0:0,0:0:0:0:
91,116,13191,6,0,L|111:255,1,120,0|0,1:0|1:0,0:0:0:0:
65,333,13837,2,0,P|120:312|180:315,1,120,0|0,1:0|1:0,0:0:0:0:
282,349,14482,6,0,B|371:335|371:335|419:239,1,180,6|0,0:0|1:0,0:0:0:0:
496,187,15288,2,0,P|451:152|379:149,1,120,2|0,0:0|1:0,0:0:0:0:
342,166,15772,1,0,0:0:0:0:
341,165,15933,6,0,P|281:160|234:124,1,120,2|0,0:0|1:0,0:0:0:0:
142,68,16579,2,0,L|147:-2,2,60,2|0|0,0:0|0:0|1:0,0:0:0:0:
94,94,17062,6,0,P|43:162|63:254,1,180,2|0,0:0|1:0,0:0:0:0:
149,188,17869,2,0,L|268:184,1,120,2|0,0:0|1:0,0:0:0:0:
324,206,18353,1,0,0:0:0:0:
324,206,18514,6,0,L|443:202,1,120,2|0,0:0|1:0,0:0:0:0:
452,310,19159,2,0,L|522:315,2,60,2|2|2,0:2|1:2|1:2,0:0:0:0:
397,308,19643,6,0,B|365:322|341:347|341:347|294:329|226:335,1,180,6|0,0:0|1:0,0:0:0:0:
124,349,20449,2,0,P|97:319|90:232,1,120,2|0,0:0|1:0,0:0:0:0:
126,205,20933,1,0,0:0:0:0:
126,205,21095,6,0,P|165:196|244:234,1,120,2|0,0:0|1:0,0:0:0:0:
287,320,21740,2,0,L|277:396,2,60,2|0|0,0:0|0:0|1:0,0:0:0:0:
333,290,22224,1,0,1:0:0:0:
333,290,22385,6,0,L|355:109,1,180,6|0,0:0|1:0,0:0:0:0:
262,55,23191,1,0,1:0:0:0:
359,9,23514,6,0,P|455:106|370:213,1,300,4|0,0:0|0:0,0:0:0:0:
189,141,24966,6,0,P|144:131|77:145,1,107.999996704102,2|0,0:0|3:0,0:0:0:0:
83,239,25611,2,0,P|127:248|194:234,1,107.999996704102,0|0,3:0|3:0,0:0:0:0:
232,212,26095,1,0,0:0:0:0:
232,212,26256,6,0,L|244:338,1,107.999996704102,0|0,3:0|3:0,0:0:0:0:
328,365,26901,2,0,L|435:354,1,107.999996704102,0|0,3:0|3:0,0:0:0:0:
425,257,27546,6,0,B|372:245|372:245|320:264,1,107.999996704102,0|0,3:0|3:0,0:0:0:0:
242,319,28191,2,0,B|191:337|191:337|138:325,1,107.999996704102,0|0,3:0|3:0,0:0:0:0:
98,308,28675,1,0,0:0:0:0:
98,308,28837,6,0,P|111:259|97:200,1,107.999996704102,0|0,3:0|3:0,0:0:0:0:
99,110,29482,1,0,3:0:0:0:
99,110,29643,2,0,L|86:53,2,53.9999983520508,0|0|0,0:0|3:0|0:0,0:0:0:0:
147,106,30127,6,0,L|264:95,1,107.999996704102,0|0,3:0|0:0,0:0:0:0:
340,51,30772,2,0,L|457:62,1,107.999996704102,0|0,3:0|3:0,0:0:0:0:
499,71,31256,1,0,0:0:0:0:
499,71,31417,6,0,P|485:129|488:198,1,107.999996704102,0|0,3:0|3:0,0:0:0:0:
423,252,32062,2,0,P|369:252|316:266,1,107.999996704102,0|0,3:0|3:0,0:0:0:0:
233,317,32708,6,0,P|199:286|172:218,1,107.999996704102,0|0,3:0|3:0,0:0:0:0:
257,179,33353,2,0,P|291:210|318:278,1,107.999996704102,0|0,3:0|3:0,0:0:0:0:
327,318,33837,1,0,0:0:0:0:
327,318,33998,6,0,L|445:322,2,107.999996704102,0|0|0,3:0|3:0|3:0,0:0:0:0:
236,352,34966,1,0,3:0:0:0:
152,284,35288,6,0,B|164:231|164:231|154:147,1,120,6|0,0:0|1:0,0:0:0:0:
122,121,35772,2,0,P|140:66|192:40,1,120,0|0,0:0|0:0,0:0:0:0:
245,52,36256,1,0,1:0:0:0:
260,159,36579,6,0,B|275:289,1,120,2|0,0:0|1:0,0:0:0:0:
287,335,37062,1,0,0:0:0:0:
287,335,37224,2,0,B|344:319|344:319|416:325,1,120,2|0,0:0|1:0,0:0:0:0:
474,241,37869,6,0,L|354:231,1,120,2|0,0:0|1:0,0:0:0:0:
385,186,38353,2,0,P|393:155|371:71,1,120,0|0,0:0|0:0,0:0:0:0:
326,42,38837,1,0,1:0:0:0:
257,124,39159,6,0,L|136:117,1,120,2|0,0:0|1:0,0:0:0:0:
83,114,39643,1,0,0:0:0:0:
59,219,39966,2,0,L|-1:222,2,60,0|0|0,0:0|1:0|0:0,0:0:0:0:
112,219,40449,6,0,P|152:259|131:337,1,120,6|0,0:0|1:0,0:0:0:0:
115,362,40933,2,0,L|234:357,1,120,0|0,0:0|0:0,0:0:0:0:
288,352,41417,1,0,1:0:0:0:
357,269,41740,6,0,P|356:210|316:167,1,120,2|0,0:0|1:0,0:0:0:0:
266,164,42224,1,0,0:0:0:0:
266,164,42385,2,0,L|246:33,1,120,2|8,0:0|3:0,0:0:0:0:
162,111,43030,6,0,P|90:124|43:105,2,120,6|0|4,0:0|3:0|1:2,0:0:0:0:
247,45,43998,1,0,1:0:0:0:
314,129,44320,6,0,L|378:133,1,60,4|0,3:2|3:0,0:0:0:0:
413,96,44643,2,0,L|477:100,1,60,4|0,3:0|3:0,0:0:0:0:
512,63,44966,1,0,1:0:0:0:
507,170,45288,1,4,3:0:0:0:
428,227,45611,6,0,P|348:220|274:253,1,161.999995056153,6|2,0:0|3:2,0:0:0:0:
249,294,46256,2,0,P|169:287|95:320,1,161.999995056153,0|2,0:0|3:2,0:0:0:0:
98,270,46901,2,0,P|95:211|82:147,1,107.999996704102,0|0,0:0|0:0,0:0:0:0:
146,86,47546,2,0,P|199:95|253:97,1,107.999996704102,0|0,0:0|0:0,0:0:0:0:
351,103,48191,6,0,P|371:42|367:-7,2,107.999996704102,0|0|0,0:0|0:0|0:0,0:0:0:0:
291,180,49159,1,0,0:0:0:0:
387,194,49482,2,0,P|428:241|433:303,1,107.999996704102,0|0,3:0|0:0,0:0:0:0:
386,365,50127,2,0,P|324:377|268:350,1,107.999996704102,0|0,3:0|1:0,0:0:0:0:
254,316,50611,6,0,L|109:308,1,120,6|0,0:0|1:0,0:0:0:0:
79,307,51095,2,0,P|100:262|104:225,1,60,0|0,1:0|0:0,0:0:0:0:
100,198,51417,2,0,P|91:165|89:111,1,60,2|0,1:2|1:0,0:0:0:0:
41,41,51901,6,0,L|182:35,1,120,6|0,0:0|0:0,0:0:0:0:
214,32,52385,2,0,L|237:113,1,60,0|0,1:0|0:0,0:0:0:0:
249,140,52708,2,0,L|321:134,1,60,2|0,1:2|1:0,0:0:0:0:
394,70,53191,6,0,P|414:116|390:203,1,120,6|0,0:0|0:0,0:0:0:0:
369,225,53675,2,0,P|354:270|353:288,1,60,0|0,1:0|0:0,0:0:0:0:
358,336,53998,2,0,P|386:340|414:351,2,60,2|8|0,0:0|3:0|3:0,0:0:0:0:
304,345,54482,5,6,0:0:0:0:
227,269,54804,2,0,L|236:186,2,60,0|0|0,1:0|0:0|1:0,0:0:0:0:
191,310,55288,2,0,P|125:302|57:329,1,120,0|0,1:0|0:0,0:0:0:0:
34,353,55772,6,0,L|20:213,1,120,4|2,0:1|1:0,0:0:0:0:
17,179,56256,1,0,0:0:0:0:
81,92,56579,2,0,L|73:22,2,60,0|2|0,0:0|1:0|0:0,0:0:0:0:
123,125,57062,6,0,P|180:136|236:107,1,120,2|2,1:0|1:0,0:0:0:0:
264,66,57546,1,0,0:0:0:0:
264,66,57708,1,2,1:0:0:0:
357,119,58030,6,0,L|433:125,2,60,2|0|2,1:0|0:0|1:0,0:0:0:0:
366,226,58675,2,0,L|442:232,2,60,2|0|2,1:0|0:0|1:0,0:0:0:0:
317,322,59320,2,0,L|257:317,1,60,2|0,1:0|0:0,0:0:0:0:
203,311,59643,6,0,P|191:244|152:205,1,120,2|2,1:0|1:0,0:0:0:0:
107,200,60127,1,0,0:0:0:0:
107,200,60288,1,2,1:0:0:0:
14,256,60611,2,0,L|7:328,1,60,2|0,1:0|1:0,0:0:0:0:
52,348,60933,6,0,L|196:362,1,120,4|2,0:1|1:0,0:0:0:0:
225,367,61417,1,0,0:0:0:0:
284,276,61740,2,0,L|277:200,2,60,0|2|0,0:0|1:0|0:0,0:0:0:0:
327,309,62224,6,0,P|383:324|452:310,1,120,2|2,1:0|1:0,0:0:0:0:
495,292,62708,1,0,0:0:0:0:
495,292,62869,1,2,1:0:0:0:
429,209,63191,2,0,P|411:160|412:131,1,60,2|0,1:0|0:0,0:0:0:0:
421,99,63514,6,0,P|403:49|323:25,1,120,2|2,1:0|1:0,0:0:0:0:
297,41,63998,1,0,0:0:0:0:
297,41,64159,2,0,L|214:49,1,60,2|0,1:0|0:0,0:0:0:0:
199,84,64482,2,0,L|116:92,1,60,2|0,1:0|0:0,0:0:0:0:
86,77,64804,5,6,1:0:0:0:
38,174,65127,2,0,B|64:227|64:227|129:237,1,120,2|2,1:0|0:0,0:0:0:0:
165,271,65611,2,0,L|156:340,2,60,2|2|2,1:0|1:0|1:0,0:0:0:0:
209,240,66095,6,0,P|247:219|342:230,1,120,4|2,0:1|1:0,0:0:0:0:
372,241,66579,1,0,0:0:0:0:
454,311,66901,2,0,L|462:373,2,60,0|2|0,0:0|1:0|0:0,0:0:0:0:
478,262,67385,6,0,B|492:215|492:215|477:144,1,120,2|2,1:0|1:0,0:0:0:0:
463,98,67869,1,0,0:0:0:0:
463,98,68030,1,2,1:0:0:0:
362,59,68353,6,0,L|349:0,2,60,2|0|2,1:0|0:0|1:0,0:0:0:0:
253,58,68998,2,0,L|240:0,2,60,2|0|2,1:0|0:0|1:0,0:0:0:0:
177,134,69643,2,0,L|189:192,1,60,2|0,1:0|0:0,0:0:0:0:
243,189,69966,6,0,P|291:225|305:289,1,120,2|2,1:0|1:0,0:0:0:0:
295,336,70449,1,0,0:0:0:0:
295,336,70611,1,2,1:0:0:0:
192,369,70933,2,0,L|110:350,1,60,2|0,1:0|1:0,1:0:0:0:
142,300,71256,6,0,B|150:247|150:247|126:168,1,120,4|2,0:1|0:0,0:0:0:0:
111,132,71740,1,0,1:0:0:0:
48,44,72062,2,0,P|101:23|166:40,1,120,0|0,0:0|1:0,0:0:0:0:
203,70,72546,6,0,L|335:63,1,120,2|2,0:0|0:0,0:0:0:0:
374,41,73030,1,0,1:0:0:0:
374,41,73192,1,2,0:0:0:0:
438,127,73514,2,0,P|447:164|444:204,1,60,2|0,0:0|1:0,0:0:0:0:
437,239,73837,6,0,L|317:245,1,120,2|2,0:0|0:0,0:0:0:0:
267,253,74320,1,0,1:0:0:0:
267,253,74482,2,0,L|260:315,1,60,2|0,0:0|0:0,0:0:0:0:
226,354,74804,2,0,L|164:361,1,60,2|0,0:0|1:0,0:0:0:0:
119,334,75127,5,4,1:0:0:0:
134,231,75449,1,2,3:2:0:0:
134,231,75611,2,0,P|140:201|135:171,1,60,2|2,3:2|3:2,0:0:0:0:
125,119,75933,2,0,L|44:133,2,60,2|2|2,3:2|3:2|3:2,0:0:0:0:
236,98,76579,5,4,3:0:0:0:
236,98,76740,1,4,3:0:0:0:
504,66,77708,6,0,B|422:30|422:30|322:52,1,180,6|0,0:0|1:0,0:0:0:0:
236,98,78514,2,0,P|176:104|117:85,1,120,2|0,0:0|1:0,0:0:0:0:
78,118,78998,1,0,0:0:0:0:
78,118,79159,6,0,P|95:174|89:234,1,120,2|0,0:0|1:0,0:0:0:0:
30,324,79804,2,0,P|17:351|12:380,2,60,2|0|0,0:0|0:0|1:0,0:0:0:0:
84,319,80288,6,0,B|129:326|164:357|164:357|204:343|252:347,1,180,2|0,0:0|1:0,0:0:0:0:
358,373,81095,2,0,L|373:242,1,120,2|0,0:0|1:0,0:0:0:0:
337,219,81579,1,0,0:0:0:0:
337,219,81740,6,0,L|352:88,1,120,2|0,0:0|1:0,0:0:0:0:
446,50,82385,2,0,L|508:54,2,60,2|0|0,0:0|1:0|1:0,0:0:0:0:
399,21,82869,6,0,P|312:16|260:85,1,180,6|0,0:0|1:0,0:0:0:0:
211,180,83675,2,0,B|175:227|175:227|106:239,1,120,2|0,0:0|1:0,0:0:0:0:
116,296,84159,1,0,0:0:0:0:
116,296,84320,6,0,B|176:306|176:306|211:353,1,120,6|0,0:0|1:0,0:0:0:0:
319,361,84966,2,0,L|396:368,2,60,4|4|0,0:3|0:3|1:0,0:0:0:0:
277,261,85611,6,0,P|261:212|345:110,1,180,4|6,0:0|0:0,0:0:0:0:
433,140,86417,1,6,0:0:0:0:
403,35,86740,1,6,0:0:0:0:
333,118,87062,5,0,3:0:0:0:
333,118,87224,2,0,L|254:119,1,60,0|0,3:0|3:0,0:0:0:0:
219,114,87546,2,0,L|206:36,2,60,8|0|0,3:0|3:0|0:0,0:0:0:0:
192,161,88030,6,0,P|45:218|136:88,1,420,6|0,0:0|0:0,0:0:0:0:
