osu file format v14

[General]
AudioFilename: audio.mp3
AudioLeadIn: 0
PreviewTime: 55691
Countdown: 0
SampleSet: Soft
StackLeniency: 0.3
Mode: 0
LetterboxInBreaks: 0
WidescreenStoryboard: 0

[Editor]
DistanceSpacing: 1.2
BeatDivisor: 4
GridSize: 32
TimelineZoom: 1.4

[Metadata]
Title:GAMERS!
TitleUnicode:GAMERS!
Artist:Kanemoto Hisako & Iwami Manaka & Ookubo Rumi
ArtistUnicode:金元寿子&石見舞菜香&大久保瑠美
Creator:Ohwow
Version:Hard
Source:ゲーマーズ!
Tags:Gemazu TV Size Opening Mafumafu まふまふ 天道花憐 星ノ守千秋 亜玖璃 Tendou Karen Aguri Chiaki Hoshinomori
BeatmapID:1376906
BeatmapSetID:645591

[Difficulty]
HPDrainRate:5
CircleSize:3.8
OverallDifficulty:6
ApproachRate:8
SliderMultiplier:1.4
SliderTickRate:1

[Events]
//Background and Video events
0,0,"bg.jpg",0,0
Video,0,"video.avi"
//Break Periods
2,9520,12441
//Storyboard Layer 0 (Background)
//Storyboard Layer 1 (Fail)
//Storyboard Layer 2 (Pass)
//Storyboard Layer 3 (Foreground)
//Storyboard Sound Samples

[TimingPoints]
450,322.58064516129,4,2,1,70,1,0
14482,-90.9090909090909,4,2,1,70,0,0
23837,-125,4,2,1,70,0,0
24643,-125,4,2,1,5,0,0
24804,-100,4,2,1,70,0,0
35288,-90.9090909090909,4,2,1,70,0,0
45611,-125,4,2,1,70,0,0
50611,-90.9090909090909,4,2,1,70,0,0
55611,-90.9090909090909,4,2,1,5,0,0
55772,-83.3333333333333,4,2,1,80,0,1
65933,-90.9090909090909,4,2,1,80,0,0
66095,-83.3333333333333,4,2,1,80,0,1
76579,-100,4,2,1,70,0,0
77708,-90.9090909090909,4,2,1,70,0,0
88030,-166.666666666667,4,2,1,70,0,0
89159,-166.666666666667,4,2,1,5,0,0

[Colours]
Combo1 : 255,53,58
Combo2 : 250,190,224
Combo3 : 170,216,253
Combo4 : 207,69,241
Combo5 : 205,242,168
Combo6 : 247,216,108
SliderTrackOverride : 30,30,30
SliderBorder : 255,255,250

[HitObjects]
246,306,450,5,4,3:0:0:0:
246,306,611,1,4,3:0:0:0:
49,192,1095,5,4,3:0:0:0:
49,192,1256,1,4,3:0:0:0:
246,79,1740,5,4,3:0:0:0:
246,79,1901,1,4,3:0:0:0:
115,306,2385,5,4,3:0:0:0:
115,306,2546,1,4,3:0:0:0:
115,79,3030,5,4,3:0:0:0:
115,79,3191,1,4,3:0:0:0:
312,193,3675,5,4,3:0:0:0:
312,193,3836,1,4,3:0:0:0:
396,47,4159,6,0,P|340:15|265:34,1,140,4|0,0:0|0:0,0:0:0:0:
214,94,4643,1,0,1:0:0:0:
146,44,4804,2,0,L|73:40,1,70,0|4,1:0|3:0,0:0:0:0:
50,120,5127,2,0,L|122:122,1,70,4|4,3:0|3:0,0:0:0:0:
214,94,5449,6,0,P|232:174|230:258,1,140,4|0,0:0|0:0,0:0:0:0:
200,309,5933,2,0,P|235:316|269:308,1,70,2|0,0:0|0:0,0:0:0:0:
330,251,6256,2,0,P|363:243|398:249,2,70,2|0|2,0:0|0:0|0:0,0:0:0:0:
232,231,6740,6,0,L|138:228,1,70,0|2,0:0|0:0,0:0:0:0:
93,277,7062,1,0,0:0:0:0:
44,207,7224,1,2,0:0:0:0:
112,158,7385,2,0,P|128:128|131:91,1,70,0|2,0:0|0:0,0:0:0:0:
51,58,7708,2,0,P|34:87|31:124,1,70,0|0,1:0|1:0,0:0:0:0:
132,93,8030,6,0,L|289:75,1,140,2|0,1:2|0:0,0:0:0:0:
344,35,8514,1,0,1:0:0:0:
392,104,8675,2,0,L|410:137,3,35,0|0|0|0,1:0|1:0|1:0|1:0,0:0:0:0:
412,177,8998,2,0,L|401:213,3,35,0|0|0|0,1:0|1:0|1:0|0:0,0:0:0:0:
422,247,9320,5,4,0:0:0:0:
76,29,13191,5,0,1:0:0:0:
220,140,13514,1,0,1:0:0:0:
52,210,13837,2,0,L|24:154,6,35,0|0|0|0|0|2|2,1:0|0:0|1:0|1:0|1:0|1:2|1:2,0:0:0:0:
101,315,14482,6,0,L|285:307,1,154.000004699707,6|0,0:0|0:0,0:0:0:0:
347,301,14966,2,0,L|379:226,1,77.0000023498536,0|0,1:0|0:0,0:0:0:0:
325,153,15288,2,0,L|294:223,1,77.0000023498536,2|0,0:0|0:0,0:0:0:0:
254,308,15611,1,0,1:0:0:0:
202,231,15772,1,0,0:0:0:0:
164,315,15933,6,0,L|89:347,1,77.0000023498536,2|0,0:0|0:0,0:0:0:0:
18,290,16255,2,0,L|88:259,1,77.0000023498536,0|0,1:0|0:0,0:0:0:0:
125,172,16579,1,2,0:0:0:0:
63,103,16740,2,0,P|40:134|33:171,1,77.0000023498536,0|0,0:0|1:0,0:0:0:0:
165,86,17062,6,0,L|353:78,1,154.000004699707,2|0,0:0|0:0,0:0:0:0:
408,104,17546,2,0,P|409:65|397:29,1,77.0000023498536,0|0,1:0|0:0,0:0:0:0:
318,79,17869,2,0,P|315:116|327:152,1,77.0000023498536,2|0,0:0|0:0,0:0:0:0:
387,210,18191,1,0,1:0:0:0:
303,250,18353,1,0,0:0:0:0:
236,186,18514,6,0,P|198:179|160:187,1,77.0000023498536,2|0,0:0|0:0,0:0:0:0:
122,271,18837,2,0,P|158:276|196:268,1,77.0000023498536,0|0,1:0|0:0,0:0:0:0:
236,186,19159,2,0,L|218:117,2,38.5000011749268,2|0|2,0:2|0:2|1:2,0:0:0:0:
303,250,19482,1,2,1:2:0:0:
371,157,19643,6,0,B|371:175|377:189|377:189|402:218|407:267|384:302,1,154.000004699707,6|0,0:0|0:0,0:0:0:0:
300,342,20127,2,0,B|201:350,1,77.0000023498536,0|0,1:0|0:0,0:0:0:0:
226,256,20449,2,0,B|302:249,1,77.0000023498536,2|0,0:0|0:0,0:0:0:0:
383,302,20772,1,0,1:0:0:0:
453,242,20933,1,0,0:0:0:0:
424,153,21095,6,0,P|422:112|434:61,1,77.0000023498536,2|0,0:0|0:0,0:0:0:0:
337,63,21417,2,0,P|339:104|327:155,1,77.0000023498536,0|0,1:0|0:0,0:0:0:0:
245,172,21740,1,2,0:0:0:0:
183,103,21901,2,0,B|135:82|135:82|21:106,1,154.000004699707,0|0,0:0|1:0,0:0:0:0:
30,113,22304,1,0,1:0:0:0:
24,123,22385,6,0,L|26:225,1,77.0000023498536,6|0,0:0|0:0,0:0:0:0:
15,292,22708,1,0,1:0:0:0:
106,275,22869,1,0,1:0:0:0:
106,275,23191,6,0,L|209:270,1,77.0000023498536,0|0,1:0|0:0,0:0:0:0:
275,264,23514,1,4,0:0:0:0:
275,264,23837,6,0,L|271:193,2,56,0|0|0,0:0|0:0|0:0,0:0:0:0:
329,333,24320,2,0,P|277:353|225:338,1,112
182,271,24804,1,2,0:0:0:0:
182,271,24885,1,2,0:0:0:0:
182,271,24966,6,0,L|187:125,1,140,2|0,0:0|3:0,0:0:0:0:
219,53,25449,2,0,P|258:47|292:50,1,70,0|0,0:0|3:0,0:0:0:0:
363,86,25772,2,0,P|397:88|432:82,1,70,0|0,0:0|3:0,0:0:0:0:
505,39,26095,1,0,0:0:0:0:
501,136,26256,6,0,L|493:293,1,140,0|0,3:0|3:0,0:0:0:0:
496,360,26740,1,0,0:0:0:0:
415,336,26901,2,0,L|330:328,1,70,0|0,3:0|0:0,0:0:0:0:
271,370,27224,2,0,L|186:378,1,70,0|0,3:0|0:0,0:0:0:0:
142,298,27546,6,0,P|193:288|241:201,1,140,0|0,3:0|3:0,0:0:0:0:
154,137,28030,2,0,L|151:207,1,70,0|0,0:0|3:0,0:0:0:0:
70,232,28353,2,0,L|66:162,1,70,0|0,0:0|3:0,0:0:0:0:
75,78,28675,1,0,0:0:0:0:
154,137,28837,6,0,B|188:149|223:143|223:143|256:126|289:125,1,140,0|0,3:0|3:0,0:0:0:0:
373,125,29320,2,0,P|367:158|345:189,1,70,0|0,0:0|3:0,0:0:0:0:
273,230,29643,1,0,0:0:0:0:
268,313,29804,2,0,P|280:345|307:368,1,70,0|0,3:0|0:0,0:0:0:0:
383,306,30127,6,0,P|445:278|511:296,1,140,0|0,3:0|0:0,0:0:0:0:
507,212,30611,2,0,L|501:142,1,70,0|0,0:0|3:0,0:0:0:0:
451,74,30933,2,0,L|381:68,1,70,0|0,0:0|3:0,0:0:0:0:
306,29,31256,1,0,0:0:0:0:
308,126,31417,6,0,P|284:177|207:207,1,140,0|0,3:0|3:0,0:0:0:0:
131,175,31901,1,0,0:0:0:0:
142,258,32062,2,0,L|152:349,1,70,0|0,3:0|0:0,0:0:0:0:
72,360,32385,2,0,L|64:290,1,70,0|0,3:0|0:0,0:0:0:0:
172,346,32708,6,0,P|223:357|301:296,1,140,0|0,3:0|3:0,0:0:0:0:
333,238,33191,2,0,P|368:228|401:231,1,70,0|0,0:0|3:0,0:0:0:0:
293,312,33514,2,0,P|252:257|267:186,1,140,0|0,0:0|0:0,0:0:0:0:
339,152,33998,6,0,L|329:68,1,70,0|0,3:0|0:0,0:0:0:0:
420,37,34320,2,0,L|411:106,1,70,0|0,3:0|0:0,0:0:0:0:
313,61,34643,2,0,P|245:52|190:96,1,140,0|0,3:0|3:0,0:0:0:0:
28,253,35288,6,0,P|33:176|27:100,1,154.000004699707,6|0,0:0|1:0,0:0:0:0:
62,11,35772,2,0,P|95:33|116:65,1,77.0000023498536,0|2,0:0|0:0,0:0:0:0:
112,156,36095,2,0,P|133:187|165:208,1,77.0000023498536,0|0,0:0|1:0,0:0:0:0:
257,212,36417,1,0,0:0:0:0:
332,134,36579,6,0,B|406:117|406:117|498:155,1,154.000004699707,2|0,0:0|1:0,0:0:0:0:
429,225,37062,1,0,0:0:0:0:
463,311,37224,2,0,P|447:348|414:376,1,77.0000023498536,2|0,0:0|0:0,0:0:0:0:
328,372,37546,2,0,P|300:345|285:310,1,77.0000023498536,0|0,1:0|0:0,0:0:0:0:
270,204,37869,6,0,B|224:203|196:179|196:179|167:200|126:199,1,154.000004699707,2|0,0:0|1:0,0:0:0:0:
35,186,38353,2,0,P|51:142|85:117,1,77.0000023498536,0|2,0:0|0:0,0:0:0:0:
126,199,38675,2,0,P|109:242|75:267,1,77.0000023498536,0|0,0:0|1:0,0:0:0:0:
58,350,38998,1,0,0:0:0:0:
164,370,39159,6,0,B|213:346|213:346|336:356,1,154.000004699707,2|0,0:0|1:0,0:0:0:0:
373,284,39643,2,0,P|336:264|299:262,1,77.0000023498536,0|2,0:0|0:0,0:0:0:0:
208,262,39966,1,0,0:0:0:0:
254,182,40127,2,0,P|274:145|276:108,1,77.0000023498536,0|0,1:0|0:0,0:0:0:0:
367,166,40449,6,0,P|415:170|482:83,1,154.000004699707,6|0,0:0|1:0,0:0:0:0:
441,14,40933,2,0,L|364:18,1,77.0000023498536,0|2,0:0|0:0,0:0:0:0:
290,74,41256,2,0,L|213:70,1,77.0000023498536,0|0,0:0|1:0,0:0:0:0:
131,26,41579,1,0,0:0:0:0:
144,132,41740,6,0,P|113:200|41:230,1,154.000004699707,2|0,0:0|1:0,0:0:0:0:
5,314,42224,1,0,0:0:0:0:
96,306,42385,2,0,L|172:301,1,77.0000023498536,2|0,0:0|0:0,0:0:0:0:
247,243,42708,1,8,3:0:0:0:
247,243,42869,1,8,3:0:0:0:
347,282,43030,6,0,P|384:284|425:272,1,77.0000023498536,6|8,0:0|3:0,0:0:0:0:
414,181,43353,2,0,P|375:177|334:189,1,77.0000023498536,0|0,3:0|0:0,0:0:0:0:
247,243,43675,2,0,L|241:147,1,77.0000023498536,4|0,1:2|1:0,0:0:0:0:
136,140,43998,2,0,L|140:216,1,77.0000023498536,0|0,1:0|1:0,0:0:0:0:
148,324,44320,5,4,3:2:0:0:
148,324,44482,1,0,3:0:0:0:
54,270,44643,1,4,3:0:0:0:
54,270,44804,1,0,3:0:0:0:
3,359,44966,5,0,1:0:0:0:
37,146,45288,1,4,3:0:0:0:
37,146,45611,6,0,L|208:123,1,168,6|2,0:0|3:2,0:0:0:0:
264,64,46256,2,0,L|434:86,1,168,0|2,0:0|3:2,0:0:0:0:
389,166,46901,6,0,P|383:193|384:221,1,56
438,285,47224,2,0,P|438:312|433:340,1,56,0|2,0:0|3:2,0:0:0:0:
357,305,47546,2,0,P|299:298|241:326,1,112,0|0,0:0|0:0,0:0:0:0:
181,366,48030,1,2,3:2:0:0:
92,330,48191,6,0,L|77:250,1,56,0|0,0:0|0:0,0:0:0:0:
160,244,48514,2,0,L|145:164,1,56,0|2,0:0|3:2,0:0:0:0:
65,191,48837,2,0,L|50:111,1,56,0|0,0:0|0:0,0:0:0:0:
133,105,49160,2,0,L|118:25,1,56,0|2,0:0|3:2,0:0:0:0:
219,131,49482,6,0,L|349:139,2,112,0|0|0,3:0|0:0|3:0,0:0:0:0:
253,54,50288,2,0,L|308:57,1,56,0|0,3:0|1:0,0:0:0:0:
420,4,50611,6,0,P|390:73|431:142,1,154.000004699707,6|0,0:0|1:0,0:0:0:0:
506,182,51095,1,0,1:0:0:0:
461,262,51256,1,0,0:0:0:0:
380,217,51417,2,0,P|342:216|284:228,1,77.0000023498536,2|0,1:2|1:0,0:0:0:0:
231,280,51740,1,0,1:0:0:0:
126,306,51901,6,0,B|109:251|109:251|131:202|122:148,1,154.000004699707,6|0,0:0|0:0,0:0:0:0:
82,73,52385,1,0,1:0:0:0:
30,149,52546,1,0,0:0:0:0:
123,157,52708,2,0,P|153:133|172:99,1,77.0000023498536,2|0,1:2|1:0,0:0:0:0:
184,8,53030,1,0,1:0:0:0:
292,19,53191,6,0,B|369:5|369:5|447:47,1,154.000004699707,6|0,0:0|0:0,0:0:0:0:
357,90,53675,2,0,L|354:166,1,77.0000023498536,0|0,1:0|0:0,0:0:0:0:
284,228,53998,2,0,L|287:304,2,77.0000023498536,2|8|0,0:0|3:0|3:0,0:0:0:0:
189,174,54482,5,6,0:0:0:0:
189,174,54804,2,0,L|113:177,2,77.0000023498536,0|0|0,1:0|0:0|1:0,0:0:0:0:
270,102,55288,2,0,B|327:97|327:97|371:106|371:106|427:103,1,154.000004699707,0|0,1:0|0:0,0:0:0:0:
445,101,55772,6,0,L|444:285,1,167.999994873047,4|2,0:1|1:0,0:0:0:0:
377,345,56256,2,0,P|335:345|298:326,1,83.9999974365235,0|2,0:0|1:0,0:0:0:0:
248,237,56579,2,0,L|259:130,2,83.9999974365235,0|2|0,0:0|1:0|0:0,0:0:0:0:
174,305,57062,6,0,P|132:305|95:286,1,83.9999974365235,2|0,1:0|0:0,0:0:0:0:
70,193,57385,1,2,1:0:0:0:
70,193,57546,1,0,0:0:0:0:
149,117,57708,2,0,P|217:100|279:129,1,125.999996154785,2|0,1:0|0:0,0:0:0:0:
304,153,58030,6,0,L|387:149,1,83.9999974365235,2|0,1:0|0:0,0:0:0:0:
411,248,58353,2,0,L|285:254,1,125.999996154785,2|0,1:0|0:0,0:0:0:0:
234,257,58675,1,2,1:0:0:0:
173,337,58837,1,0,0:0:0:0:
80,298,58998,2,0,B|57:247|57:247|62:176,1,125.999996154785,2|0,1:0|0:0,0:0:0:0:
72,130,59320,1,2,1:0:0:0:
72,130,59482,1,0,0:0:0:0:
153,44,59643,6,0,B|184:52|205:75|205:75|254:58|338:59,1,167.999994873047,2|2,1:0|1:0,0:0:0:0:
414,95,60127,1,0,0:0:0:0:
347,181,60288,2,0,P|336:229|339:277,1,83.9999974365235,2|0,1:0|0:0,0:0:0:0:
424,330,60611,2,0,L|476:339,3,41.9999987182618,2|0|0|0,1:0|1:0|1:0|1:0,0:0:0:0:
494,384,60933,6,0,L|511:189,1,167.999994873047,4|2,0:1|1:0,0:0:0:0:
451,133,61417,2,0,P|402:112|354:117,1,83.9999974365235,0|2,0:0|1:0,0:0:0:0:
303,186,61740,2,0,P|261:184|224:165,2,83.9999974365235,0|2|0,0:0|1:0|0:0,0:0:0:0:
279,87,62224,6,0,P|241:68|200:66,1,83.9999974365235,2|0,1:0|0:0,0:0:0:0:
101,86,62546,1,2,1:0:0:0:
101,86,62708,1,0,0:0:0:0:
145,186,62869,2,0,P|183:167|224:165,1,83.9999974365235,2|0,1:0|0:0,0:0:0:0:
320,193,63191,1,2,1:0:0:0:
328,293,63353,1,0,0:0:0:0:
414,241,63514,6,0,L|420:118,1,83.9999974365235,2|0,1:0|0:0,0:0:0:0:
423,55,63837,1,2,1:0:0:0:
330,95,63998,1,0,0:0:0:0:
248,37,64159,2,0,P|203:31|161:40,1,83.9999974365235,2|0,1:0|0:0,0:0:0:0:
67,122,64482,2,0,P|112:128|154:119,1,83.9999974365235,2|0,1:0|0:0,0:0:0:0:
248,37,64804,6,0,P|233:122|296:191,1,167.999994873047,6|2,1:0|1:0,0:0:0:0:
395,158,65288,2,0,L|423:211,3,41.9999987182618,0|0|2|0,1:0|0:0|0:0|1:0,0:0:0:0:
413,250,65611,2,0,L|395:307,3,41.9999987182618,2|2|2|2,1:0|1:0|1:0|0:0,0:0:0:0:
400,338,65933,1,2,0:0:0:0:
397,349,66014,1,2,0:0:0:0:
393,361,66095,6,0,L|186:353,1,167.999994873047,4|2,0:1|1:0,0:0:0:0:
124,349,66579,2,0,P|123:307|111:267,1,83.9999974365235,0|2,0:0|1:0,0:0:0:0:
81,171,66901,2,0,P|39:170|0:158,2,83.9999974365235,0|2|0,0:0|1:0|0:0,0:0:0:0:
179,194,67385,6,0,L|297:184,1,83.9999974365235,2|0,1:0|0:0,0:0:0:0:
333,114,67708,1,2,1:0:0:0:
333,114,67869,1,0,0:0:0:0:
235,66,68030,2,0,P|172:76|111:67,1,125.999996154785,2|0,1:0|0:0,0:0:0:0:
60,56,68353,6,0,P|69:103|63:146,1,83.9999974365235,2|0,1:0|0:0,0:0:0:0:
53,238,68675,2,0,B|114:218|114:218|175:226,1,125.999996154785,2|0,1:0|0:0,0:0:0:0:
225,235,68998,1,2,1:0:0:0:
228,134,69159,1,0,0:0:0:0:
320,177,69320,2,0,L|306:302,1,125.999996154785,2|0,1:0|0:0,0:0:0:0:
304,357,69643,1,2,1:0:0:0:
304,357,69804,1,0,0:0:0:0:
420,377,69966,6,0,B|399:314|399:314|409:212,1,167.999994873047,2|2,1:0|1:0,0:0:0:0:
422,104,70449,1,0,0:0:0:0:
323,154,70611,2,0,P|283:169|228:166,1,83.9999974365235,2|0,1:0|0:0,0:0:0:0:
139,131,70933,2,0,L|132:60,3,41.9999987182618,2|0|0|0,1:0|1:0|1:0|1:0,0:0:0:0:
92,54,71256,6,0,L|259:60,1,167.999994873047,4|2,0:1|0:0,0:0:0:0:
242,169,71740,2,0,L|227:279,1,83.9999974365235,0|2,1:0|0:0,0:0:0:0:
133,224,72062,2,0,P|87:222|29:248,2,83.9999974365235,0|2|0,0:0|0:0|1:0,0:0:0:0:
230,252,72546,6,0,P|276:254|334:228,1,83.9999974365235,2|0,0:0|0:0,0:0:0:0:
397,188,72869,1,2,0:0:0:0:
472,254,73030,1,0,1:0:0:0:
509,161,73191,2,0,L|513:64,1,83.9999974365235,2|0,0:0|0:0,0:0:0:0:
412,90,73514,2,0,P|370:96|328:93,1,83.9999974365235,2|0,0:0|1:0,0:0:0:0:
245,22,73837,6,0,P|203:18|161:25,1,83.9999974365235,2|0,0:0|0:0,0:0:0:0:
88,94,74159,1,2,0:0:0:0:
1,44,74320,1,0,1:0:0:0:
1,145,74482,2,0,P|5:198|-2:234,1,83.9999974365235,2|0,0:0|0:0,0:0:0:0:
69,300,74804,2,0,P|110:294|152:298,1,83.9999974365235,2|0,0:0|1:0,0:0:0:0:
260,344,75127,6,0,L|420:336,1,125.999996154785,4|0,0:0|0:0,0:0:0:0:
403,285,75449,2,0,L|486:289,2,83.9999974365235,2|2|2,3:2|3:2|3:2,0:0:0:0:
307,216,75933,2,0,B|289:174|304:138|304:138|322:100|305:45,1,167.999994873047,2|2,3:2|3:2,0:0:0:0:
207,97,76417,1,2,3:2:0:0:
116,57,76579,5,4,3:0:0:0:
116,57,76740,1,4,3:0:0:0:
22,227,77224,6,0,L|31:277,5,35,0|0|0|0|0|0,1:0|1:0|1:0|1:0|1:0|1:0,0:0:0:0:
0,302,77708,6,0,L|183:289,1,154.000004699707,6|0,0:0|0:0,0:0:0:0:
130,201,78191,2,0,L|109:116,1,77.0000023498536,0|0,1:0|0:0,0:0:0:0:
200,151,78514,2,0,L|218:225,1,77.0000023498536,2|0,0:0|0:0,0:0:0:0:
241,315,78837,1,0,1:0:0:0:
306,249,78998,1,0,0:0:0:0:
329,339,79159,6,0,L|414:360,1,77.0000023498536,2|0,0:0|0:0,0:0:0:0:
468,291,79482,2,0,L|393:272,1,77.0000023498536,0|0,1:0|0:0,0:0:0:0:
306,249,79804,1,2,0:0:0:0:
371,182,79966,2,0,P|379:142|374:105,1,77.0000023498536,0|0,0:0|1:0,0:0:0:0:
272,141,80288,6,0,L|89:128,1,154.000004699707,2|0,0:0|0:0,0:0:0:0:
39,81,80772,2,0,P|65:52|100:38,1,77.0000023498536,0|0,1:0|0:0,0:0:0:0:
118,130,81095,2,0,P|92:158|57:172,1,77.0000023498536,2|0,0:0|0:0,0:0:0:0:
44,262,81417,1,0,1:0:0:0:
104,332,81579,1,0,0:0:0:0:
196,330,81739,6,0,P|224:304|238:269,1,77.0000023498536,2|0,0:0|0:0,0:0:0:0:
190,188,82062,2,0,P|161:213|147:248,1,77.0000023498536,0|0,1:0|0:0,0:0:0:0:
238,268,82385,2,0,L|299:277,2,38.5000011749268,2|0|0,0:0|1:0|1:0,0:0:0:0:
147,249,82708,1,0,1:0:0:0:
126,135,82869,6,0,P|195:105|260:144,1,154.000004699707,6|0,0:0|0:0,0:0:0:0:
350,134,83353,2,0,L|450:129,1,77.0000023498536,0|0,1:0|0:0,0:0:0:0:
374,54,83675,2,0,L|297:57,1,77.0000023498536,2|0,0:0|0:0,0:0:0:0:
204,65,83998,1,0,1:0:0:0:
258,141,84159,1,0,0:0:0:0:
183,210,84320,6,0,P|170:246|171:284,1,77.0000023498536,6|0,0:0|0:0,0:0:0:0:
79,268,84643,2,0,P|91:231|90:193,1,77.0000023498536,0|0,1:0|3:0,0:0:0:0:
67,103,84966,2,0,L|2:80,2,38.5000011749268,4|4|4,0:3|0:3|0:3,0:0:0:0:
160,67,85288,1,0,1:0:0:0:
241,128,85449,1,2,0:0:0:0:
249,135,85530,1,2,0:0:0:0:
258,141,85611,6,0,L|343:136,2,77.0000023498536,4|0|0,0:0|0:0|1:0,0:0:0:0:
160,67,86095,1,6,0:0:0:0:
265,220,86417,1,6,0:0:0:0:
346,53,86740,1,6,0:0:0:0:
265,220,87062,6,0,L|254:319,2,77.0000023498536,0|0|0,3:0|3:0|3:0,0:0:0:0:
273,127,87546,1,8,3:0:0:0:
284,129,87627,1,0,3:0:0:0:
295,131,87708,1,0,3:0:0:0:
354,219,87869,1,0,0:0:0:0:
432,148,88030,6,0,B|457:91|457:91|283:75|283:75|295:133,1,293.999991027832,6|0,0:0|0:0,0:0:0:0:
