osu file format v14

[General]
AudioFilename: audio.mp3
AudioLeadIn: 0
PreviewTime: 55691
Countdown: 0
SampleSet: Soft
StackLeniency: 0.3
Mode: 0
LetterboxInBreaks: 0
WidescreenStoryboard: 0

[Editor]
DistanceSpacing: 2
BeatDivisor: 4
GridSize: 32
TimelineZoom: 1.4

[Metadata]
Title:GAMERS!
TitleUnicode:GAMERS!
Artist:Kanemoto Hisako & Iwami Manaka & Ookubo Rumi
ArtistUnicode:金元寿子&石見舞菜香&大久保瑠美
Creator:Ohwow
Version:Extra
Source:ゲーマーズ!
Tags:Gemazu TV Size Opening Mafumafu まふまふ 天道花憐 星ノ守千秋 亜玖璃 Tendou Karen Aguri Chiaki Hoshinomori
BeatmapID:1367999
BeatmapSetID:645591

[Difficulty]
HPDrainRate:6
CircleSize:4.2
OverallDifficulty:8.6
ApproachRate:9.3
SliderMultiplier:2
SliderTickRate:1

[Events]
//Background and Video events
0,0,"bg.jpg",0,0
Video,0,"video.avi"
//Break Periods
//Storyboard Layer 0 (Background)
//Storyboard Layer 1 (Fail)
//Storyboard Layer 2 (Pass)
//Storyboard Layer 3 (Foreground)
//Storyboard Sound Samples

[TimingPoints]
450,322.58064516129,4,2,1,70,1,0
450,-133.333333333333,4,2,1,70,0,0
4159,-100,4,2,1,70,0,0
5449,-133.333333333333,4,2,1,70,0,0
9320,-166.666666666667,4,2,1,70,0,0
9562,-166.666666666667,4,2,1,5,0,0
9643,-166.666666666667,4,2,1,50,0,0
13191,-66.6666666666667,4,2,1,70,0,0
13272,-66.6666666666667,4,2,1,5,0,0
13514,-66.6666666666667,4,2,1,70,0,0
13595,-66.6666666666667,4,2,1,5,0,0
13837,-125,4,2,1,70,0,0
14482,-100,4,2,1,70,0,0
23917,-100,4,2,1,5,0,0
23998,-117.647058823529,4,2,1,70,0,0
24079,-117.647058823529,4,2,1,5,0,0
24159,-142.857142857143,4,2,1,70,0,0
24240,-142.857142857143,4,2,1,5,0,0
24320,-200,4,2,1,70,0,0
24643,-200,4,2,1,5,0,0
24804,-133.333333333333,4,2,1,50,0,0
24966,-133.333333333333,4,2,1,70,0,0
35288,-111.111111111111,4,2,1,70,0,0
43030,-100,4,2,1,70,0,0
45611,-200,4,2,1,70,0,0
50611,-100,4,2,1,70,0,0
54804,-66.6666666666667,4,2,1,70,0,0
55288,-133.333333333333,4,2,1,70,0,0
55611,-133.333333333333,4,2,1,5,0,0
55772,-100,4,2,1,80,0,1
65933,-100,4,2,1,80,0,0
66095,-100,4,2,1,80,0,1
75530,-100,4,2,1,5,0,1
75611,-100,4,2,1,80,0,1
75691,-100,4,2,1,5,0,1
75772,-100,4,2,1,80,0,1
75853,-100,4,2,1,5,0,1
75933,-100,4,2,1,80,0,1
76014,-100,4,2,1,5,0,1
76095,-100,4,2,1,80,0,1
76175,-100,4,2,1,5,0,1
76256,-100,4,2,1,80,0,1
76337,-100,4,2,1,5,0,1
76417,-100,4,2,1,80,0,1
76498,-100,4,2,1,5,0,1
76579,-100,4,2,1,70,0,0
88030,-142.857142857143,4,2,1,70,0,0
88111,-142.857142857143,4,2,1,5,0,0

[Colours]
Combo1 : 255,53,58
Combo2 : 250,190,224
Combo3 : 170,216,253
Combo4 : 207,69,241
Combo5 : 205,242,168
Combo6 : 247,216,108
SliderTrackOverride : 30,30,30
SliderBorder : 255,255,250

[HitObjects]
451,171,450,5,4,3:0:0:0:
207,343,611,1,4,3:0:0:0:
352,30,1095,5,4,3:0:0:0:
378,328,1256,1,4,3:0:0:0:
181,45,1740,5,4,3:0:0:0:
451,171,1901,1,4,3:0:0:0:
108,201,2385,5,4,3:0:0:0:
352,30,2546,1,4,3:0:0:0:
207,343,3030,5,4,3:0:0:0:
181,45,3191,1,4,3:0:0:0:
378,328,3675,5,4,3:0:0:0:
108,201,3837,1,4,3:0:0:0:
108,201,4159,6,0,L|284:187,1,150,4|0,0:0|0:0,0:0:0:0:
309,184,4482,1,0,0:0:0:0:
193,87,4643,1,0,1:0:0:0:
162,282,4804,1,0,1:0:0:0:
158,306,4885,1,0,0:0:0:0:
154,330,4966,1,4,3:0:0:0:
189,111,5127,1,4,3:0:0:0:
306,273,5288,1,4,3:0:0:0:
436,83,5449,6,0,P|338:74|298:130,1,150.000005722046,4|0,0:0|0:0,0:0:0:0:
406,274,5933,2,0,P|426:241|433:205,1,75.0000028610231,2|0,0:0|0:0,0:0:0:0:
262,276,6256,1,2,0:0:0:0:
383,384,6417,1,0,0:0:0:0:
334,204,6579,1,2,0:0:0:0:
190,348,6740,6,0,P|153:343|120:324,1,75.0000028610231,0|2,0:0|0:0,0:0:0:0:
152,166,7062,1,0,0:0:0:0:
262,276,7224,1,2,0:0:0:0:
215,91,7385,2,0,P|182:72|145:68,1,75.0000028610231,0|2,0:0|0:0,0:0:0:0:
16,105,7708,2,0,P|14:86|13:67,1,37.5000014305115,0|0,1:0|1:0,0:0:0:0:
152,166,7869,2,0,P|151:184|149:203,1,37.5000014305115,0|0,1:0|1:0,0:0:0:0:
52,320,8030,5,2,1:2:0:0:
79,293,8111,1,0,3:0:0:0:
113,278,8191,1,0,3:0:0:0:
150,277,8272,1,0,3:0:0:0:
185,291,8353,2,0,L|250:282,1,37.5000014305115,0|0,0:0|0:0,0:0:0:0:
341,344,8514,2,0,L|379:349,1,37.5000014305115,0|0,1:0|1:0,0:0:0:0:
460,216,8675,6,0,L|418:209,1,37.5000014305115,0|0,1:0|1:0,0:0:0:0:
340,93,8837,1,0,1:0:0:0:
340,93,8917,1,0,1:0:0:0:
340,93,8998,2,0,L|402:86,1,37.5000014305115,0|0,1:0|1:0,0:0:0:0:
253,211,9159,1,0,1:0:0:0:
92,77,9320,6,0,P|48:74|9:96,1,89.9999972534181,4|0,0:0|0:0,0:0:0:0:
67,156,9643,1,0,0:0:0:0:
70,167,9804,1,0,0:0:0:0:
73,178,9966,1,0,0:0:0:0:
75,189,10127,1,0,0:0:0:0:
78,200,10288,1,0,0:0:0:0:
81,211,10449,1,0,0:0:0:0:
84,222,10611,1,0,0:0:0:0:
84,222,10933,5,0,0:0:0:0:
81,211,11095,1,0,0:0:0:0:
78,200,11256,1,0,0:0:0:0:
75,189,11417,1,0,0:0:0:0:
73,178,11578,1,0,0:0:0:0:
70,167,11740,1,0,0:0:0:0:
67,156,11901,1,0,0:0:0:0:
67,156,12224,5,0,0:0:0:0:
70,167,12385,1,0,0:0:0:0:
73,178,12547,1,0,0:0:0:0:
75,189,12708,1,0,0:0:0:0:
78,200,12869,1,0,0:0:0:0:
81,211,13030,1,0,0:0:0:0:
84,222,13191,6,0,L|187:211,1,75.0000028610231,0|0,1:0|0:0,0:0:0:0:
431,188,13514,2,0,L|356:195,1,75.0000028610231,0|0,1:0|0:0,0:0:0:0:
171,114,13837,6,0,L|217:177,1,40,0|0,1:0|0:0,0:0:0:0:
342,294,13998,2,0,L|295:231,1,40,0|0,1:0|1:0,0:0:0:0:
321,100,14159,2,0,L|298:152,1,40,0|2,1:0|1:2,0:0:0:0:
192,308,14320,2,0,L|215:256,1,40,2|2,1:2|1:2,0:0:0:0:
45,90,14482,6,0,L|247:68,1,200,6|0,0:0|0:0,0:0:0:0:
259,205,14966,2,0,L|208:199,1,50,0|0,1:0|0:0,0:0:0:0:
109,187,15127,1,0,0:0:0:0:
203,287,15288,2,0,L|152:281,1,50,2|0,0:0|0:0,0:0:0:0:
53,269,15449,1,0,0:0:0:0:
246,376,15611,1,0,1:0:0:0:
259,205,15772,1,0,0:0:0:0:
451,312,15933,6,0,L|400:306,1,50,2|0,0:0|0:0,0:0:0:0:
301,294,16094,1,0,0:0:0:0:
409,223,16256,2,0,L|358:217,1,50,0|0,1:0|0:0,0:0:0:0:
259,205,16416,1,0,0:0:0:0:
345,384,16579,1,2,0:0:0:0:
445,191,16740,2,0,L|345:179,1,100,0|0,0:0|1:0,0:0:0:0:
64,212,17062,6,0,B|130:232|130:232|285:199,1,200,2|0,0:0|0:0,0:0:0:0:
306,21,17546,2,0,B|355:11,1,50,0|0,1:0|0:0,0:0:0:0:
282,110,17708,1,0,0:0:0:0:
143,21,17869,2,0,B|192:11,1,50,2|0,0:0|0:0,0:0:0:0:
119,110,18031,1,0,0:0:0:0:
33,0,18191,1,0,1:0:0:0:
119,110,18353,1,0,0:0:0:0:
71,288,18514,6,0,B|22:298,1,50,2|0,0:0|0:0,0:0:0:0:
95,199,18676,1,0,0:0:0:0:
234,288,18837,2,0,B|185:298,1,50,0|0,1:0|0:0,0:0:0:0:
258,199,18999,1,0,0:0:0:0:
183,381,19159,1,2,0:2:0:0:
183,381,19240,1,0,1:0:0:0:
183,381,19320,1,2,1:2:0:0:
258,199,19482,1,2,1:2:0:0:
345,384,19643,6,0,P|402:325|523:344,1,200,6|0,0:0|0:0,0:0:0:0:
362,235,20127,2,0,P|353:211|350:186,1,50,0|0,1:0|0:0,0:0:0:0:
349,95,20288,1,0,0:0:0:0:
499,182,20449,2,0,P|507:158|510:133,1,50,2|0,0:0|0:0,0:0:0:0:
512,42,20610,1,0,0:0:0:0:
444,245,20772,1,0,1:0:0:0:
349,95,20933,1,0,0:0:0:0:
214,239,21095,6,0,P|205:262|202:287,1,50,2|0,0:0|0:0,0:0:0:0:
200,379,21256,1,0,0:0:0:0:
350,186,21417,2,0,P|359:209|362:234,1,50,0|0,1:0|0:0,0:0:0:0:
363,326,21578,1,0,0:0:0:0:
268,176,21740,1,2,0:0:0:0:
115,241,21901,2,0,P|68:227|33:193,1,100,0|0,0:0|1:0,0:0:0:0:
123,80,22224,1,0,1:0:0:0:
124,104,22304,1,0,1:0:0:0:
125,129,22385,5,6,0:0:0:0:
237,126,22546,1,0,0:0:0:0:
349,123,22708,1,0,1:0:0:0:
125,129,22869,1,0,1:0:0:0:
125,129,23191,5,0,1:0:0:0:
72,30,23353,1,0,0:0:0:0:
179,227,23514,1,4,0:0:0:0:
179,227,23837,6,0,L|97:230,1,50,0|0,0:0|0:0,0:0:0:0:
203,269,23998,2,0,L|160:270,1,42.5000008106232
227,311,24159,2,0,L|177:312,1,34.9999989318848
251,353,24320,6,0,L|151:356,1,100
179,227,24804,2,0,L|179:189,1,37.5000014305115,2|2,0:0|0:0,0:0:0:0:
312,84,24966,6,0,L|311:249,1,150.000005722046,2|0,0:0|3:0,0:0:0:0:
134,121,25449,2,0,P|167:107|210:112,1,75.0000028610231,0|0,0:0|3:0,0:0:0:0:
311,233,25772,2,0,P|348:236|382:222,1,75.0000028610231,0|0,0:0|3:0,0:0:0:0:
180,190,26095,1,0,0:0:0:0:
88,295,26256,6,0,L|87:377,1,75.0000028610231,0|0,3:0|0:0,0:0:0:0:
180,190,26579,1,0,3:0:0:0:
79,94,26740,1,0,0:0:0:0:
2,211,26901,2,0,P|-2:248|8:288,1,75.0000028610231,0|0,3:0|0:0,0:0:0:0:
180,190,27224,2,0,P|184:153|174:113,1,75.0000028610231,0|0,3:0|0:0,0:0:0:0:
0,68,27546,6,0,P|50:16|123:23,1,150.000005722046,0|0,3:0|3:0,0:0:0:0:
248,93,28030,2,0,L|344:89,1,75.0000028610231,0|0,0:0|3:0,0:0:0:0:
490,81,28353,2,0,L|415:84,1,75.0000028610231,0|0,0:0|3:0,0:0:0:0:
365,6,28675,1,0,0:0:0:0:
465,160,28837,6,0,L|505:223,1,75.0000028610231,0|0,3:0|0:0,0:0:0:0:
372,166,29159,1,0,3:0:0:0:
472,320,29320,2,0,L|512:383,1,75.0000028610231,0|0,0:0|3:0,0:0:0:0:
422,243,29643,1,0,0:0:0:0:
331,248,29804,1,0,3:0:0:0:
240,253,29966,1,0,0:0:0:0:
148,344,30127,6,0,P|216:322|240:254,1,150.000005722046,0|0,3:0|3:0,0:0:0:0:
69,302,30611,2,0,P|58:337|64:374,1,75.0000028610231,0|0,0:0|3:0,0:0:0:0:
161,210,30933,2,0,P|171:174|165:137,1,75.0000028610231,0|0,0:0|3:0,0:0:0:0:
82,168,31256,1,0,0:0:0:0:
240,252,31417,6,0,L|314:243,1,75.0000028610231,0|0,3:0|0:0,0:0:0:0:
315,119,31740,1,0,3:0:0:0:
161,210,31901,1,0,0:0:0:0:
115,33,32062,2,0,P|152:31|187:42,1,75.0000028610231,0|0,3:0|0:0,0:0:0:0:
315,119,32385,2,0,P|277:120|242:109,1,75.0000028610231,0|0,3:0|0:0,0:0:0:0:
425,29,32708,6,0,B|412:81|412:81|426:123|438:176,1,150.000005722046,0|0,3:0|3:0,0:0:0:0:
512,179,33191,2,0,P|465:172|411:180,1,75.0000028610231,0|0,0:0|3:0,0:0:0:0:
262,298,33514,2,0,P|309:305|363:297,1,75.0000028610231,0|0,0:0|3:0,0:0:0:0:
387,238,33837,1,0,0:0:0:0:
512,299,33998,5,0,3:0:0:0:
508,384,34159,1,0,0:0:0:0:
387,238,34320,1,0,3:0:0:0:
383,153,34482,1,0,0:0:0:0:
262,298,34643,2,0,L|155:303,1,75.0000028610231,0|0,3:0|0:0,0:0:0:0:
138,190,34966,2,0,L|212:186,1,75.0000028610231,0|0,3:0|0:0,0:0:0:0:
376,74,35288,6,0,L|220:80,1,134.999995880127,6|0,0:0|0:0,0:0:0:0:
218,80,35611,1,0,1:0:0:0:
209,264,35772,2,0,L|250:184,1,89.9999972534181,0|2,0:0|0:0,0:0:0:0:
107,90,36095,1,0,0:0:0:0:
125,118,36176,1,0,0:0:0:0:
143,146,36256,1,0,1:0:0:0:
157,5,36417,1,0,0:0:0:0:
15,103,36579,6,0,L|87:216,1,134.999995880127,2|0,0:0|0:0,0:0:0:0:
100,235,36901,1,0,1:0:0:0:
278,224,37062,2,0,L|188:228,1,89.9999972534181,0|2,0:0|0:0,0:0:0:0:
159,329,37385,1,0,0:0:0:0:
192,327,37465,1,0,0:0:0:0:
226,326,37546,2,0,L|270:323,1,44.999998626709,0|0,1:0|0:0,0:0:0:0:
355,317,37708,2,0,L|399:314,1,44.999998626709
351,86,37869,6,0,L|289:204,1,134.999995880127,2|0,0:0|0:0,0:0:0:0:
278,224,38191,1,0,1:0:0:0:
148,96,38353,2,0,L|237:91,1,89.9999972534181,0|2,0:0|0:0,0:0:0:0:
382,27,38675,1,0,0:0:0:0:
366,56,38756,1,0,0:0:0:0:
351,86,38836,1,0,1:0:0:0:
186,0,38998,1,0,0:0:0:0:
185,178,39159,6,0,L|29:184,1,134.999995880127,2|0,0:0|0:0,0:0:0:0:
27,185,39482,1,0,1:0:0:0:
237,91,39643,2,0,L|284:167,1,89.9999972534181,0|2,0:0|0:0,0:0:0:0:
463,286,39966,6,0,L|483:246,1,44.999998626709,0|0,0:0|0:0,0:0:0:0:
418,216,40127,2,0,L|438:176,1,44.999998626709,0|0,1:0|0:0,0:0:0:0:
373,146,40288,2,0,L|393:106,1,44.999998626709,0|0,0:0|0:0,0:0:0:0:
307,300,40449,6,0,L|148:291,1,134.999995880127,6|0,0:0|0:0,0:0:0:0:
149,290,40772,1,0,1:0:0:0:
0,384,40933,2,0,L|49:308,1,89.9999972534181,0|2,0:0|0:0,0:0:0:0:
42,132,41256,2,0,L|82:212,1,89.9999972534181,0|0,0:0|1:0,0:0:0:0:
149,290,41579,1,0,0:0:0:0:
234,147,41740,6,0,L|393:156,1,134.999995880127,2|0,0:0|0:0,0:0:0:0:
392,157,42063,1,0,1:0:0:0:
499,315,42224,2,0,L|458:234,1,89.9999972534181,0|2,0:0|0:0,0:0:0:0:
271,91,42546,1,0,0:0:0:0:
252,119,42626,1,0,0:0:0:0:
234,147,42707,1,8,3:0:0:0:
360,253,42869,1,8,3:0:0:0:
316,9,43030,6,0,P|268:-2|221:10,1,100,6|8,0:0|3:0,0:0:0:0:
117,177,43353,2,0,P|164:188|212:175,1,100,0|0,3:0|0:0,0:0:0:0:
389,193,43675,6,0,P|389:218|384:243,1,50,4|0,1:2|0:0,0:0:0:0:
208,224,43837,2,0,P|208:200|213:175,1,50,0|0,1:2|0:0,0:0:0:0:
410,321,43998,2,0,P|410:346|405:371,1,50,0|0,1:2|0:0,0:0:0:0:
229,352,44160,2,0,P|228:327|233:302,1,50,0|0,1:2|0:0,0:0:0:0:
308,124,44320,5,4,3:2:0:0:
97,176,44482,1,0,3:0:0:0:
297,86,44643,1,4,3:0:0:0:
86,138,44805,1,0,3:0:0:0:
286,48,44966,5,0,1:0:0:0:
286,48,45288,1,4,3:0:0:0:
404,177,45611,6,0,P|354:172|306:185,1,100,6|0,0:0|0:0,0:0:0:0:
225,244,46095,1,2,3:2:0:0:
127,235,46256,2,0,P|176:230|224:243,1,100
310,296,46740,1,2,3:2:0:0:
453,235,46901,6,0,P|428:235|405:241,1,50
302,313,47224,2,0,P|326:313|351:307,1,50,0|2,0:0|3:2,0:0:0:0:
278,167,47546,2,0,P|255:178|238:196,1,50
185,309,47869,2,0,P|206:297|224:279,1,50,0|2,0:0|3:2,0:0:0:0:
140,194,48191,6,0,L|91:191,1,50
136,307,48514,2,0,L|185:309,1,50,0|2,0:0|3:2,0:0:0:0:
288,198,48837,2,0,L|238:195,1,50
284,311,49160,2,0,L|333:313,1,50,0|2,0:0|3:2,0:0:0:0:
408,185,49482,6,0,P|457:187|499:214,2,100,0|0|0,3:0|0:0|3:0,0:0:0:0:
431,277,50288,2,0,L|447:349,1,50,0|0,3:0|1:0,0:0:0:0:
495,95,50611,6,0,B|395:109|395:109|346:99,1,150,6|0,0:0|0:0,0:0:0:0:
323,92,50933,1,0,1:0:0:0:
408,185,51095,1,0,1:0:0:0:
390,27,51256,1,0,0:0:0:0:
256,157,51417,1,2,1:2:0:0:
219,151,51497,1,0,0:0:0:0:
187,131,51578,1,0,1:0:0:0:
165,101,51658,1,0,1:0:0:0:
165,67,51739,1,0,1:0:0:0:
165,67,51901,6,0,B|162:116|162:116|138:159|138:159|132:234,1,150,6|0,0:0|0:0,0:0:0:0:
134,235,52224,1,0,0:0:0:0:
239,330,52385,1,0,1:0:0:0:
104,373,52546,1,0,0:0:0:0:
240,230,52708,1,2,1:2:0:0:
283,240,52788,1,0,1:0:0:0:
317,270,52869,1,0,1:0:0:0:
335,311,52949,1,0,1:0:0:0:
338,361,53030,1,0,1:0:0:0:
338,361,53191,6,0,L|521:347,1,150,6|0,0:0|0:0,0:0:0:0:
512,347,53514,1,0,0:0:0:0:
376,147,53675,5,0,1:0:0:0:
371,270,53837,1,0,0:0:0:0:
482,58,53998,5,2,0:0:0:0:
475,230,54160,1,8,3:0:0:0:
284,42,54320,5,0,3:0:0:0:
269,326,54482,1,6,0:0:0:0:
165,104,54804,6,0,L|162:29,1,75.0000028610231,0|0,1:0|0:0,0:0:0:0:
167,188,54966,1,0,0:0:0:0:
82,84,55127,2,0,L|85:159,1,75.0000028610231,0|0,1:0|0:0,0:0:0:0:
4,214,55288,6,0,L|-1:64,1,150.000005722046,0|0,1:0|0:0,0:0:0:0:
220,233,55772,6,0,P|292:220|332:159,1,150,4|0,0:1|0:0,0:0:0:0:
334,134,56095,1,2,1:0:0:0:
128,236,56256,2,0,P|120:286|131:340,1,100,0|2,0:0|1:0,0:0:0:0:
241,141,56579,1,0,0:0:0:0:
100,228,56740,1,2,1:0:0:0:
309,298,56901,1,0,0:0:0:0:
263,50,57062,6,0,P|213:50|173:78,1,100,2|0,1:0|0:0,0:0:0:0:
246,219,57385,1,2,1:0:0:0:
267,17,57546,1,0,0:0:0:0:
413,199,57708,2,0,L|512:187,1,100,2|0,1:0|0:0,0:0:0:0:
268,309,58030,5,2,1:0:0:0:
323,103,58191,1,0,0:0:0:0:
121,203,58353,2,0,L|22:191,1,100,2|0,1:0|0:0,0:0:0:0:
246,219,58675,1,2,1:0:0:0:
301,13,58836,1,0,0:0:0:0:
99,113,58998,2,0,L|0:101,1,100,2|0,1:0|0:0,0:0:0:0:
223,128,59320,1,2,1:0:0:0:
196,16,59482,1,0,0:0:0:0:
78,222,59643,6,0,B|131:244|131:244|222:227,1,150,2|0,1:0|0:0,0:0:0:0:
246,219,59966,1,2,1:0:0:0:
99,113,60127,1,0,0:0:0:0:
339,192,60288,2,0,P|339:242|315:285,1,100,2|0,1:0|0:0,0:0:0:0:
139,335,60611,1,2,1:0:0:0:
175,325,60691,1,0,1:0:0:0:
211,331,60772,1,0,1:0:0:0:
242,352,60852,1,0,1:0:0:0:
261,384,60933,6,0,L|452:371,1,150,4|0,0:1|0:0,0:0:0:0:
435,371,61256,1,2,1:0:0:0:
512,229,61417,2,0,P|465:219|419:236,1,100,0|2,0:0|1:0,0:0:0:0:
261,384,61740,1,0,0:0:0:0:
337,185,61901,1,2,1:0:0:0:
346,339,62062,1,0,0:0:0:0:
260,126,62224,6,0,P|300:95|349:88,1,100,2|0,1:0|0:0,0:0:0:0:
406,265,62546,1,2,1:0:0:0:
458,120,62708,1,0,0:0:0:0:
249,218,62869,2,0,L|144:209,1,100,2|0,1:0|0:0,0:0:0:0:
260,126,63191,1,2,1:0:0:0:
177,313,63353,1,0,0:0:0:0:
4,117,63514,6,0,P|52:107|99:123,1,100,2|0,1:0|0:0,0:0:0:0:
249,218,63837,1,2,1:0:0:0:
46,200,63998,1,0,0:0:0:0:
152,46,64159,2,0,L|250:61,1,100,2|0,1:0|0:0,0:0:0:0:
463,146,64482,2,0,L|365:161,1,100,2|0,1:0|0:0,0:0:0:0:
241,367,64804,6,0,L|250:196,1,150,6|0,1:0|0:0,0:0:0:0:
234,196,65127,1,2,1:0:0:0:
218,176,65208,1,0,0:0:0:0:
202,156,65288,5,0,1:0:0:0:
239,155,65368,1,0,0:0:0:0:
273,141,65449,1,2,0:0:0:0:
300,115,65529,1,0,1:0:0:0:
314,80,65611,5,2,1:0:0:0:
349,44,65691,1,2,1:0:0:0:
394,25,65772,1,2,1:0:0:0:
444,27,65853,1,2,0:0:0:0:
489,48,65933,2,0,P|510:75|534:90,1,50,2|2,0:0|0:0,0:0:0:0:
427,291,66095,6,0,L|414:141,1,150,4|0,0:1|0:0,0:0:0:0:
411,118,66417,1,2,1:0:0:0:
280,247,66579,2,0,P|230:250|181:239,1,100,0|2,0:0|1:0,0:0:0:0:
96,128,66901,1,0,0:0:0:0:
127,308,67062,1,2,1:0:0:0:
241,140,67224,1,0,0:0:0:0:
6,107,67385,6,0,P|8:156|45:206,1,100,2|0,1:0|0:0,0:0:0:0:
226,302,67708,1,2,1:0:0:0:
253,111,67869,1,0,0:0:0:0:
99,273,68030,2,0,L|0:285,1,100,2|0,1:0|0:0,0:0:0:0:
129,134,68353,5,2,1:0:0:0:
226,302,68514,1,0,0:0:0:0:
337,104,68675,2,0,L|344:4,1,100,2|0,1:0|0:0,0:0:0:0:
241,140,68998,1,2,1:0:0:0:
338,308,69159,1,0,0:0:0:0:
449,110,69320,2,0,L|456:10,1,100,2|0,1:0|0:0,0:0:0:0:
357,198,69643,1,2,1:0:0:0:
512,216,69804,1,0,0:0:0:0:
312,333,69966,6,0,B|267:313|267:313|167:326,1,150,2|0,1:0|0:0,0:0:0:0:
141,332,70288,1,2,1:0:0:0:
272,189,70449,1,0,0:0:0:0:
418,375,70611,2,0,P|467:381|512:362,1,100,2|0,1:0|0:0,0:0:0:0:
312,333,70933,1,2,1:0:0:0:
362,171,71094,1,0,1:0:0:0:
362,171,71174,1,0,1:0:0:0:
362,171,71256,6,0,P|310:105|236:103,1,150,4|0,0:1|0:0,0:0:0:0:
224,107,71579,1,2,0:0:0:0:
367,259,71740,2,0,P|418:267|467:260,1,100,0|2,1:0|0:0,0:0:0:0:
410,76,72062,1,0,0:0:0:0:
272,189,72224,1,2,0:0:0:0:
293,20,72385,1,0,1:0:0:0:
462,154,72546,6,0,P|499:100|499:47,1,100,2|0,0:0|0:0,0:0:0:0:
341,138,72869,1,2,0:0:0:0:
369,282,73030,1,0,1:0:0:0:
180,194,73191,2,0,P|130:203|92:237,1,100,2|0,0:0|0:0,0:0:0:0:
38,345,73514,1,2,0:0:0:0:
0,174,73675,1,0,1:0:0:0:
171,288,73837,6,0,P|221:279|259:245,1,100,2|0,0:0|0:0,0:0:0:0:
312,136,74159,1,2,0:0:0:0:
180,194,74320,1,0,1:0:0:0:
274,24,74482,2,0,L|373:40,1,100,2|0,0:0|0:0,0:0:0:0:
98,129,74804,2,0,L|0:113,1,100,2|0,0:0|1:0,0:0:0:0:
8,349,75127,6,0,P|56:295|129:297,1,150,4|0,1:0|0:0,0:0:0:0:
218,349,75449,2,0,L|268:345,1,50,2|0,3:2|2:0,0:0:0:0:
334,220,75611,2,0,L|303:278,1,50,2|0,3:2|2:0,0:0:0:0:
388,384,75772,2,0,L|360:342,1,50,2|0,3:2|2:0,0:0:0:0:
169,214,75933,6,0,L|250:208,1,50,2|0,3:2|2:0,0:0:0:0:
413,141,76095,2,0,L|363:143,1,50,2|0,3:2|2:0,0:0:0:0:
193,75,76256,2,0,L|274:69,1,50,2|0,3:2|2:0,0:0:0:0:
438,2,76417,2,0,L|388:4,1,50,2|0,3:2|2:0,0:0:0:0:
105,12,76579,5,4,3:0:0:0:
105,12,76740,1,4,3:0:0:0:
105,12,77224,5,0,1:0:0:0:
106,37,77304,1,0,1:0:0:0:
107,62,77385,1,0,1:0:0:0:
108,87,77465,1,0,1:0:0:0:
110,112,77546,2,0,L|113:174,1,50,0|0,1:0|1:0,0:0:0:0:
40,297,77708,6,0,P|119:243|209:277,1,200,6|0,0:0|0:0,0:0:0:0:
290,371,78191,2,0,L|284:291,1,50,0|0,1:0|0:0,0:0:0:0:
278,221,78353,1,0,0:0:0:0:
500,256,78514,2,0,L|420:262,1,50,2|0,0:0|0:0,0:0:0:0:
350,268,78676,1,0,0:0:0:0:
500,176,78837,1,0,1:0:0:0:
500,176,78998,1,0,0:0:0:0:
385,46,79159,6,0,L|391:126,1,50,2|0,0:0|0:0,0:0:0:0:
397,196,79321,1,0,0:0:0:0:
175,161,79482,2,0,L|255:155,1,50,0|0,1:0|0:0,0:0:0:0:
325,149,79644,1,0,0:0:0:0:
350,268,79804,1,2,0:0:0:0:
307,60,79966,2,0,L|207:67,1,100,0|0,0:0|1:0,0:0:0:0:
51,83,80288,6,0,B|45:154|45:154|67:214|67:214|58:279,1,200,2|0,0:0|0:0,0:0:0:0:
213,189,80772,2,0,L|293:183,1,50,0|0,1:0|0:0,0:0:0:0:
143,125,80934,1,0,0:0:0:0:
58,278,81095,2,0,L|-22:272,1,50,2|0,0:0|0:0,0:0:0:0:
128,214,81257,1,0,0:0:0:0:
207,338,81417,1,0,1:0:0:0:
207,338,81579,1,0,0:0:0:0:
347,210,81740,6,0,L|427:216,1,50,2|0,0:0|0:0,0:0:0:0:
277,274,81902,1,0,0:0:0:0:
192,121,82063,2,0,L|112:127,1,50,0|0,1:0|0:0,0:0:0:0:
262,185,82224,1,0,0:0:0:0:
347,32,82385,1,2,0:0:0:0:
347,32,82466,1,0,1:0:0:0:
347,32,82546,1,0,1:0:0:0:
262,185,82708,1,0,1:0:0:0:
139,19,82869,6,0,P|34:37|14:141,1,200,6|0,0:0|0:0,0:0:0:0:
88,249,83353,2,0,P|99:223|103:184,1,50,0|0,1:0|0:0,0:0:0:0:
99,104,83514,1,0,0:0:0:0:
233,212,83675,2,0,P|222:186|218:147,1,50,2|0,0:0|0:0,0:0:0:0:
222,67,83836,1,0,0:0:0:0:
382,170,83998,1,0,1:0:0:0:
382,170,84159,1,0,0:0:0:0:
298,384,84320,6,0,L|302:334,1,50,6|0,0:0|0:0,0:0:0:0:
309,232,84482,1,0,0:0:0:0:
197,349,84643,2,0,L|201:299,1,50,0|0,1:0|0:0,0:0:0:0:
208,197,84805,1,0,0:0:0:0:
96,315,84966,1,4,0:3:0:0:
96,315,85046,1,4,0:3:0:0:
96,315,85127,1,4,0:3:0:0:
106,103,85288,1,0,1:0:0:0:
96,315,85449,1,2,0:0:0:0:
95,340,85530,1,2,0:0:0:0:
94,365,85611,5,4,0:0:0:0:
233,258,85772,1,0,0:0:0:0:
105,139,85933,1,0,1:0:0:0:
243,32,86095,5,6,0:0:0:0:
96,315,86417,1,6,0:0:0:0:
449,245,86740,1,6,0:0:0:0:
218,220,87062,6,0,L|169:214,1,50,0|0,3:0|3:0,0:0:0:0:
0,191,87224,2,0,L|48:196,1,50,0|0,3:0|3:0,0:0:0:0:
96,315,87385,6,0,L|101:266,1,50,0|0,3:0|3:0,0:0:0:0:
121,96,87546,2,0,L|115:144,1,50,0|0,3:0|3:0,0:0:0:0:
221,340,87708,5,0,3:0:0:0:
221,340,87788,1,0,0:0:0:0:
221,340,87869,1,0,0:0:0:0:
433,161,88030,6,0,B|396:23|396:23|258:60|258:60|295:197|295:197|364:179,1,489.999985046387
