osu file format v14

[General]
AudioFilename: audio.mp3
AudioLeadIn: 0
PreviewTime: 55691
Countdown: 0
SampleSet: Soft
StackLeniency: 0.5
Mode: 0
LetterboxInBreaks: 0
WidescreenStoryboard: 0

[Editor]
Bookmarks: 5449,14482,24966,35288,45611,77708
DistanceSpacing: 0.9
BeatDivisor: 4
GridSize: 32
TimelineZoom: 1.4

[Metadata]
Title:GAMERS!
TitleUnicode:GAMERS!
Artist:Kanemoto Hisako & Iwami Manaka & Ookubo Rumi
ArtistUnicode:金元寿子&石見舞菜香&大久保瑠美
Creator:Ohwow
Version:Easy
Source:ゲーマーズ!
Tags:Gemazu TV Size Opening Mafumafu まふまふ 天道花憐 星ノ守千秋 亜玖璃 Tendou Karen Aguri Chiaki Hoshinomori
BeatmapID:1378480
BeatmapSetID:645591

[Difficulty]
HPDrainRate:2
CircleSize:3
OverallDifficulty:2
ApproachRate:3
SliderMultiplier:1
SliderTickRate:1

[Events]
//Background and Video events
0,0,"bg.jpg",0,0
Video,0,"video.avi"
//Break Periods
2,9520,11751
//Storyboard Layer 0 (Background)
//Storyboard Layer 1 (Fail)
//Storyboard Layer 2 (Pass)
//Storyboard Layer 3 (Foreground)
//Storyboard Sound Samples

[TimingPoints]
450,322.58064516129,4,2,1,70,1,0
55772,-100,4,2,1,80,0,1
65933,-100,4,2,1,80,0,0
66095,-100,4,2,1,80,0,1
76579,-100,4,2,1,70,0,0
89159,-100,4,2,1,5,0,0

[Colours]
Combo1 : 255,53,58
Combo2 : 250,190,224
Combo3 : 170,216,253
Combo4 : 207,69,241
Combo5 : 205,242,168
Combo6 : 247,216,108
SliderTrackOverride : 30,30,30
SliderBorder : 255,255,250

[HitObjects]
261,253,450,6,0,B|384:230|384:230|470:268,2,200,4|4|4,3:0|3:0|3:0,0:0:0:0:
84,285,2385,1,4,3:0:0:0:
1,124,3030,6,0,P|45:39|140:28,1,200,4|4,3:0|3:0,0:0:0:0:
246,112,4159,2,0,B|309:136|372:113|372:113|424:161,1,200,4|0,0:0|1:0,0:0:0:0:
490,222,5127,1,4,3:0:0:0:
464,308,5449,6,0,P|402:349|330:336,1,150,4|2,0:0|0:0,0:0:0:0:
265,275,6256,2,0,L|166:280,1,100,2|2,0:0|0:0,0:0:0:0:
103,345,6901,2,0,P|79:303|80:253,1,100,2|2,0:0|0:0,0:0:0:0:
147,193,7546,2,0,P|148:144|123:101,1,100,2|0,0:0|1:0,0:0:0:0:
53,42,8191,6,0,B|102:12|102:12|213:27,1,150,0|0,3:0|1:0,0:0:0:0:
271,70,8998,1,0,1:0:0:0:
354,36,9320,1,4,0:0:0:0:
168,120,13191,6,0,L|69:127,2,100,0|0|0,1:0|1:0|1:0,0:0:0:0:
317,18,14482,6,0,B|416:30|416:30|436:95,1,150,6|0,0:0|1:0,0:0:0:0:
455,164,15288,2,0,L|483:259,1,100,2|0,0:0|1:0,0:0:0:0:
393,256,15933,2,0,P|343:256|298:278,1,100,2|0,0:0|1:0,0:0:0:0:
240,347,16579,1,2,0:0:0:0:
105,353,17062,6,0,B|72:320|60:265|60:265|76:246|86:221,1,150,2|0,0:0|1:0,0:0:0:0:
127,142,17869,2,0,P|125:98|100:44,1,100,2|0,0:0|1:0,0:0:0:0:
191,35,18514,2,0,L|291:42,1,100,2|0,0:0|1:0,0:0:0:0:
379,28,19159,1,2,0:2:0:0:
416,158,19643,6,0,B|316:151|316:151|268:170,1,150,6|0,0:0|1:0,0:0:0:0:
179,167,20449,2,0,L|79:160,1,100,2|0,0:0|1:0,0:0:0:0:
30,236,21095,2,0,P|42:288|35:337,1,100,2|0,0:0|1:0,0:0:0:0:
125,344,21740,2,0,P|126:294|145:248,1,100,2|0,0:0|1:0,0:0:0:0:
230,218,22385,6,0,B|287:233|287:233|377:218,1,150,6|0,0:0|1:0,0:0:0:0:
463,243,23191,1,0,1:0:0:0:
509,165,23514,1,4,0:0:0:0:
179,27,24966,6,0,B|81:41|81:41|53:137,1,200,2|0,0:0|3:0,0:0:0:0:
43,226,25933,1,0,3:0:0:0:
132,220,26256,2,0,B|232:228|232:228|294:197,2,150,0|0|0,3:0|0:0|3:0,0:0:0:0:
92,301,27546,6,0,L|292:317,1,200,0|0,3:0|0:0,0:0:0:0:
354,252,28514,1,0,3:0:0:0:
276,206,28837,2,0,P|246:140|271:70,1,150,0|0,3:0|0:0,0:0:0:0:
403,43,29804,1,0,3:0:0:0:
446,122,30127,6,0,L|432:321,1,200,0|0,3:0|3:0,0:0:0:0:
358,373,31095,1,0,3:0:0:0:
278,331,31417,2,0,L|126:340,2,150,0|0|0,3:0|0:0|3:0,0:0:0:0:
353,277,32708,6,0,P|379:187|305:129,1,200,0|0,3:0|3:0,0:0:0:0:
225,173,33675,1,0,3:0:0:0:
150,123,33998,2,0,P|100:116|50:119,2,100,0|0|0,3:0|3:0|3:0,0:0:0:0:
219,262,35288,6,0,P|276:338|370:326,1,200,6|2,0:0|0:0,0:0:0:0:
432,261,36256,1,0,1:0:0:0:
392,179,36579,2,0,L|404:79,1,100,2|0,0:0|1:0,0:0:0:0:
332,23,37224,2,0,L|233:34,1,100,2|0,0:0|1:0,0:0:0:0:
143,47,37869,6,0,B|94:60|45:43|45:43|54:94|28:140,1,200,2|2,0:0|0:0,0:0:0:0:
1,226,38837,1,0,1:0:0:0:
76,271,39159,2,0,P|102:314|109:363,2,100,2|0|2,0:0|1:0|0:0,0:0:0:0:
1,226,40127,1,0,0:0:0:0:
41,145,40449,6,0,B|85:117|85:117|233:126,1,200,6|2,0:0|0:0,0:0:0:0:
318,95,41417,1,0,1:0:0:0:
394,145,41740,2,0,B|423:185|423:185|438:233,1,100,2|0,0:0|1:0,0:0:0:0:
358,272,42385,2,0,B|329:231|329:231|314:184,1,100,2|8,0:0|3:0,0:0:0:0:
318,95,43030,6,0,P|372:88|422:48,2,100,6|0|4,0:0|3:0|1:2,0:0:0:0:
238,55,43998,1,0,1:0:0:0:
183,125,44320,2,0,L|178:224,1,100,4|4,3:2|3:0,0:0:0:0:
240,291,44966,1,0,1:0:0:0:
240,291,45611,6,0,P|337:280|426:324,2,200,6|0|0,0:0|0:0|0:0,0:0:0:0:
168,345,47224,1,0,0:0:0:0:
79,327,47546,2,0,P|36:304|13:261,1,100,0|0,0:0|0:0,0:0:0:0:
25,172,48191,6,0,L|17:72,1,100,0|0,0:0|0:0,0:0:0:0:
108,66,48837,2,0,L|116:165,1,100,0|0,0:0|0:0,0:0:0:0:
200,197,49482,2,0,B|271:207|329:172|329:172|394:178,1,200,0|0,3:0|3:0,0:0:0:0:
456,58,50611,6,0,B|307:42,1,150,6|0,0:0|1:0,0:0:0:0:
218,30,51417,1,2,1:2:0:0:
305,132,51901,6,0,B|322:183|322:183|297:276,1,150,6|0,0:0|1:0,0:0:0:0:
272,363,52708,1,2,1:2:0:0:
387,292,53191,6,0,B|425:146,1,150,6|0,0:0|1:0,0:0:0:0:
450,60,53998,1,2,0:0:0:0:
336,133,54482,6,0,B|237:153|237:153|83:115,1,250,6|0,0:0|1:0,0:0:0:0:
54,247,55772,6,0,P|73:317|141:343,1,150,4|0,0:1|0:0,0:0:0:0:
216,292,56579,2,0,B|316:280|316:280|362:295,1,150,0|2,0:0|1:0,0:0:0:0:
446,329,57385,1,2,1:0:0:0:
450,239,57708,2,0,L|455:139,1,100,2|2,1:0|1:0,0:0:0:0:
488,54,58353,6,0,P|438:48|394:71,1,100,2|2,1:0|1:0,0:0:0:0:
361,153,58998,2,0,P|316:176|267:171,1,100,2|2,1:0|1:0,0:0:0:0:
201,111,59643,1,2,1:0:0:0:
141,179,59966,1,2,1:0:0:0:
208,239,60288,2,0,P|216:287|197:333,1,100,2|2,1:0|1:0,0:0:0:0:
113,367,60933,6,0,P|51:329|36:258,1,150,4|0,0:1|0:0,0:0:0:0:
62,172,61740,2,0,B|73:125|58:73|58:73|95:31,1,150,0|2,0:0|1:0,0:0:0:0:
177,6,62546,1,2,1:0:0:0:
233,77,62869,2,0,L|345:93,1,100,2|2,1:0|1:0,0:0:0:0:
414,129,63514,6,0,P|466:121|511:81,2,100,2|2|2,1:0|1:0|1:0,0:0:0:0:
332,91,64482,1,2,1:0:0:0:
284,166,64804,2,0,B|301:237|270:313|270:313|344:292|417:321,1,300,6|2,1:0|1:0,0:0:0:0:
493,370,66095,6,0,P|506:300|450:235,1,150,4|0,0:1|0:0,0:0:0:0:
377,209,66901,2,0,B|393:111|393:111|378:63,1,150,0|2,0:0|1:0,0:0:0:0:
302,14,67708,1,2,1:0:0:0:
220,51,68030,2,0,L|121:58,1,100,2|2,1:0|1:0,0:0:0:0:
45,9,68675,6,0,P|31:56|45:108,1,100,2|2,1:0|1:0,0:0:0:0:
122,147,69320,2,0,P|135:194|120:242,1,100,2|2,1:0|1:0,0:0:0:0:
64,312,69966,1,2,1:0:0:0:
134,368,70288,1,2,1:0:0:0:
191,298,70611,2,0,P|234:273|284:274,1,100,2|2,1:0|1:0,0:0:0:0:
370,294,71256,6,0,L|385:121,1,150,4|0,0:1|1:0,0:0:0:0:
293,153,72062,2,0,P|244:158|197:141,1,100,0|0,0:0|1:0,0:0:0:0:
127,85,72708,2,0,B|82:66|82:66|32:69,1,100,0|0,0:0|1:0,0:0:0:0:
17,158,73353,2,0,B|63:176|63:176|113:173,1,100,0|0,0:0|1:0,0:0:0:0:
198,141,73998,6,0,P|234:77|304:55,1,150,0|2,0:0|0:0,0:0:0:0:
394,68,74804,1,2,0:0:0:0:
445,142,75127,2,0,B|421:196|421:196|433:234|432:286,1,150,4|2,1:0|3:2,0:0:0:0:
393,367,75933,1,2,3:2:0:0:
238,276,76579,6,0,L|181:274,1,50,4|4,3:0|3:0,0:0:0:0:
21,193,77708,6,0,B|70:199|70:199|110:165|162:162,1,150,6|0,0:0|1:0,0:0:0:0:
251,170,78514,2,0,P|298:188|332:224,1,100,2|0,0:0|1:0,0:0:0:0:
385,297,79159,2,0,L|496:282,1,100,2|0,0:0|1:0,0:0:0:0:
504,196,79804,1,2,0:0:0:0:
431,83,80288,6,0,B|375:107|375:107|266:77,1,150,2|0,0:0|1:0,0:0:0:0:
214,34,81095,2,0,P|168:20|99:31,1,100,2|0,0:0|1:0,0:0:0:0:
50,83,81740,2,0,L|44:193,1,100,2|0,0:0|1:0,0:0:0:0:
40,272,82385,1,2,0:0:0:0:
174,252,82869,6,0,B|151:193|151:193|156:106,1,150,6|0,0:0|1:0,0:0:0:0:
228,52,83675,2,0,L|328:46,1,100,2|0,0:0|1:0,0:0:0:0:
386,115,84320,2,0,B|404:163|404:163|401:211,1,100,6|0,0:0|1:0,0:0:0:0:
311,226,84966,2,0,B|294:177|294:177|297:129,1,100,4|0,0:3|1:0,0:0:0:0:
328,46,85611,6,0,L|179:37,1,150,4|6,0:0|0:0,0:0:0:0:
94,13,86417,1,6,0:0:0:0:
21,65,86740,1,6,0:0:0:0:
41,153,87062,2,0,B|70:193|70:193|170:199,1,150,0|8,3:0|3:0,0:0:0:0:
297,156,88030,6,0,P|419:220|289:263,1,350,6|0,0:0|0:0,0:0:0:0:
